osu file format v14

[General]
AudioFilename: audio.mp3
AudioLeadIn: 0
PreviewTime: 48854
Countdown: 0
SampleSet: Soft
StackLeniency: 0.4
Mode: 0
LetterboxInBreaks: 0
WidescreenStoryboard: 0

[Editor]
Bookmarks: 16119,32031,39987,49931,65843,81754,97666,105622,115567,131478,147390,163301,171257,179213,195125,203080
DistanceSpacing: 1
BeatDivisor: 4
GridSize: 8
TimelineZoom: 2.14

[Metadata]
Title:Gentou Yuukaku
TitleUnicode:幻燈遊郭
Artist:Hatsuki Yura
ArtistUnicode:葉月ゆら
Creator:Suissie
Version:Collab
Source:
Tags:hatsuki yura xenok deramok 宵闇恋想奇譚
BeatmapID:1325268
BeatmapSetID:628617

[Difficulty]
HPDrainRate:7
CircleSize:4
OverallDifficulty:8
ApproachRate:8.7
SliderMultiplier:1.7
SliderTickRate:1

[Events]
//Background and Video events
0,0,"BG.jpg",0,0
//Break Periods
//Storyboard Layer 0 (Background)
//Storyboard Layer 1 (Fail)
//Storyboard Layer 2 (Pass)
//Storyboard Layer 3 (Foreground)
//Storyboard Sound Samples

[TimingPoints]
208,331.491712707182,3,2,2,70,1,0
16119,-200,3,2,0,40,0,0
32031,-133.333333333333,3,2,2,70,0,0
47942,-181.818181818181,3,1,2,70,0,0
48937,-181.818181818181,3,1,2,85,0,0
49600,-181.818181818181,3,1,2,50,0,0
49683,-181.818181818181,3,1,2,55,0,0
49766,-181.818181818181,3,1,2,60,0,0
49848,-181.818181818181,3,1,2,65,0,0
49931,-100,3,2,2,70,0,1
64848,-133.333333333333,3,2,2,86,0,1
65843,-100,3,2,2,70,0,0
81754,-133.333333333333,3,3,2,55,0,0
88964,-133.333333333333,3,3,2,5,0,0
89047,-200,3,3,2,26,0,0
89710,-133.333333333333,3,3,2,26,0,0
97666,-133.333333333333,3,2,2,70,0,0
105622,-133.333333333333,3,2,2,70,0,0
108605,-111.111111111111,3,2,2,70,0,0
109600,-133.333333333333,3,2,2,70,0,0
113578,-181.818181818181,3,1,2,70,0,0
114572,-181.818181818181,3,1,2,85,0,0
115235,-181.818181818181,3,1,2,50,0,0
115318,-181.818181818181,3,1,2,55,0,0
115401,-181.818181818181,3,1,2,60,0,0
115484,-181.818181818181,3,1,2,65,0,0
115567,-100,3,2,2,70,0,1
129489,-142.857142857143,3,2,2,70,0,1
130484,-200,3,2,2,70,0,1
131478,-100,3,2,2,70,0,0
147390,-125,3,2,2,60,0,0
163301,-166.666666666667,3,3,0,40,0,0
171257,-125,3,2,2,70,0,0
178882,-125,3,2,2,50,0,0
178964,-125,3,2,2,55,0,0
179047,-125,3,2,2,60,0,0
179130,-125,3,2,2,65,0,0
179213,-100,3,2,2,70,0,1
195125,-100,3,2,2,70,0,0

[Colours]
Combo1 : 234,0,0
Combo2 : 119,0,0

[HitObjects]
74,317,42,5,0,0:0:0:0:
74,317,125,1,0,0:0:0:0:
74,317,208,2,0,P|114:333|234:269,2,170,4|0|0,0:1|0:0|0:0,0:0:0:0:
137,241,1036,1,0,0:0:0:0:
225,287,1202,2,0,P|293:240|375:256,2,170,2|8|0,0:0|0:0|0:0,0:0:0:0:
312,328,2031,1,0,0:0:0:0:
350,166,2196,6,0,P|297:163|265:170,1,85,2|0,0:0|0:0,0:0:0:0:
191,208,2528,2,0,P|235:178|266:168,1,85,0|8,0:0|0:0,0:0:0:0:
243,87,2859,2,0,L|267:175,1,85
250,277,3191,1,2,0:0:0:0:
350,166,3357,1,0,0:0:0:0:
343,252,3522,1,10,0:0:0:0:
191,208,3688,1,2,0:0:0:0:
250,277,3854,1,0,3:0:0:0:
272,192,4020,1,0,0:0:0:0:
176,336,4185,6,0,P|113:282|32:296,2,170,2|0|0,0:0|0:0|0:0,0:0:0:0:
176,336,5014,1,0,0:0:0:0:
248,280,5180,2,0,P|310:333|391:319,2,170,2|8|0,0:0|0:0|0:0,0:0:0:0:
262,295,5926,5,0,0:0:0:0:
262,295,6009,1,0,0:0:0:0:
262,295,6091,1,0,0:0:0:0:
262,295,6174,2,0,B|256:208|192:224|198:127,1,170,2|0,0:0|0:0,0:0:0:0:
288,152,6672,1,8,0:0:0:0:
161,259,6837,2,0,P|131:208|122:163,1,85
216,48,7169,5,2,0:0:0:0:
197,142,7335,1,8,0:0:0:0:
308,16,7500,1,0,0:0:0:0:
310,121,7666,1,0,0:0:0:0:
397,35,7832,1,6,0:0:0:0:
310,121,7998,1,2,0:0:0:0:
462,111,8163,6,0,P|489:190|462:269,2,170,4|0|0,0:1|0:0|0:0,0:0:0:0:
387,190,8992,1,0,0:0:0:0:
303,260,9158,2,0,P|381:289|462:267,2,170,2|8|0,0:0|0:0|0:0,0:0:0:0:
387,190,9987,1,0,0:0:0:0:
271,175,10152,6,0,P|291:122|324:89,1,85,2|0,0:0|0:0,0:0:0:0:
383,63,10484,2,0,P|330:83|297:117,1,85,0|8,0:0|0:0,0:0:0:0:
368,162,10815,2,0,L|309:101,1,85
432,224,11147,1,2,0:0:0:0:
400,320,11312,1,0,0:0:0:0:
296,337,11478,1,10,0:0:0:0:
330,239,11644,1,2,0:0:0:0:
432,224,11810,1,0,3:0:0:0:
400,320,11975,1,0,0:0:0:0:
239,237,12141,6,0,P|264:179|363:152,2,170,4|0|0,0:0|0:0|0:0,0:0:0:0:
330,239,12970,1,0,0:0:0:0:
170,185,13136,6,0,B|131:272|193:269|155:359,1,170,6|0,0:0|0:0,0:0:0:0:
86,303,13633,1,0,0:0:0:0:
239,237,13799,2,0,P|247:197|247:173,3,42.5
328,248,14130,2,0,P|342:193|376:161,1,85,6|8,0:0|0:0,0:0:0:0:
445,178,14462,2,0,P|430:123|396:91,1,85,0|0,0:0|3:0,0:0:0:0:
326,93,14793,2,0,P|344:48|464:32,1,170,2|4,3:2|0:0,0:0:0:0:
24,264,16119,2,0,P|65:239|94:202,1,85
129,137,16616,1,0,0:0:0:0:
157,258,16782,2,0,P|169:233|174:207,1,42.5,2|0,0:0|0:0,0:0:0:0:
274,285,17114,6,0,P|261:237|267:191,1,85,0|0,2:0|2:0,2:0:0:0:
294,125,17611,1,0,0:0:0:0:
385,212,17777,2,0,P|367:186|349:171,1,42.5,2|0,0:0|0:0,0:0:0:0:
418,288,18108,6,0,P|444:270|459:252,1,42.5
343,323,18440,2,0,P|361:348|379:363,1,42.5,2|0,0:0|0:0,0:0:0:0:
304,248,18771,2,0,P|278:266|263:284,1,42.5,2|0,0:0|0:0,0:0:0:0:
451,262,19103,6,0,P|456:216|440:168,1,85
368,40,19766,1,0,0:0:0:0:
368,40,19931,1,0,0:0:0:0:
264,104,20097,2,0,P|232:112|176:104,1,85,2|0,0:0|0:0,0:0:0:0:
4,48,20760,2,0,P|14:66|22:86,1,42.5
48,184,21091,2,0,P|54:225|46:267,1,85,2|0,0:0|0:0,0:0:0:0:
16,344,21589,1,0,0:0:0:0:
96,328,21754,2,0,P|137:319|179:326,1,85,2|2,0:0|0:0,0:0:0:0:
256,225,22252,5,0,0:0:0:0:
186,321,22417,1,0,0:0:0:0:
298,284,22583,1,0,0:0:0:0:
186,248,22749,1,2,3:2:0:0:
256,344,22915,1,2,3:2:0:0:
264,352,23080,1,0,3:0:0:0:
272,360,23412,1,2,3:0:0:0:
408,144,24075,6,0,P|362:137|316:144,1,85
232,162,24572,1,0,0:0:0:0:
300,44,24738,2,0,L|272:92,1,42.5,2|0,0:0|0:0,0:0:0:0:
159,0,25069,2,0,P|187:36|204:79,1,85
232,162,25567,1,0,0:0:0:0:
300,44,25732,2,0,L|272:92,1,42.5,2|0,0:0|0:0,0:0:0:0:
248,248,26064,6,0,P|274:236|300:231,1,42.5
170,214,26395,2,0,P|142:206|115:206,1,42.5,2|0,0:0|0:0,0:0:0:0:
232,162,26727,2,0,P|211:141|188:128,1,42.5,2|0,0:0|0:0,0:0:0:0:
376,80,27058,2,0,P|344:104|320:152,1,85
288,296,27721,1,0,0:0:0:0:
288,296,27887,1,0,0:0:0:0:
144,200,28053,6,0,P|112:192|56:192,1,85,2|0,0:0|0:0,0:0:0:0:
232,232,28716,1,0,0:0:0:0:
352,112,29047,2,0,P|323:128|284:168,1,85,2|0,0:0|0:0,0:0:0:0:
232,232,29545,1,0,0:0:0:0:
184,112,29710,2,0,P|202:138|210:162,1,42.5,2|0,0:0|0:0,0:0:0:0:
232,232,30042,5,0,0:0:0:0:
243,236,30125,1,0,0:0:0:0:
243,245,30207,1,0,0:0:0:0:
232,250,30290,1,0,0:0:0:0:
224,240,30373,1,0,0:0:0:0:
312,200,30539,1,2,0:0:0:0:
152,296,30705,1,0,0:0:0:0:
144,112,31036,6,0,L|120:80,6,21.25,2|0|0|0|0|0|0,0:0|0:0|0:0|0:0|0:0|0:0|0:0,0:0:0:0:
144,112,31699,1,0,0:0:0:0:
330,108,32031,6,0,P|342:165|318:234,1,127.500004863739,4|0,0:1|0:0,0:0:0:0:
258,332,32528,1,0,0:0:0:0:
338,323,32693,1,0,0:0:0:0:
418,314,32859,1,0,0:0:0:0:
232,232,33025,2,0,L|141:325,1,127.500004863739,8|0,0:0|0:0,0:0:0:0:
116,211,33522,1,0,0:0:0:0:
43,173,33688,1,2,0:0:0:0:
47,256,33854,1,0,2:0:0:0:
222,150,34020,6,0,P|282:163|316:231,1,127.500004863739,2|0,0:0|0:0,0:0:0:0:
312,303,34517,1,0,0:0:0:0:
335,223,34683,1,0,0:0:0:0:
358,143,34848,1,0,0:0:0:0:
272,40,35014,2,0,L|231:164,1,127.500004863739,10|0,0:0|0:0,0:0:0:0:
255,246,35511,1,0,0:0:0:0:
335,223,35677,1,0,0:0:0:0:
415,200,35842,1,0,0:0:0:0:
239,344,36009,6,0,P|191:332|151:254,1,127.500004863739,2|0,0:0|0:0,0:0:0:0:
111,109,36506,1,0,0:0:0:0:
191,132,36671,1,0,0:0:0:0:
271,155,36837,1,0,0:0:0:0:
384,48,37003,2,0,L|408:192,1,127.500004863739,8|2,0:0|0:0,0:0:0:0:
494,312,37500,1,0,0:0:0:0:
424,254,37666,1,2,0:0:0:0:
409,344,37832,1,0,0:0:0:0:
286,255,37998,6,0,P|223:279|200:342,1,127.500004863739,2|0,0:0|0:0,0:0:0:0:
240,180,38495,1,0,0:0:0:0:
286,255,38661,1,0,0:0:0:0:
332,330,38826,1,0,0:0:0:0:
328,178,38992,1,8,0:0:0:0:
417,207,39158,2,0,P|421:175|415:139,1,63.7500024318696,8|2,0:0|0:1,0:0:0:0:
320,48,39489,5,0,0:0:0:0:
240,72,39655,1,2,0:0:0:0:
160,96,39821,1,0,0:0:0:0:
16,88,39987,2,0,P|64:112|80:200,1,127.500004863739,4|0,0:0|0:0,0:0:0:0:
240,336,40649,1,0,0:0:0:0:
320,312,40815,1,0,0:0:0:0:
464,320,40981,2,0,P|416:296|400:208,1,127.500004863739,10|0,0:0|0:0,0:0:0:0:
272,88,41478,5,0,0:0:0:0:
355,116,41644,2,0,L|427:92,1,63.7500024318696
280,184,41975,2,0,L|208:208,1,63.7500024318696,2|0,0:0|0:0,0:0:0:0:
389,107,42307,2,0,L|465:103,1,63.7500024318696,2|0,0:0|0:0,0:0:0:0:
263,227,42638,2,0,L|187:231,1,63.7500024318696,2|0,0:0|0:0,0:0:0:0:
423,55,42970,2,0,L|503:71,1,63.7500024318696,8|0,0:0|3:0,0:0:0:0:
240,96,43301,2,0,L|160:80,1,63.7500024318696,2|0,0:0|3:0,0:0:0:0:
416,200,43633,2,0,L|496:216,1,63.7500024318696,2|0,0:0|3:0,0:0:0:0:
232,320,43964,6,0,P|152:296|128:240,1,127.500004863739,6|0,0:0|0:0,0:0:0:0:
111,180,44462,1,0,0:0:0:0:
141,101,44627,1,2,0:0:0:0:
216,61,44793,1,0,0:0:0:0:
416,32,44959,6,0,B|392:72|392:72|432:112|416:168,1,127.500004863739,14|0,0:0|0:0,0:0:0:0:
352,224,45456,1,0,0:0:0:0:
344,136,45622,1,2,0:0:0:0:
272,184,45788,1,0,0:0:0:0:
296,71,45953,6,0,P|346:56|416:103,1,127.500004863739,14|0,0:0|0:0,0:0:0:0:
432,224,46451,1,0,0:0:0:0:
320,296,46616,1,0,0:0:0:0:
216,216,46782,1,0,0:0:0:0:
432,224,46948,5,8,0:0:0:0:
307,157,47114,1,8,0:0:0:0:
320,296,47279,1,0,0:0:0:0:
400,304,47445,1,8,3:2:0:0:
432,224,47611,1,0,3:0:0:0:
353,221,47777,1,0,3:0:0:0:
320,296,47942,2,0,B|240:272|168:304|168:304|160:264|120:232,1,233.750007133484,2|0,0:0|0:0,0:0:0:0:
56,160,48937,5,8,0:3:0:0:
184,128,49103,1,8,0:3:0:0:
168,120,49434,1,0,0:0:0:0:
171,301,49600,5,0,3:0:0:0:
197,290,49682,1,0,1:0:0:0:
224,284,49765,1,0,1:0:0:0:
252,284,49848,1,0,1:0:0:0:
280,288,49931,6,0,P|376:288|432:240,1,170,4|0,0:1|0:0,0:0:0:0:
406,166,50428,1,0,0:0:0:0:
338,121,50594,2,0,P|327:151|336:205,1,85,2|0,0:0|0:0,0:0:0:0:
388,48,50926,2,0,P|357:36|248:110,1,170,2|8,0:0|0:3,0:0:0:0:
252,192,51423,1,0,0:0:0:0:
188,24,51589,1,8,0:3:0:0:
305,258,51920,6,0,P|253:328|151:352,1,170,2|8,0:0|0:0,0:0:0:0:
93,341,52417,1,8,0:0:0:0:
206,255,52583,2,0,P|212:204|180:147,1,85
91,254,52915,2,0,P|155:257|199:166,1,170,2|8,0:0|0:0,0:0:0:0:
178,28,53412,1,0,0:0:0:0:
122,180,53578,1,8,0:0:0:0:
226,305,53743,1,2,0:0:0:0:
387,278,53909,6,0,P|416:240|416:112,1,170,2|2,0:0|0:3,0:0:0:0:
337,107,54406,1,8,0:0:0:0:
349,187,54571,1,0,0:0:0:0:
306,255,54737,1,0,0:0:0:0:
237,297,54904,6,0,P|153:304|80:263,1,170,2|8,0:0|0:3,0:0:0:0:
25,194,55401,1,0,0:0:0:0:
97,19,55567,1,8,0:3:0:0:
213,185,55898,6,0,P|125:201|77:289,1,170,2|0,0:0|0:0,0:0:0:0:
185,279,56395,1,8,0:0:0:0:
261,121,56561,2,0,P|213:105|149:105,1,85,2|0,0:0|0:0,0:0:0:0:
101,145,56893,5,2,0:0:0:0:
300,192,57058,1,8,0:0:0:0:
363,139,57224,1,0,0:0:0:0:
427,87,57390,1,0,0:0:0:0:
261,121,57556,1,4,0:0:0:0:
222,193,57721,1,0,0:0:0:0:
323,342,57887,6,0,P|340:311|283:182,1,170,4|0,0:1|0:0,0:0:0:0:
181,125,58384,1,8,0:0:0:0:
140,194,58550,2,0,P|204:200|234:184,1,85,2|0,0:0|0:0,0:0:0:0:
402,70,58882,2,0,P|326:120|301:214,1,170,2|8,0:0|0:3,0:0:0:0:
312,280,59379,1,0,0:0:0:0:
200,88,59545,1,8,0:3:0:0:
152,280,59876,6,0,P|112:240|96:112,1,170,2|0,0:0|0:0,0:0:0:0:
120,48,60373,1,8,0:0:0:0:
139,197,60539,2,0,P|91:213|27:189,1,85
200,88,60870,6,0,P|253:152|261:236,1,170,2|8,0:0|0:0,0:0:0:0:
176,184,61368,1,0,0:0:0:0:
336,144,61533,1,8,0:0:0:0:
440,272,61699,1,2,0:0:0:0:
322,384,61865,2,0,P|268:319|260:235,1,170,6|2,0:0|0:3,0:0:0:0:
336,144,62362,1,8,0:0:0:0:
208,144,62528,2,0,P|175:110|166:68,1,85
251,67,62859,5,6,3:2:0:0:
56,128,63025,1,0,3:0:0:0:
56,128,63191,2,0,L|72:224,1,85,8|0,0:3|0:0,0:0:0:0:
45,298,63522,2,0,P|101:298|141:266,1,85,2|0,0:0|0:0,0:0:0:0:
200,232,63854,5,14,0:0:0:0:
368,16,64185,1,4,0:3:0:0:
440,72,64351,1,12,0:0:0:0:
441,299,64683,1,4,0:3:0:0:
349,276,64848,6,0,P|297:240|277:180,1,127.500004863739,14|0,0:0|0:0,0:0:0:0:
217,126,65346,2,0,P|201:153|199:185,2,63.7500024318696
359,85,65843,6,0,P|425:107|455:203,2,170,4|0|0,0:1|0:0|0:0,0:0:0:0:
265,126,66672,1,0,0:0:0:0:
170,162,66837,2,0,P|104:140|74:44,2,170,2|8|0,0:0|0:0|0:0,0:0:0:0:
162,70,67666,1,0,0:0:0:0:
84,232,67832,6,0,P|132:247|179:246,1,85,2|0,0:0|0:0,0:0:0:0:
68,314,68163,2,0,P|70:271|83:231,1,85,0|8,0:0|0:0,0:0:0:0:
248,263,68495,2,0,P|207:249|165:247,1,85
187,331,68826,5,2,0:0:0:0:
83,231,68992,1,0,0:0:0:0:
232,176,69158,5,10,0:0:0:0:
187,331,69324,1,2,0:0:0:0:
355,260,69489,5,0,3:0:0:0:
232,176,69655,1,0,0:0:0:0:
378,353,69821,6,0,P|446:294|435:208,2,170,2|0|0,0:0|0:0|0:0,0:0:0:0:
355,260,70649,1,0,0:0:0:0:
296,183,70815,2,0,P|374:167|443:223,2,170,2|8|0,0:0|0:0|0:0,0:0:0:0:
296,183,71561,5,0,0:0:0:0:
296,183,71644,1,0,0:0:0:0:
296,183,71727,1,0,0:0:0:0:
312,198,71810,2,0,P|245:223|157:170,1,170,2|0,0:0|0:0,0:0:0:0:
245,121,72307,1,8,0:0:0:0:
257,300,72473,2,0,P|215:298|175:286,1,85
245,121,72804,5,2,0:0:0:0:
225,207,72970,1,8,0:0:0:0:
161,107,73136,5,0,0:0:0:0:
329,141,73301,1,0,0:0:0:0:
114,175,73467,5,6,0:0:0:0:
211,36,73633,1,2,0:0:0:0:
150,260,73799,6,0,P|48:239|23:168,2,170,4|0|0,0:1|0:0|0:0,0:0:0:0:
234,202,74627,1,0,0:0:0:0:
317,142,74793,2,0,P|419:163|444:234,2,170,2|8|0,0:0|0:0|0:0,0:0:0:0:
355,216,75622,1,0,0:0:0:0:
267,69,75788,6,0,P|237:104|231:153,1,85,2|0,0:0|0:0,0:0:0:0:
267,213,76119,2,0,P|237:178|231:129,1,85,0|8,0:0|0:0,0:0:0:0:
144,139,76451,2,0,L|236:140,1,85
361,142,76782,5,2,0:0:0:0:
482,142,76948,1,0,0:0:0:0:
427,240,77114,5,10,0:0:0:0:
361,142,77279,1,2,0:0:0:0:
301,274,77445,5,0,3:0:0:0:
427,240,77611,1,0,0:0:0:0:
214,226,77777,6,0,P|209:317|283:373,2,170,2|0|0,0:0|0:0|0:0,0:0:0:0:
301,274,78605,1,0,0:0:0:0:
120,329,78771,6,0,P|115:239|152:167,1,170,6|0,0:0|0:0,0:0:0:0:
242,129,79268,1,0,3:0:0:0:
336,89,79434,1,0,0:0:0:0:
346,75,79516,1,0,0:0:0:0:
355,61,79599,1,0,0:0:0:0:
362,45,79682,1,0,0:0:0:0:
368,29,79766,6,8,P|416:50|446:83,1,85,14|8,0:0|0:0,0:0:0:0:
469,149,80097,2,0,P|456:98|429:62,1,85
456,231,80428,2,0,P|470:180|464:136,1,85,4|0,0:0|0:0,0:0:0:0:
282,197,80760,5,10,0:0:0:0:
456,231,80926,1,0,3:0:0:0:
337,121,81091,1,0,3:0:0:0:
301,288,81257,1,0,3:0:0:0:
370,213,81423,1,0,3:0:0:0:
282,197,81589,1,0,3:0:0:0:
403,301,81754,6,0,P|459:251|461:192,1,127.500004863739,4|0,0:2|0:2,0:2:0:0:
370,213,82252,1,0,1:2:0:0:
372,382,82417,2,0,P|429:380|461:367,1,63.7500024318696,2|0,0:2|0:2,0:2:0:0:
288,366,82749,6,0,P|342:383|376:382,1,63.7500024318696,0|0,0:2|0:2,0:2:0:0:
239,278,83080,1,0,1:2:0:0:
186,353,83246,1,0,0:2:0:0:
336,291,83412,2,0,P|324:235|305:205,1,63.7500024318696,2|0,0:2|0:2,0:2:0:0:
223,113,83743,6,0,P|216:154|217:183,1,63.7500024318696,0|0,1:2|0:2,0:2:0:0:
307,69,84075,2,0,P|314:110|313:139,1,63.7500024318696,2|0,0:2|1:2,0:2:0:0:
224,28,84406,2,0,P|217:69|218:98,1,63.7500024318696,2|0,0:2|0:2,0:2:0:0:
325,142,84738,6,0,P|324:110|318:78,1,63.7500024318696,8|0,0:2|0:2,0:2:0:0:
396,205,85069,2,0,P|406:174|411:143,1,63.7500024318696,0|0,1:2|0:2,0:2:0:0:
299,230,85401,1,0,0:2:0:0:
238,162,85567,1,0,0:2:0:0:
209,247,85732,6,0,P|178:297|201:377,1,127.500004863739,2|0,0:2|0:2,0:2:0:0:
262,316,86230,1,0,1:2:0:0:
101,337,86395,2,0,P|101:291|110:258,1,63.7500024318696,0|0,0:2|0:2,0:2:0:0:
136,133,86727,6,0,P|136:179|127:212,1,63.7500024318696,2|0,0:2|0:2,0:2:0:0:
50,152,87058,1,0,1:2:0:0:
50,152,87224,1,0,0:2:0:0:
204,69,87390,2,0,P|219:112|222:146,1,63.7500024318696,2|0,0:2|0:2,0:2:0:0:
211,217,87721,1,2,0:2:0:0:
321,170,87887,5,0,0:2:0:0:
341,261,88053,1,0,0:2:0:0:
436,221,88219,5,0,1:2:0:0:
416,314,88384,1,2,0:2:0:0:
498,279,88550,5,2,0:2:0:0:
508,165,88716,2,0,P|475:139|401:137,1,95.6250036478044,2|0,0:2|0:2,0:2:0:0:
381,147,89047,6,0,B|363:138|340:113|340:113|317:99|317:99|304:79|280:62,1,127.5,4|0,0:1|0:2,0:2:0:0:
230,134,89710,6,0,P|187:146|108:98,1,127.500004863739,4|0,0:2|0:2,0:2:0:0:
187,60,90207,1,0,1:2:0:0:
220,220,90373,2,0,P|181:226|135:216,1,63.7500024318696,2|0,0:2|0:2,0:2:0:0:
92,288,90705,6,0,P|126:306|173:313,1,63.7500024318696,0|0,0:2|0:2,0:2:0:0:
72,201,91036,1,0,1:2:0:0:
0,250,91202,1,0,0:2:0:0:
157,223,91368,2,0,P|156:183|138:139,1,63.7500024318696,2|0,0:2|0:2,0:2:0:0:
246,203,91699,6,0,P|245:242|227:286,1,63.7500024318696,0|0,0:2|0:2,0:2:0:0:
310,142,92031,2,0,P|328:176|335:223,1,63.7500024318696,2|0,0:2|1:2,0:2:0:0:
340,60,92362,2,0,P|373:80|402:117,1,63.7500024318696,2|0,0:2|0:2,0:2:0:0:
327,213,92694,6,0,P|318:182|302:154,1,63.7500024318696,8|0,0:2|0:2,0:2:0:0:
230,279,93025,2,0,P|238:248|237:216,1,63.7500024318696,0|0,1:2|0:2,0:2:0:0:
173,147,93357,1,0,0:2:0:0:
142,236,93522,1,0,0:2:0:0:
327,213,93688,6,0,P|396:207|462:215,1,127.500004863739,2|0,0:2|0:2,0:2:0:0:
411,127,94185,1,0,1:2:0:0:
375,290,94351,2,0,P|369:328|372:363,1,63.7500024318696,0|0,0:2|0:2,0:2:0:0:
241,249,94683,6,0,P|253:285|256:320,1,63.7500024318696,2|0,0:2|0:2,0:2:0:0:
145,189,95014,1,0,1:2:0:0:
122,275,95180,1,0,0:2:0:0:
237,155,95346,2,0,P|249:191|252:226,1,63.7500024318696,2|0,0:2|0:2,0:2:0:0:
125,101,95677,5,2,0:2:0:0:
255,65,95843,1,0,1:2:0:0:
141,16,96009,1,0,0:2:0:0:
141,16,96174,1,0,0:2:0:0:
209,137,96340,2,0,P|221:173|224:208,1,63.7500024318696,0|0,0:2|0:2,0:2:0:0:
206,301,96672,5,2,0:2:0:0:
234,190,96837,2,0,P|229:158|218:128,1,63.7500024318696,0|0,1:2|0:2,0:2:0:0:
68,186,97169,1,8,0:0:0:0:
118,245,97335,1,8,0:0:0:0:
143,172,97500,1,8,0:0:0:0:
39,261,97666,6,0,L|171:280,1,127.500004863739,4|0,0:1|0:0,0:0:0:0:
304,348,98163,1,0,0:0:0:0:
375,315,98328,1,0,0:0:0:0:
446,282,98494,1,0,0:0:0:0:
281,120,98661,6,0,P|283:186|351:230,1,127.500004863739,8|2,0:0|0:0,0:0:0:0:
419,82,99158,1,0,0:0:0:0:
358,147,99324,1,0,0:0:0:0:
454,166,99489,1,0,0:0:0:0:
324,55,99655,6,0,P|300:26|207:41,1,127.500004863739,2|0,0:0|0:0,0:0:0:0:
65,76,100152,1,0,0:0:0:0:
78,153,100317,1,0,0:0:0:0:
91,230,100483,1,0,0:0:0:0:
305,236,100649,6,0,L|175:191,1,127.500004863739,10|0,0:0|0:0,0:0:0:0:
387,364,101147,1,0,0:0:0:0:
386,285,101312,1,0,0:0:0:0:
386,207,101478,1,0,0:0:0:0:
382,38,101644,6,0,P|431:55|451:122,1,127.500004863739,2|0,0:0|0:0,0:0:0:0:
259,100,102141,1,0,0:0:0:0:
186,70,102306,1,0,0:0:0:0:
114,40,102472,1,0,0:0:0:0:
294,33,102638,6,0,L|307:164,1,127.500004863739,8|2,0:0|0:0,0:0:0:0:
188,328,103136,1,0,0:0:0:0:
160,254,103301,1,2,0:0:0:0:
133,180,103467,1,0,0:0:0:0:
304,42,103633,6,0,P|318:111|281:157,1,127.500004863739,2|0,0:0|0:0,0:0:0:0:
234,89,104130,1,0,0:0:0:0:
170,151,104296,1,0,0:0:0:0:
106,214,104462,1,0,0:0:0:0:
241,291,104627,5,8,0:0:0:0:
170,151,104793,2,0,P|128:127|107:123,1,63.7500024318696,8|2,0:0|0:1,0:0:0:0:
295,115,105125,5,0,0:0:0:0:
320,203,105290,1,2,0:0:0:0:
384,137,105456,1,0,0:0:0:0:
227,181,105622,6,0,P|234:250|286:294,1,127.500004863739,6|0,0:0|0:0,0:0:0:0:
446,79,106285,1,0,0:0:0:0:
361,50,106451,1,0,0:0:0:0:
276,23,106616,6,0,P|211:49|185:118,1,127.500004863739,10|0,0:0|0:0,0:0:0:0:
218,234,107114,1,0,0:0:0:0:
287,178,107279,2,0,P|287:143|276:106,1,63.7500024318696
47,152,107611,6,0,P|83:133|111:127,1,63.7500024318696
225,230,107942,2,0,P|192:205|166:194,1,63.7500024318696,2|0,0:0|0:0,0:0:0:0:
39,295,108274,2,0,P|66:264|90:249,1,63.7500024318696,2|0,0:0|0:0,0:0:0:0:
214,363,108605,6,0,P|190:325|166:303,1,76.4999976654053,8|0,0:0|3:0,0:0:0:0:
17,284,108937,2,0,P|48:249|76:231,1,76.4999976654053,2|0,0:0|3:0,0:0:0:0:
239,214,109268,2,0,P|200:184|168:171,1,76.4999976654053,2|0,0:0|3:0,0:0:0:0:
6,131,109600,6,0,P|72:95|124:84,1,127.500004863739,6|0,0:0|0:0,0:0:0:0:
275,117,110097,1,0,0:0:0:0:
354,103,110262,1,0,0:0:0:0:
433,90,110428,1,0,0:0:0:0:
229,55,110594,6,0,L|241:187,1,127.500004863739,14|0,0:0|0:0,0:0:0:0:
356,324,111091,1,0,0:0:0:0:
383,223,111257,1,2,0:0:0:0:
281,253,111423,1,0,0:0:0:0:
457,270,111589,6,0,P|466:190|419:143,1,127.500004863739,14|0,0:0|0:0,0:0:0:0:
219,144,112086,1,0,0:0:0:0:
281,253,112252,1,0,0:0:0:0:
341,119,112417,1,0,0:0:0:0:
183,225,112583,5,8,0:0:0:0:
334,127,112749,1,8,0:0:0:0:
282,245,112915,1,0,0:0:0:0:
228,150,113080,1,8,3:2:0:0:
187,220,113246,1,0,3:0:0:0:
187,220,113412,1,0,3:0:0:0:
144,153,113578,6,0,B|108:92|105:21|105:21|56:32|68:101,1,233.750007133484,2|0,0:1|0:0,0:0:0:0:
203,62,114572,5,8,3:0:0:0:
66,172,114738,1,8,3:0:0:0:
51,167,115069,5,0,0:0:0:0:
243,156,115235,1,0,3:0:0:0:
270,157,115317,1,0,0:0:0:0:
298,163,115400,1,0,0:0:0:0:
324,173,115483,1,0,0:0:0:0:
349,186,115567,6,0,P|369:147|372:20,1,170,4|0,0:1|0:0,0:0:0:0:
220,240,116064,5,0,0:0:0:0:
296,275,116230,1,2,0:0:0:0:
380,276,116395,1,0,0:0:0:0:
167,167,116561,6,0,P|131:208|123:243,1,85,2|0,0:0|0:0,0:0:0:0:
278,146,116893,1,8,0:3:0:0:
293,152,117058,1,0,0:0:0:0:
191,79,117224,1,8,0:3:0:0:
176,85,117389,1,0,0:0:0:0:
230,0,117556,6,0,P|264:32|276:67,1,85,2|0,0:0|0:0,0:0:0:0:
278,146,117887,1,0,0:0:0:0:
12,289,118053,5,8,0:0:0:0:
88,252,118219,1,0,0:0:0:0:
172,255,118384,1,0,0:0:0:0:
386,318,118550,6,0,P|411:270|412:209,1,85,2|0,0:0|0:0,0:0:0:0:
234,320,118882,1,8,0:0:0:0:
311,351,119047,5,0,0:0:0:0:
307,187,119213,1,8,0:0:0:0:
172,255,119379,1,2,0:0:0:0:
390,158,119545,6,0,P|358:115|322:100,1,85,2|0,0:0|0:0,0:0:0:0:
250,95,119876,1,2,0:3:0:0:
400,270,120042,5,8,0:0:0:0:
474,234,120207,1,2,0:0:0:0:
495,154,120373,1,0,0:0:0:0:
239,242,120539,6,0,P|200:271|176:315,1,85,2|0,0:0|0:0,0:0:0:0:
116,141,120870,2,0,L|130:241,1,85,8|0,0:3|0:0,0:0:0:0:
38,54,121202,2,0,L|24:154,1,85,8|0,0:3|0:0,0:0:0:0:
194,26,121533,6,0,P|236:62|254:106,1,85,2|0,0:0|0:0,0:0:0:0:
267,164,121865,1,0,0:0:0:0:
463,34,122031,5,8,0:0:0:0:
436,114,122196,1,2,0:0:0:0:
439,198,122362,1,0,0:0:0:0:
275,292,122528,5,2,0:0:0:0:
355,304,122694,1,8,0:0:0:0:
275,280,122859,1,0,0:0:0:0:
191,288,123025,1,0,0:0:0:0:
368,315,123191,5,4,0:0:0:0:
350,220,123357,1,0,0:0:0:0:
186,303,123522,6,0,P|168:254|195:134,1,170,4|0,0:1|0:0,0:0:0:0:
31,355,124020,5,0,0:0:0:0:
109,322,124185,1,2,0:0:0:0:
193,320,124351,1,0,0:0:0:0:
317,189,124517,6,0,L|345:279,1,85,2|0,0:0|0:0,0:0:0:0:
236,89,124848,1,8,0:3:0:0:
232,105,125014,1,0,0:0:0:0:
324,36,125180,1,8,0:3:0:0:
328,52,125346,1,0,0:0:0:0:
198,180,125511,6,0,P|158:142|149:101,1,85,2|0,0:0|0:0,0:0:0:0:
154,37,125843,1,0,0:0:0:0:
467,91,126009,5,8,0:0:0:0:
403,36,126174,1,0,0:0:0:0:
320,26,126340,1,0,0:0:0:0:
209,196,126506,6,0,P|258:179|306:178,1,85,2|0,0:0|0:0,0:0:0:0:
438,293,126837,1,8,0:0:0:0:
357,318,127003,5,0,0:0:0:0:
449,211,127169,1,8,0:0:0:0:
311,185,127335,1,2,0:0:0:0:
496,62,127500,6,0,P|499:113|482:163,1,85,6|0,0:0|0:0,0:0:0:0:
449,211,127832,1,2,0:3:0:0:
135,105,127998,5,0,0:0:0:0:
215,80,128163,1,2,0:0:0:0:
300,84,128329,1,0,0:0:0:0:
86,179,128495,5,6,3:2:0:0:
219,90,128661,1,0,3:0:0:0:
240,166,128826,2,0,P|239:217|214:256,2,85,8|0|2,0:3|0:0|0:0,0:0:0:0:
167,188,129324,1,0,0:0:0:0:
279,314,129489,6,0,P|308:274|320:245,1,59.4999981842042,14|0,0:0|0:0,0:0:0:0:
326,191,129821,1,4,0:3:0:0:
62,375,129987,6,0,P|53:326|55:295,1,59.4999981842042,8|0,0:0|0:0,0:0:0:0:
73,243,130319,1,4,0:3:0:0:
266,85,130484,6,0,P|236:107|130:44,1,170,14|0,0:0|0:0,0:0:0:0:
350,26,131312,5,0,0:0:0:0:
355,41,131395,1,0,0:0:0:0:
360,56,131478,5,4,0:1:0:0:
466,149,131644,1,0,0:0:0:0:
370,184,131810,1,2,0:0:0:0:
326,276,131975,1,0,0:0:0:0:
361,372,132141,1,0,0:0:0:0:
322,272,132307,1,0,0:0:0:0:
97,345,132473,6,0,P|174:374|260:354,1,170,0|10,0:0|0:0,0:0:0:0:
426,293,132970,1,0,0:0:0:0:
326,276,133136,1,10,0:0:0:0:
430,297,133301,1,0,0:0:0:0:
312,176,133467,5,0,0:0:0:0:
212,190,133633,1,0,0:0:0:0:
226,290,133799,1,0,3:0:0:0:
312,176,133964,1,0,3:0:0:0:
222,294,134130,1,0,3:0:0:0:
340,376,134296,1,0,0:0:0:0:
461,207,134462,6,0,P|378:222|306:181,1,170,0|8,0:0|0:0,0:0:0:0:
289,125,134904,2,0,P|309:157|312:181,1,56.6666666666667
266,226,135125,1,8,0:0:0:0:
24,371,135456,6,0,P|99:318|97:234,1,170,0|2,0:0|0:0,0:0:0:0:
53,92,135953,1,8,0:0:0:0:
201,144,136119,1,0,0:0:0:0:
201,127,136285,1,0,0:0:0:0:
52,74,136451,6,0,B|111:152|204:126,1,170,0|10,0:0|0:0,0:0:0:0:
329,119,136948,1,0,0:0:0:0:
457,111,137114,1,10,0:0:0:0:
185,183,137445,6,0,P|239:129|329:119,1,170
333,322,137942,1,8,0:0:0:0:
252,259,138108,1,0,0:0:0:0:
264,247,138274,1,0,0:0:0:0:
333,322,138440,5,0,0:0:0:0:
162,246,138605,1,8,0:0:0:0:
264,247,138771,1,0,0:0:0:0:
230,323,138937,1,0,0:0:0:0:
129,343,139103,1,4,0:0:0:0:
22,58,139434,6,0,P|65:110|168:129,1,170,4|2,0:1|0:0,0:0:0:0:
300,49,139931,1,0,0:0:0:0:
137,27,140097,1,0,0:0:0:0:
122,35,140263,1,0,0:0:0:0:
247,137,140428,6,0,P|341:134|398:84,1,170,0|10,0:0|0:0,0:0:0:0:
483,135,140926,1,0,0:0:0:0:
300,49,141091,1,10,0:0:0:0:
372,6,141257,1,0,0:0:0:0:
356,221,141423,6,0,L|330:141,2,85
263,364,141920,1,8,0:0:0:0:
271,206,142086,1,0,0:0:0:0:
300,287,142252,1,0,0:0:0:0:
195,170,142417,6,0,P|125:141|25:173,1,170,0|8,0:0|0:0,0:0:0:0:
26,221,142859,2,0,P|42:186|39:155,1,56.6666666666667
8,108,143080,1,8,0:0:0:0:
103,352,143412,6,0,P|174:382|271:350,1,170,4|2,0:0|0:0,0:0:0:0:
392,331,143909,1,8,0:0:0:0:
311,268,144075,1,0,0:0:0:0:
298,166,144241,1,0,0:0:0:0:
494,319,144406,5,4,0:0:0:0:
392,331,144572,1,4,0:3:0:0:
311,268,144738,1,2,3:2:0:0:
407,230,144904,1,0,3:2:0:0:
392,331,145069,1,2,3:2:0:0:
378,340,145235,1,0,3:2:0:0:
277,353,145401,5,4,0:0:0:0:
84,192,145732,1,4,0:3:0:0:
185,205,145898,1,4,0:0:0:0:
392,331,146230,1,4,0:3:0:0:
378,340,146395,5,4,0:0:0:0:
261,359,146561,1,0,3:0:0:0:
269,356,146644,1,0,3:0:0:0:
277,353,146727,1,0,3:0:0:0:
323,283,146893,1,0,3:0:0:0:
289,224,147058,1,0,3:0:0:0:
239,210,147224,1,0,3:0:0:0:
213,232,147390,6,0,P|256:245|291:167,1,136,4|2,0:1|0:0,0:0:0:0:
140,199,147887,2,0,L|142:285,1,68
141,266,148219,1,0,0:0:0:0:
239,210,148384,5,0,0:0:0:0:
83,338,148716,1,8,0:3:0:0:
92,327,148882,1,0,0:0:0:0:
214,321,149047,1,8,0:3:0:0:
205,310,149213,1,0,0:0:0:0:
369,339,149379,6,0,P|307:344|286:284,1,136
444,311,149876,2,0,L|437:388,1,68,8|2,0:0|0:0,0:0:0:0:
437,378,150207,1,0,0:0:0:0:
395,250,150373,5,2,0:0:0:0:
439,41,150705,1,8,0:0:0:0:
464,103,150870,1,0,0:0:0:0:
489,165,151036,1,8,0:0:0:0:
285,24,151368,6,0,P|222:18|201:78,1,136,0|2,0:0|0:0,0:0:0:0:
211,207,151865,2,0,L|159:130,1,68
173,150,152196,1,0,0:0:0:0:
287,209,152362,5,0,0:0:0:0:
84,202,152694,1,8,0:3:0:0:
72,209,152859,1,0,0:0:0:0:
173,150,153025,1,8,0:3:0:0:
161,143,153190,1,0,0:0:0:0:
80,283,153357,6,0,P|143:279|154:217,1,136
191,84,153854,2,0,L|165:171,1,68,8|0,0:0|0:0,0:0:0:0:
173,150,154185,1,0,0:0:0:0:
192,282,154351,5,0,0:0:0:0:
191,84,154517,1,8,0:0:0:0:
158,221,154683,1,0,3:2:0:0:
177,154,154848,1,0,3:2:0:0:
195,88,155014,1,4,3:2:0:0:
25,347,155346,6,0,P|65:298|122:326,1,136,4|2,0:1|0:0,0:0:0:0:
258,383,155843,1,0,0:0:0:0:
200,347,156009,1,0,0:0:0:0:
184,280,156174,1,0,0:0:0:0:
320,262,156340,5,0,0:0:0:0:
121,325,156672,2,0,L|54:321,1,68,8|0,0:3|0:0,0:0:0:0:
200,347,157003,2,0,L|133:343,1,68,8|0,0:3|0:0,0:0:0:0:
267,149,157335,6,0,P|203:148|188:210,1,136,0|2,0:0|0:0,0:0:0:0:
200,347,157832,1,8,0:0:0:0:
184,280,157998,1,2,0:0:0:0:
125,243,158163,1,0,0:0:0:0:
264,296,158329,5,0,0:0:0:0:
301,90,158661,2,0,L|262:157,2,68,8|0|8,0:0|0:0|0:0,0:0:0:0:
495,362,159324,6,0,P|453:292|389:268,1,136,4|2,0:0|0:0,0:0:0:0:
282,312,159821,1,8,0:0:0:0:
405,270,159987,2,0,P|359:267|334:275,1,68
159,354,160318,6,0,P|205:357|230:349,2,68,0|8|8,0:0|0:0|0:3,0:0:0:0:
98,320,160815,1,0,0:0:0:0:
282,312,160981,1,8,3:2:0:0:
326,366,161147,1,0,3:2:0:0:
512,384,161312,5,12,0:0:0:0:
271,81,161644,1,4,0:3:0:0:
373,74,161810,1,12,0:0:0:0:
159,354,162141,1,4,3:0:0:0:
57,347,162307,5,12,0:0:0:0:
236,286,163301,6,0,P|285:286|355:258,1,101.999996887207,2|0,0:2|0:2,0:2:0:0:
125,219,163964,2,0,P|144:251|172:269,1,50.9999984436036,0|0,0:2|0:2,0:2:0:0:
128,136,164296,6,0,P|85:150|46:211,1,101.999996887207,2|0,0:2|0:2,0:2:0:0:
225,22,164959,2,0,P|225:63|232:86,1,50.9999984436036,0|0,0:2|0:2,0:2:0:0:
389,94,165290,6,0,P|340:109|300:157,1,101.999996887207,2|0,0:2|0:2,0:2:0:0:
396,303,165953,2,0,P|371:288|346:283,1,50.9999984436036,2|0,0:2|0:2,0:2:0:0:
166,316,166285,6,0,P|198:303|235:243,1,101.999996887207,2|0,0:2|0:2,0:2:0:0:
146,83,166782,1,0,0:2:0:0:
130,156,166948,1,2,0:2:0:0:
163,224,167114,1,0,0:2:0:0:
235,248,167279,2,0,P|280:250|351:245,1,101.999996887207,2|0,0:2|0:2,0:2:0:0:
407,101,167942,2,0,P|386:127|354:143,1,50.9999984436036,0|0,0:2|0:2,0:2:0:0:
266,156,168274,6,0,P|226:152|155:114,1,101.999996887207,2|0,0:2|0:2,0:2:0:0:
34,37,168937,2,0,P|53:58|67:82,1,50.9999984436036,0|0,0:2|0:2,0:2:0:0:
91,162,169268,6,0,P|86:208|46:274,1,101.999996887207,2|0,0:2|0:2,0:2:0:0:
12,363,169766,1,0,0:2:0:0:
119,334,169931,2,0,P|145:330|189:328,1,50.9999984436036,2|0,0:2|0:2,0:2:0:0:
327,333,170263,6,0,P|281:315|239:258,1,101.999996887207,2|0,0:2|0:2,0:2:0:0:
352,104,170926,2,0,L|336:94,7,12.7499996109009,0|0|0|0|0|0|0|0,0:2|0:2|0:2|0:2|0:2|0:2|0:2|0:2,0:2:0:0:
363,110,171257,6,0,P|429:108|475:41,1,136,2|0,0:0|0:0,0:0:0:0:
326,94,171754,1,0,0:0:0:0:
284,182,171920,1,0,0:0:0:0:
293,302,172252,6,0,P|315:239|283:181,1,136,2|2,0:0|0:3,0:0:0:0:
202,126,172915,1,0,0:0:0:0:
109,291,173246,6,0,P|174:296|222:250,1,136,2|0,0:0|0:0,0:0:0:0:
25,334,173743,1,0,0:0:0:0:
35,344,173909,1,2,0:0:0:0:
137,202,174241,6,0,P|136:168|121:137,2,68,2|0|2,0:0|0:0|0:3,0:0:0:0:
234,54,174738,1,0,0:0:0:0:
194,124,174904,1,2,0:0:0:0:
208,189,175069,1,0,0:0:0:0:
248,225,175235,6,0,P|295:236|375:193,1,136,2|0,0:0|0:0,0:0:0:0:
434,226,175732,1,0,0:0:0:0:
486,344,175898,2,0,P|461:320|443:292,1,68,2|0,0:0|0:0,0:0:0:0:
511,122,176230,6,0,P|489:180|417:231,1,136,2|2,0:0|0:3,0:0:0:0:
226,343,176893,1,0,0:0:0:0:
346,27,177224,6,0,P|407:16|487:53,1,136,6|0,0:0|0:0,0:0:0:0:
346,217,177721,2,0,P|306:169|298:81,1,136,4|0,0:0|0:0,0:0:0:0:
433,225,178219,5,4,0:0:0:0:
386,355,178882,1,0,0:0:0:0:
363,334,178964,1,0,0:0:0:0:
334,322,179047,1,0,0:0:0:0:
302,320,179130,1,0,0:0:0:0:
271,328,179213,6,0,P|197:364|123:328,1,170,4|0,0:1|0:0,0:0:0:0:
112,244,179710,1,0,0:0:0:0:
174,186,179876,2,0,P|195:225|191:274,1,85,2|0,0:0|0:0,0:0:0:0:
15,103,180207,6,0,P|88:139|162:103,1,170,2|8,0:0|0:3,0:0:0:0:
174,18,180704,1,0,0:0:0:0:
112,244,180870,1,8,0:3:0:0:
245,71,181202,6,0,P|318:35|392:71,1,170,2|0,0:0|0:0,0:0:0:0:
346,206,181699,1,8,0:0:0:0:
319,127,181865,1,0,0:0:0:0:
447,321,182196,6,0,P|406:311|373:284,2,85,2|0|8,0:0|0:0|0:0,0:0:0:0:
310,330,182694,1,0,0:0:0:0:
440,236,182859,1,8,0:0:0:0:
422,75,183025,1,2,0:0:0:0:
273,11,183191,6,0,P|205:36|141:120,1,170,0|2,0:0|0:3,0:0:0:0:
298,115,183688,1,8,0:0:0:0:
221,77,183854,2,0,P|180:87|144:109,1,85,2|0,0:0|0:0,0:0:0:0:
15,207,184185,6,0,P|83:182|147:98,1,170,2|8,0:0|0:3,0:0:0:0:
151,23,184683,1,0,0:0:0:0:
216,175,184848,1,8,0:3:0:0:
427,315,185180,6,0,P|378:272|266:304,1,170,2|0,0:0|0:0,0:0:0:0:
147,366,185677,1,8,0:0:0:0:
232,358,185843,1,0,0:0:0:0:
450,81,186174,5,2,0:0:0:0:
347,187,186340,1,8,0:0:0:0:
360,269,186506,1,0,0:0:0:0:
372,350,186672,1,0,0:0:0:0:
429,164,186837,1,4,0:0:0:0:
368,104,187002,1,0,0:0:0:0:
193,223,187169,6,0,P|276:232|347:187,1,170,4|0,0:1|0:0,0:0:0:0:
182,138,187666,1,0,0:0:0:0:
193,223,187832,2,0,P|182:263|155:296,1,85,2|0,0:0|0:0,0:0:0:0:
17,384,188163,6,0,P|88:339|171:348,1,170,2|8,0:0|0:3,0:0:0:0:
249,384,188661,1,0,0:0:0:0:
105,222,188826,1,8,0:3:0:0:
328,341,189158,6,0,P|410:349|481:304,1,170,2|0,0:0|0:0,0:0:0:0:
499,142,189655,1,8,0:0:0:0:
465,220,189821,1,0,0:0:0:0:
333,5,190152,6,0,P|356:40|362:81,2,85,2|0|8,0:0|0:0|0:0,0:0:0:0:
414,151,190649,1,0,0:0:0:0:
288,252,190815,1,8,0:0:0:0:
137,193,190981,1,2,0:0:0:0:
112,33,191147,6,0,P|189:70|200:176,1,170,6|2,0:0|0:3,0:0:0:0:
152,348,191644,1,0,0:0:0:0:
114,271,191810,2,0,P|115:228|136:192,1,85,2|0,0:0|0:0,0:0:0:0:
288,252,192141,6,0,P|245:250|209:229,1,85,6|0,0:0|0:0,0:0:0:0:
362,210,192473,1,8,0:3:0:0:
419,272,192638,1,0,0:0:0:0:
477,334,192804,1,2,3:2:0:0:
475,351,192970,1,0,3:0:0:0:
288,252,193136,6,0,P|280:187|390:130,1,170,14|4,0:0|0:3,0:0:0:0:
231,310,193633,2,0,P|256:268|300:249,2,85,12|0|4,0:0|0:0|0:3,0:0:0:0:
94,351,194130,6,0,P|192:290|262:383,1,255,14|0,0:0|0:0,0:0:0:0:
110,262,194793,1,0,0:0:0:0:
380,305,195042,2,0,L|380:339,1,21.25
370,310,195125,6,0,P|322:302|257:183,2,170,4|0|0,0:1|0:0|0:0,0:0:0:0:
353,214,195953,1,0,0:0:0:0:
255,208,196119,2,0,P|219:133|141:107,2,170,2|8|0,0:0|0:0|0:0,0:0:0:0:
158,203,196948,1,0,0:0:0:0:
221,337,197114,6,0,P|245:311|292:285,1,85,2|0,0:0|0:0,0:0:0:0:
371,282,197445,2,0,P|335:277|282:288,1,85,0|8,0:0|0:0,0:0:0:0:
257,209,197777,2,0,L|303:323,1,85
400,359,198108,5,2,0:0:0:0:
448,269,198274,1,0,0:0:0:0:
396,181,198440,1,10,0:0:0:0:
392,3,198605,1,2,0:0:0:0:
344,93,198771,1,8,3:2:0:0:
396,181,198937,1,0,0:0:0:0:
249,224,199103,6,0,P|313:171|395:180,2,170,2|0|0,0:0|0:0|0:0,0:0:0:0:
340,260,199931,1,0,0:0:0:0:
236,345,200097,2,0,P|183:280|101:272,2,170,2|8|0,0:0|0:0|0:0,0:0:0:0:
246,341,200843,1,0,0:0:0:0:
259,345,200926,1,0,0:0:0:0:
259,358,201009,1,0,0:0:0:0:
247,363,201091,6,0,B|226:272|288:296|264:177,1,170,2|0,0:0|0:0,0:0:0:0:
186,235,201589,1,8,0:0:0:0:
327,322,201754,2,0,P|347:270|348:219,1,85
371,91,202086,5,2,0:0:0:0:
284,78,202252,1,8,0:0:0:0:
349,241,202417,1,0,0:0:0:0:
403,172,202583,1,0,0:0:0:0:
230,147,202749,1,14,0:0:0:0:
262,228,202915,1,2,0:0:0:0:
338,19,203080,1,4,0:1:0:0:
