osu file format v14

[General]
AudioFilename: audio.mp3
AudioLeadIn: 0
PreviewTime: 56342
Countdown: 0
SampleSet: Soft
StackLeniency: 0.7
Mode: 3
LetterboxInBreaks: 0
SpecialStyle: 0
WidescreenStoryboard: 1

[Editor]
Bookmarks: 14342,28056,41770,70913,84628,98342,112056,127485
DistanceSpacing: 1.2
BeatDivisor: 4
GridSize: 4
TimelineZoom: 1.1

[Metadata]
Title:Ganbare! Koi no Hana
TitleUnicode:がんばれ!恋の花
Artist:Hatsuki Yura
ArtistUnicode:葉月ゆら
Creator:A M D
Version:DH's Normal
Source:がんばれ!メメ子ちゃん
Tags:AMD Japanese Anime J-Pop Jpop Pop Drop Meigetsu Seifuumeigetsu La Pucelle Seifuu Ganbare! Memeko-chan 清風明月 Drum-Hitnormal dudehacker ED Ending Original Album Full Version flash
BeatmapID:3313298
BeatmapSetID:1622756

[Difficulty]
HPDrainRate:7.5
CircleSize:4
OverallDifficulty:7.5
ApproachRate:5
SliderMultiplier:1.4
SliderTickRate:1

[Events]
//Background and Video events
0,0,"20210604210507.jpg",0,0
//Break Periods
//Storyboard Layer 0 (Background)
//Storyboard Layer 1 (Fail)
//Storyboard Layer 2 (Pass)
//Storyboard Layer 3 (Foreground)
//Storyboard Layer 4 (Overlay)
//Storyboard Sound Samples
Sample,19913,0,"soft-hitwhistle.wav",70
Sample,20770,0,"soft-hitwhistle.wav",70
Sample,25056,0,"soft-hitwhistle.wav",70
Sample,26342,0,"soft-hitwhistle.wav",70
Sample,39628,0,"soft-hitwhistle.wav",70
Sample,40056,0,"soft-hitwhistle.wav",70
Sample,67913,0,"soft-hitwhistle.wav",70
Sample,68770,0,"soft-hitwhistle.wav",70
Sample,69199,0,"soft-hitwhistle.wav",70
Sample,81628,0,"soft-hitwhistle.wav",70
Sample,82485,0,"soft-hitwhistle.wav",70
Sample,82913,0,"soft-hitwhistle.wav",70
Sample,90199,0,"soft-hitwhistle.wav",70
Sample,95342,0,"soft-hitclap.wav",70
Sample,95342,0,"soft-hitwhistle.wav",70
Sample,96628,0,"soft-hitwhistle.wav",70
Sample,109056,0,"soft-hitwhistle.wav",70
Sample,109913,0,"soft-hitwhistle.wav",70
Sample,110342,0,"soft-hitwhistle.wav",70
Sample,138199,0,"soft-hitwhistle.wav",70
Sample,139056,0,"soft-hitwhistle.wav",70
Sample,139485,0,"soft-hitwhistle.wav",70
Sample,151913,0,"soft-hitwhistle.wav",70
Sample,152770,0,"soft-hitwhistle.wav",70

[TimingPoints]
628,428.571428571429,4,2,1,40,1,0
13485,-100,4,2,1,70,0,0
57199,-100,4,2,1,70,0,1
84628,-100,4,2,1,70,0,0
127485,-100,4,2,1,70,0,1
154913,480,4,2,1,40,1,0
154913,-89.2857142857143,4,2,1,40,0,0
155873,500,4,2,1,40,1,0
155873,-85.4700854700855,4,2,1,40,0,0
156873,705.882352941176,4,2,1,40,1,0
156873,-60.6060606060606,4,2,1,40,0,0
157578,800,4,2,1,40,1,0
157578,-53.475935828877,4,2,1,40,0,0
157978,500,4,2,1,40,1,0
157978,-85.4700854700855,4,2,1,40,0,0
158665,857.142857142857,4,2,1,40,1,0
158665,-50,4,2,1,40,0,0

[HitObjects]
64,192,628,5,4,0:0:0:0:
448,192,628,1,0,0:0:0:0:
192,192,1056,128,8,1485:0:0:0:0:
320,192,1485,1,0,0:0:0:0:
64,192,1699,1,0,0:0:0:0:
448,192,1913,128,8,2342:0:0:0:0:
192,192,2342,1,0,0:0:0:0:
320,192,2556,1,0,0:0:0:0:
192,192,2770,1,8,0:0:0:0:
64,192,2985,1,0,0:0:0:0:
448,192,3199,1,0,0:0:0:0:
320,192,3413,1,0,0:0:0:0:
192,192,3628,1,8,0:0:0:0:
64,192,3842,1,0,0:0:0:0:
320,192,4056,1,0,0:0:0:0:
192,192,4485,128,8,4913:0:0:0:0:
320,192,4913,128,0,5342:0:0:0:0:
448,192,5342,128,8,5770:0:0:0:0:
64,192,5770,128,0,7485:0:0:0:0:
320,192,5770,1,0,0:0:0:0:
320,192,5985,1,0,0:0:0:0:
192,192,6199,1,8,0:0:0:0:
192,192,6413,1,0,0:0:0:0:
448,192,6628,1,0,0:0:0:0:
448,192,6842,1,0,0:0:0:0:
320,192,7056,1,8,0:0:0:0:
320,192,7270,1,0,0:0:0:0:
192,192,7485,1,4,0:0:0:0:
448,192,7485,1,0,0:0:0:0:
192,192,7913,128,8,8342:0:0:0:0:
320,192,8342,1,0,0:0:0:0:
64,192,8556,1,0,0:0:0:0:
448,192,8770,128,8,9199:0:0:0:0:
64,192,9199,1,0,0:0:0:0:
192,192,9413,1,0,0:0:0:0:
64,192,9628,1,8,0:0:0:0:
320,192,9842,1,0,0:0:0:0:
448,192,10056,1,0,0:0:0:0:
320,192,10270,1,0,0:0:0:0:
192,192,10485,1,8,0:0:0:0:
64,192,10699,1,0,0:0:0:0:
320,192,10913,1,4,0:0:0:0:
448,192,10913,1,0,0:0:0:0:
192,192,11342,1,8,0:0:0:0:
320,192,11556,1,0,0:0:0:0:
64,192,11770,1,4,0:0:0:0:
192,192,11770,1,0,0:0:0:0:
320,192,11985,1,0,0:0:0:0:
448,192,12199,1,8,0:0:0:0:
192,192,12413,1,0,0:0:0:0:
320,192,12628,128,4,13485:0:0:0:0:
448,192,12628,1,0,0:0:0:0:
64,192,12842,1,0,0:0:0:0:
448,192,13056,1,8,0:0:0:0:
192,192,13270,1,0,0:0:0:0:
64,192,13485,128,8,13699:0:0:0:100:
192,192,13699,128,8,13913:0:0:0:100:
320,192,13913,128,8,14128:0:0:0:100:
448,192,14128,128,8,14342:0:0:0:100:
64,192,14342,1,2,2:2:0:100:
192,192,14342,1,4,0:0:0:40:soft-hitfinish.wav
320,192,14556,1,0,0:0:0:0:
448,192,14770,1,10,2:2:0:100:
320,192,14878,1,0,0:0:0:0:
192,192,14985,1,0,0:0:0:0:
64,192,15199,1,2,2:2:0:100:
448,192,15306,1,0,0:0:0:0:
448,192,15520,1,0,0:0:0:0:
192,192,15628,1,10,2:2:0:100:
320,192,15842,1,0,0:0:0:0:
448,192,16056,128,2,16270:0:0:0:100:
320,192,16270,128,0,16485:0:0:0:0:
192,192,16485,128,10,16699:2:2:0:100:
64,192,16699,128,0,16913:0:0:0:0:
448,192,16913,1,2,2:2:0:100:
192,192,17128,1,0,0:0:0:0:
448,192,17342,1,10,2:2:0:100:
192,192,17449,1,0,0:0:0:0:
64,192,17770,1,2,2:2:0:100:
448,192,17985,1,0,0:0:0:0:
320,192,18199,1,10,2:2:0:100:
192,192,18306,1,0,0:0:0:0:
64,192,18413,1,0,0:0:0:0:
320,192,18628,1,2,2:2:0:100:
192,192,18735,1,0,0:0:0:0:
64,192,18949,1,0,0:0:0:0:
448,192,19056,1,10,2:2:0:100:
320,192,19270,1,0,0:0:0:0:
64,192,19485,128,2,19699:2:2:0:100:
192,192,19699,128,0,19913:0:0:0:0:
320,192,19913,128,4,20128:0:0:0:20:soft-hitfinish.wav
448,192,19913,1,8,2:2:0:100:
192,192,20128,128,0,20342:0:0:0:0:
64,192,20342,1,2,2:2:0:100:
320,192,20449,1,0,0:0:0:0:
64,192,20770,1,8,0:0:0:100:
320,192,20878,1,0,0:0:0:0:
64,192,21199,1,2,2:2:0:100:
192,192,21199,1,4,0:0:0:40:soft-hitfinish.wav
320,192,21413,1,0,0:0:0:0:
448,192,21628,1,10,2:2:0:100:
320,192,21735,1,0,0:0:0:0:
192,192,21842,1,0,0:0:0:0:
64,192,22056,1,2,2:2:0:100:
448,192,22163,1,0,0:0:0:0:
448,192,22378,1,0,0:0:0:0:
192,192,22485,1,10,2:2:0:100:
320,192,22699,1,0,0:0:0:0:
448,192,22913,128,2,23128:2:2:0:100:
320,192,23128,128,0,23342:0:0:0:0:
192,192,23342,128,10,23556:2:2:0:100:
64,192,23556,128,0,23770:0:0:0:0:
448,192,23770,1,2,2:2:0:100:
192,192,23985,1,0,0:0:0:0:
448,192,24199,1,10,2:2:0:100:
192,192,24306,1,0,0:0:0:0:
320,192,24628,1,2,2:2:0:100:
64,192,24842,1,0,0:0:0:0:
320,192,25056,1,4,0:0:0:20:soft-hitfinish.wav
448,192,25056,1,8,2:2:0:100:
192,192,25163,1,0,0:0:0:0:
64,192,25270,1,0,0:0:0:0:
320,192,25485,1,2,2:2:0:100:
192,192,25592,1,0,0:0:0:0:
64,192,25806,1,0,0:0:0:0:
448,192,25913,1,10,2:2:0:100:
320,192,26128,1,0,0:0:0:0:
64,192,26342,1,8,0:0:0:100:
192,192,26449,1,8,0:0:0:100:
320,192,26556,128,8,26770:0:0:0:100:
64,192,26770,128,10,26985:2:2:0:100:
448,192,26985,1,8,0:0:0:100:
320,192,27092,1,8,0:0:0:100:
192,192,27199,128,2,27413:2:2:0:100:
64,192,27413,128,8,27628:0:0:0:100:
320,192,27628,128,10,27842:2:2:0:100:
192,192,27842,128,8,28056:0:0:0:100:
320,192,28056,1,2,2:2:0:100:
448,192,28056,128,4,28485:0:0:0:20:soft-hitfinish.wav
64,192,28485,1,8,2:2:0:100:
192,192,28485,1,2,2:2:0:100:
320,192,28699,1,0,0:0:0:0:
448,192,28913,1,2,2:2:0:100:
64,192,29128,1,0,0:0:0:0:
320,192,29342,1,8,2:2:0:100:
448,192,29342,1,2,2:2:0:100:
192,192,29556,1,0,0:0:0:0:
64,192,29770,128,2,30199:2:2:0:100:
192,192,30199,1,8,2:2:0:100:
448,192,30199,1,2,2:2:0:100:
320,192,30413,1,0,0:0:0:0:
64,192,30628,1,2,2:2:0:100:
192,192,30842,1,0,0:0:0:0:
320,192,31056,1,8,2:2:0:100:
448,192,31056,1,2,2:2:0:100:
64,192,31270,1,0,0:0:0:0:
320,192,31485,128,2,31913:2:2:0:100:
64,192,31913,1,8,2:2:0:100:
448,192,31913,1,2,2:2:0:100:
320,192,32128,1,0,0:0:0:0:
192,192,32342,128,2,32770:2:2:0:100:
320,192,32770,1,8,2:2:0:100:
448,192,32770,1,2,2:2:0:100:
192,192,32985,1,0,0:0:0:0:
64,192,33199,128,2,33628:2:2:0:100:
320,192,33628,1,8,2:2:0:100:
448,192,33628,1,2,2:2:0:100:
192,192,33842,1,0,0:0:0:0:
320,192,34056,128,2,34485:2:2:0:100:
448,192,34056,128,0,34485:0:0:0:0:
64,192,34485,128,8,34913:2:2:0:100:
192,192,34485,128,2,34913:2:2:0:100:
320,192,34913,1,2,2:2:0:100:
448,192,34913,128,4,35342:0:0:0:20:soft-hitfinish.wav
64,192,35342,1,8,2:2:0:100:
192,192,35342,1,2,2:2:0:100:
320,192,35556,1,0,0:0:0:0:
448,192,35770,1,2,2:2:0:100:
64,192,35985,1,0,0:0:0:0:
320,192,36199,1,8,2:2:0:100:
448,192,36199,1,2,2:2:0:100:
64,192,36413,1,0,0:0:0:0:
192,192,36628,128,2,37056:2:2:0:100:
320,192,37056,1,8,2:2:0:100:
448,192,37056,1,2,2:2:0:100:
192,192,37270,1,0,0:0:0:0:
64,192,37485,1,2,2:2:0:100:
320,192,37699,1,0,0:0:0:0:
64,192,37913,1,8,2:2:0:100:
448,192,37913,1,2,2:2:0:100:
320,192,38128,1,0,0:0:0:0:
192,192,38342,1,2,2:2:0:100:
448,192,38556,1,0,0:0:0:0:
320,192,38663,1,0,0:0:0:0:
64,192,38770,128,10,38985:0:0:0:100:
192,192,38770,128,0,38985:0:0:0:20:soft-hitfinish.wav
320,192,38985,1,0,0:0:0:0:
448,192,39199,1,2,2:2:0:100:
64,192,39413,1,0,0:0:0:0:
192,192,39520,1,0,0:0:0:0:
320,192,39628,128,4,39842:0:0:0:20:soft-hitfinish.wav
448,192,39628,128,8,39842:2:2:0:100:
64,192,39842,1,0,0:0:0:0:
192,192,40056,1,8,0:0:0:100:
320,192,40163,1,8,0:0:0:100:
448,192,40270,1,8,0:0:0:100:
64,192,40485,1,8,2:2:0:100:
192,192,40485,1,2,2:2:0:100:
320,192,40699,1,8,0:0:0:100:
192,192,40806,1,8,0:0:0:100:
448,192,40913,128,2,41128:2:2:0:100:
320,192,41128,128,8,41342:0:0:0:100:
192,192,41342,128,10,41556:2:2:0:100:
64,192,41556,128,8,41770:0:0:0:100:
320,192,41770,1,2,2:2:0:100:
448,192,41770,128,4,42199:0:0:0:40:soft-hitfinish.wav
64,192,42199,1,8,2:2:0:100:
192,192,42199,1,2,2:2:0:100:
320,192,42413,1,0,0:0:0:0:
192,192,42628,128,2,43056:2:2:0:100:
64,192,43056,1,8,2:2:0:100:
448,192,43056,1,2,2:2:0:100:
192,192,43270,1,0,0:0:0:0:
448,192,43485,128,2,43699:2:2:0:100:
320,192,43699,1,0,0:0:0:0:
320,192,43913,128,10,44128:2:2:0:100:
192,192,44128,1,0,0:0:0:0:
192,192,44342,128,2,44556:2:2:0:100:
64,192,44556,1,0,0:0:0:0:
64,192,44770,128,10,44985:2:2:0:100:
448,192,44985,1,0,0:0:0:0:
448,192,45199,128,2,45628:2:2:0:100:
64,192,45628,1,8,2:2:0:100:
192,192,45628,1,2,2:2:0:100:
320,192,45842,1,0,0:0:0:0:
192,192,46056,128,2,46485:2:2:0:100:
320,192,46485,1,8,2:2:0:100:
448,192,46485,1,2,2:2:0:100:
192,192,46699,1,0,0:0:0:0:
64,192,46913,128,2,47128:2:2:0:100:
192,192,47128,1,0,0:0:0:0:
192,192,47342,128,10,47556:2:2:0:100:
320,192,47556,1,0,0:0:0:0:
320,192,47770,128,2,47985:2:2:0:100:
448,192,47985,1,0,0:0:0:0:
448,192,48199,128,10,48413:2:2:0:100:
192,192,48413,1,0,0:0:0:0:
64,192,48628,128,2,49056:2:2:0:100:
192,192,48628,1,4,0:0:0:40:soft-hitfinish.wav
320,192,49056,1,8,2:2:0:100:
448,192,49056,1,2,2:2:0:100:
192,192,49270,1,0,0:0:0:0:
448,192,49485,1,2,2:2:0:100:
320,192,49699,1,0,0:0:0:0:
64,192,49913,1,8,2:2:0:100:
192,192,49913,1,2,2:2:0:100:
320,192,50128,1,0,0:0:0:0:
448,192,50342,128,2,50556:2:2:0:100:
320,192,50556,1,0,0:0:0:0:
320,192,50770,128,10,50985:2:2:0:100:
192,192,50985,1,0,0:0:0:0:
192,192,51199,128,2,51413:2:2:0:100:
64,192,51413,1,0,0:0:0:0:
64,192,51628,128,10,51842:2:2:0:100:
448,192,51842,1,0,0:0:0:0:
192,192,52056,1,2,2:2:0:100:
448,192,52056,128,4,52485:0:0:0:20:soft-hitfinish.wav
64,192,52485,1,8,2:2:0:100:
192,192,52485,1,2,2:2:0:100:
320,192,52699,1,0,0:0:0:0:
192,192,52913,1,2,2:2:0:100:
64,192,53128,1,0,0:0:0:0:
320,192,53342,1,8,2:2:0:100:
448,192,53342,1,2,2:2:0:100:
192,192,53556,1,0,0:0:0:0:
64,192,53770,128,2,53985:2:2:0:100:
448,192,53770,128,4,53985:0:0:0:20:soft-hitfinish.wav
320,192,53985,1,0,0:0:0:0:
192,192,54199,1,10,2:2:0:100:
448,192,54413,1,0,0:0:0:0:
192,192,54628,128,2,54842:2:2:0:100:
320,192,54628,128,4,54842:0:0:0:20:soft-hitfinish.wav
64,192,54842,1,0,0:0:0:0:
448,192,55056,1,10,2:2:0:100:
192,192,55270,1,0,0:0:0:0:
320,192,55485,1,8,0:0:0:100:
192,192,55592,1,8,0:0:0:100:
64,192,55699,1,8,0:0:0:100:
320,192,55913,1,2,0:0:0:100:
448,192,55913,1,0,0:0:0:0:
192,192,56128,1,8,0:0:0:100:
320,192,56235,1,2,0:0:0:100:
192,192,56449,1,8,0:0:0:100:
320,192,56556,1,2,0:0:0:100:
64,192,56770,1,8,0:0:0:100:
192,192,56878,1,8,0:0:0:100:
320,192,56985,1,2,0:0:0:100:
64,192,57199,1,2,2:2:0:100:
448,192,57199,128,4,57628:0:0:0:40:soft-hitfinish.wav
192,192,57628,1,10,2:2:0:100:
320,192,57842,1,0,0:0:0:0:
320,192,58056,128,2,58485:2:2:0:100:
448,192,58056,1,0,0:0:0:0:
64,192,58485,1,10,2:2:0:100:
192,192,58699,1,0,0:0:0:0:
192,192,58913,1,2,2:2:0:100:
448,192,58913,1,0,0:0:0:0:
320,192,59128,1,0,0:0:0:0:
64,192,59235,1,0,0:0:0:0:
448,192,59342,1,10,2:2:0:100:
192,192,59556,1,0,0:0:0:0:
64,192,59770,1,2,2:2:0:100:
448,192,59770,1,0,0:0:0:0:
320,192,59985,1,0,0:0:0:0:
192,192,60092,1,0,0:0:0:0:
64,192,60199,1,10,2:2:0:100:
320,192,60413,1,0,0:0:0:0:
64,192,60628,1,2,2:2:0:100:
448,192,60628,128,0,61056:0:0:0:0:
192,192,61056,1,10,2:2:0:100:
320,192,61270,1,0,0:0:0:0:
64,192,61485,1,2,2:2:0:100:
192,192,61485,1,0,0:0:0:0:
320,192,61699,1,0,0:0:0:0:
192,192,61913,1,8,2:2:0:100:
448,192,61913,1,2,2:2:0:100:
64,192,62128,1,0,0:0:0:0:
320,192,62342,128,2,63199:2:2:0:100:
448,192,62342,1,0,0:0:0:0:
64,192,62556,1,0,0:0:0:0:
192,192,62770,1,10,2:2:0:100:
448,192,62985,1,0,0:0:0:0:
64,192,63199,1,2,2:2:0:100:
192,192,63306,1,8,0:0:0:100:
320,192,63413,1,8,0:0:0:100:
448,192,63628,128,10,63842:2:2:0:100:
320,192,63842,128,8,64056:0:0:0:100:
64,192,64056,128,2,64485:2:2:0:100:
192,192,64056,1,4,0:0:0:40:soft-hitfinish.wav
320,192,64485,1,10,2:2:0:100:
192,192,64699,1,0,0:0:0:0:
192,192,64913,128,2,65342:2:2:0:100:
320,192,64913,1,0,0:0:0:0:
448,192,65342,1,10,2:2:0:100:
320,192,65556,1,0,0:0:0:0:
64,192,65770,1,2,2:2:0:100:
320,192,65770,1,0,0:0:0:0:
448,192,65985,1,0,0:0:0:0:
64,192,66199,1,8,2:2:0:100:
320,192,66199,1,2,2:2:0:100:
192,192,66413,1,0,0:0:0:0:
320,192,66628,1,2,2:2:0:100:
448,192,66628,1,0,0:0:0:0:
64,192,66842,1,0,0:0:0:0:
192,192,66949,1,0,0:0:0:0:
320,192,67056,1,10,2:2:0:100:
192,192,67270,1,0,0:0:0:0:
64,192,67485,1,2,2:2:0:100:
448,192,67485,1,0,0:0:0:0:
320,192,67699,1,0,0:0:0:0:
64,192,67913,1,4,0:0:0:20:soft-hitfinish.wav
192,192,67913,1,8,2:2:0:100:
448,192,68128,1,0,0:0:0:0:
64,192,68342,1,2,2:2:0:100:
320,192,68342,1,0,0:0:0:0:
192,192,68556,1,0,0:0:0:0:
320,192,68770,1,4,0:0:0:20:soft-hitfinish.wav
448,192,68770,1,8,2:2:0:100:
192,192,68985,1,0,0:0:0:0:
64,192,69199,1,8,0:0:0:100:
320,192,69306,1,8,0:0:0:100:
192,192,69413,1,8,0:0:0:100:
320,192,69628,1,8,2:2:0:100:
448,192,69628,1,2,2:2:0:100:
64,192,69842,1,8,0:0:0:100:
320,192,69949,1,8,0:0:0:100:
448,192,70056,128,2,70270:2:2:0:100:
320,192,70270,128,8,70485:0:0:0:100:
192,192,70485,128,10,70699:2:2:0:100:
64,192,70699,128,8,70913:0:0:0:100:
320,192,70913,1,2,2:2:0:100:
448,192,70913,128,4,71342:0:0:0:40:soft-hitfinish.wav
192,192,71342,1,10,2:2:0:100:
320,192,71556,1,0,0:0:0:0:
320,192,71770,128,2,72199:2:2:0:100:
448,192,71770,1,0,0:0:0:0:
64,192,72199,1,10,2:2:0:100:
192,192,72413,1,0,0:0:0:0:
192,192,72628,1,2,2:2:0:100:
320,192,72842,1,0,0:0:0:0:
64,192,72949,1,0,0:0:0:0:
448,192,73056,1,10,2:2:0:100:
192,192,73270,1,0,0:0:0:0:
64,192,73485,1,2,2:2:0:100:
448,192,73485,1,0,0:0:0:0:
320,192,73699,1,0,0:0:0:0:
192,192,73806,1,0,0:0:0:0:
64,192,73913,1,10,2:2:0:100:
320,192,74128,1,0,0:0:0:0:
64,192,74342,1,2,2:2:0:100:
448,192,74342,1,0,0:0:0:0:
64,192,74770,1,8,2:2:0:100:
192,192,74770,1,2,2:2:0:100:
320,192,74985,1,0,0:0:0:0:
64,192,75199,1,2,2:2:0:100:
448,192,75199,1,0,0:0:0:0:
320,192,75413,1,0,0:0:0:0:
192,192,75628,1,8,2:2:0:100:
448,192,75628,1,2,2:2:0:100:
64,192,75842,1,0,0:0:0:0:
320,192,76056,128,2,76913:2:2:0:100:
448,192,76056,1,0,0:0:0:0:
64,192,76270,1,0,0:0:0:0:
192,192,76485,1,10,2:2:0:100:
448,192,76699,1,0,0:0:0:0:
64,192,76913,1,2,2:2:0:100:
192,192,77020,1,8,0:0:0:100:
320,192,77128,1,8,0:0:0:100:
448,192,77342,128,10,77556:2:2:0:100:
320,192,77556,128,8,77770:0:0:0:100:
64,192,77770,128,2,78199:2:2:0:100:
192,192,77770,1,4,0:0:0:40:soft-hitfinish.wav
320,192,78199,1,10,2:2:0:100:
192,192,78413,1,0,0:0:0:0:
64,192,78628,1,2,2:2:0:100:
192,192,78628,128,0,79056:0:0:0:0:
448,192,79056,1,10,2:2:0:100:
320,192,79270,1,0,0:0:0:0:
64,192,79485,1,2,2:2:0:100:
320,192,79485,1,0,0:0:0:0:
448,192,79699,1,0,0:0:0:0:
192,192,79913,1,8,2:2:0:100:
320,192,79913,1,2,2:2:0:100:
64,192,80128,1,0,0:0:0:0:
320,192,80342,1,2,2:2:0:100:
448,192,80342,1,0,0:0:0:0:
64,192,80556,1,0,0:0:0:0:
192,192,80663,1,0,0:0:0:0:
320,192,80770,1,10,2:2:0:100:
192,192,80985,1,0,0:0:0:0:
64,192,81199,1,2,2:2:0:100:
448,192,81199,1,0,0:0:0:0:
320,192,81413,1,0,0:0:0:0:
64,192,81628,1,4,0:0:0:20:soft-hitfinish.wav
192,192,81628,1,8,2:2:0:100:
448,192,81842,1,0,0:0:0:0:
64,192,82056,1,2,2:2:0:100:
320,192,82056,1,0,0:0:0:0:
192,192,82270,1,0,0:0:0:0:
320,192,82485,1,4,0:0:0:20:soft-hitfinish.wav
448,192,82485,1,8,2:2:0:100:
192,192,82699,1,0,0:0:0:0:
64,192,82913,1,8,0:0:0:100:
320,192,83020,1,8,0:0:0:100:
192,192,83128,1,8,0:0:0:100:
448,192,83342,1,10,2:2:0:100:
64,192,83556,1,8,0:0:0:100:
320,192,83663,1,8,0:0:0:100:
448,192,83770,128,2,83985:2:2:0:100:
320,192,83985,128,8,84199:0:0:0:100:
192,192,84199,128,10,84413:2:2:0:100:
64,192,84413,128,8,84628:0:0:0:100:
320,192,84628,1,2,2:2:0:100:
448,192,84628,1,4,0:0:0:40:soft-hitfinish.wav
192,192,84842,1,0,0:0:0:0:
64,192,85056,1,10,2:2:0:100:
192,192,85163,1,0,0:0:0:0:
320,192,85270,1,0,0:0:0:0:
448,192,85485,1,2,2:2:0:100:
64,192,85592,1,0,0:0:0:0:
64,192,85806,1,0,0:0:0:0:
320,192,85913,1,10,2:2:0:100:
192,192,86128,1,0,0:0:0:0:
64,192,86342,128,2,86556:2:2:0:100:
192,192,86556,128,0,86770:0:0:0:0:
320,192,86770,128,10,86985:2:2:0:100:
448,192,86985,128,0,87199:0:0:0:0:
64,192,87199,1,2,2:2:0:100:
320,192,87413,1,0,0:0:0:0:
64,192,87628,1,10,2:2:0:100:
320,192,87735,1,0,0:0:0:0:
448,192,88056,1,2,2:2:0:100:
64,192,88270,1,0,0:0:0:0:
192,192,88485,1,10,2:2:0:100:
320,192,88592,1,0,0:0:0:0:
448,192,88699,1,0,0:0:0:0:
192,192,88913,1,2,2:2:0:100:
320,192,89020,1,0,0:0:0:0:
448,192,89235,1,0,0:0:0:0:
64,192,89342,1,10,2:2:0:100:
192,192,89556,1,0,0:0:0:0:
448,192,89770,128,2,89985:2:2:0:100:
320,192,89985,128,0,90199:0:0:0:0:
64,192,90199,1,4,0:0:0:20:soft-hitfinish.wav
192,192,90199,128,8,90413:2:2:0:100:
320,192,90413,128,0,90628:0:0:0:0:
448,192,90628,1,2,2:2:0:100:
192,192,90735,1,0,0:0:0:0:
448,192,91056,1,10,2:2:0:100:
192,192,91163,1,0,0:0:0:0:
320,192,91485,1,2,2:2:0:100:
448,192,91485,1,4,0:0:0:40:soft-hitfinish.wav
192,192,91699,1,0,0:0:0:0:
64,192,91913,1,10,2:2:0:100:
192,192,92020,1,0,0:0:0:0:
320,192,92128,1,0,0:0:0:0:
448,192,92342,1,2,2:2:0:100:
64,192,92449,1,0,0:0:0:0:
64,192,92663,1,0,0:0:0:0:
320,192,92770,1,10,2:2:0:100:
192,192,92985,1,0,0:0:0:0:
64,192,93199,128,2,93413:2:2:0:100:
192,192,93413,128,0,93628:0:0:0:0:
320,192,93628,128,10,93842:2:2:0:100:
448,192,93842,128,0,94056:0:0:0:0:
64,192,94056,1,2,2:2:0:100:
320,192,94270,1,0,0:0:0:0:
64,192,94485,1,10,2:2:0:100:
320,192,94592,1,0,0:0:0:0:
448,192,94913,1,2,2:2:0:100:
64,192,95128,1,0,0:0:0:0:
192,192,95342,1,4,0:0:0:20:soft-hitfinish.wav
320,192,95449,1,0,0:0:0:0:
448,192,95556,1,0,0:0:0:0:
192,192,95770,1,2,2:2:0:100:
320,192,95878,1,0,0:0:0:0:
448,192,96092,1,0,0:0:0:0:
64,192,96199,1,10,2:2:0:100:
192,192,96413,1,0,0:0:0:0:
320,192,96628,1,8,0:0:0:100:
192,192,96735,1,8,0:0:0:100:
64,192,96842,1,8,0:0:0:100:
320,192,97056,1,8,2:2:0:100:
448,192,97056,1,2,2:2:0:100:
192,192,97270,1,8,0:0:0:100:
320,192,97378,1,8,0:0:0:100:
64,192,97485,128,2,97699:2:2:0:100:
192,192,97699,128,8,97913:0:0:0:100:
320,192,97913,128,10,98128:2:2:0:100:
448,192,98128,128,8,98342:0:0:0:100:
64,192,98342,128,2,98770:2:2:0:100:
192,192,98342,1,4,0:0:0:20:soft-hitfinish.wav
320,192,98770,1,8,2:2:0:100:
448,192,98770,1,2,2:2:0:100:
192,192,98985,1,0,0:0:0:0:
448,192,99199,1,2,2:2:0:100:
64,192,99413,1,0,0:0:0:0:
192,192,99628,1,8,2:2:0:100:
320,192,99628,1,2,2:2:0:100:
64,192,99842,1,0,0:0:0:0:
448,192,100056,128,2,100485:2:2:0:100:
64,192,100485,1,8,2:2:0:100:
192,192,100485,1,2,2:2:0:100:
320,192,100699,1,0,0:0:0:0:
448,192,100913,1,2,2:2:0:100:
64,192,101128,1,0,0:0:0:0:
192,192,101342,1,8,2:2:0:100:
320,192,101342,1,2,2:2:0:100:
448,192,101556,1,0,0:0:0:0:
192,192,101770,128,2,102199:2:2:0:100:
320,192,102199,1,8,2:2:0:100:
448,192,102199,1,2,2:2:0:100:
64,192,102413,1,0,0:0:0:0:
320,192,102628,128,2,103056:2:2:0:100:
64,192,103056,1,8,2:2:0:100:
192,192,103056,1,2,2:2:0:100:
320,192,103270,1,0,0:0:0:0:
448,192,103485,128,2,103913:2:2:0:100:
64,192,103913,1,8,2:2:0:100:
192,192,103913,1,2,2:2:0:100:
320,192,104128,1,0,0:0:0:0:
64,192,104342,128,2,104770:2:2:0:100:
192,192,104342,128,0,104770:0:0:0:0:
320,192,104770,128,8,105199:2:2:0:100:
448,192,104770,128,2,105199:2:2:0:100:
64,192,105199,128,2,105628:2:2:0:100:
192,192,105199,1,4,0:0:0:20:soft-hitfinish.wav
320,192,105628,1,8,2:2:0:100:
448,192,105628,1,2,2:2:0:100:
192,192,105842,1,0,0:0:0:0:
64,192,106056,1,2,2:2:0:100:
448,192,106270,1,0,0:0:0:0:
64,192,106485,1,8,2:2:0:100:
192,192,106485,1,2,2:2:0:100:
448,192,106699,1,0,0:0:0:0:
320,192,106913,128,2,107342:2:2:0:100:
64,192,107342,1,8,2:2:0:100:
192,192,107342,1,2,2:2:0:100:
320,192,107556,1,0,0:0:0:0:
448,192,107770,1,2,2:2:0:100:
192,192,107985,1,0,0:0:0:0:
320,192,108199,1,8,2:2:0:100:
448,192,108199,1,2,2:2:0:100:
192,192,108413,1,0,0:0:0:0:
320,192,108628,1,2,2:2:0:100:
64,192,108842,1,0,0:0:0:0:
192,192,108949,1,0,0:0:0:0:
320,192,109056,128,4,109270:0:0:0:20:soft-hitfinish.wav
448,192,109056,128,8,109270:2:2:0:100:
192,192,109270,1,0,0:0:0:0:
64,192,109485,1,2,2:2:0:100:
448,192,109699,1,0,0:0:0:0:
320,192,109806,1,0,0:0:0:0:
64,192,109913,128,4,110128:0:0:0:20:soft-hitfinish.wav
192,192,109913,128,8,110128:2:2:0:100:
448,192,110128,1,0,0:0:0:0:
320,192,110342,1,8,0:0:0:100:
192,192,110449,1,8,0:0:0:100:
64,192,110556,1,8,0:0:0:100:
320,192,110770,1,8,2:2:0:100:
448,192,110770,1,2,2:2:0:100:
192,192,110985,1,8,0:0:0:100:
320,192,111092,1,8,0:0:0:100:
64,192,111199,128,2,111413:2:2:0:100:
192,192,111413,128,8,111628:0:0:0:100:
320,192,111628,128,10,111842:2:2:0:100:
448,192,111842,128,8,112056:0:0:0:100:
64,192,112056,128,2,112485:2:2:0:100:
192,192,112056,1,4,0:0:0:40:soft-hitfinish.wav
320,192,112485,1,8,2:2:0:100:
448,192,112485,1,2,2:2:0:100:
192,192,112699,1,0,0:0:0:0:
320,192,112913,128,2,113342:2:2:0:100:
64,192,113342,1,8,2:2:0:100:
448,192,113342,1,2,2:2:0:100:
320,192,113556,1,0,0:0:0:0:
64,192,113770,128,2,113985:2:2:0:100:
192,192,113985,1,0,0:0:0:0:
192,192,114199,128,10,114413:2:2:0:100:
320,192,114413,1,0,0:0:0:0:
320,192,114628,128,2,114842:2:2:0:100:
448,192,114842,1,0,0:0:0:0:
448,192,115056,128,10,115270:2:2:0:100:
64,192,115270,1,0,0:0:0:0:
64,192,115485,128,2,115913:2:2:0:100:
320,192,115913,1,8,2:2:0:100:
448,192,115913,1,2,2:2:0:100:
192,192,116128,1,0,0:0:0:0:
320,192,116342,128,2,116770:2:2:0:100:
64,192,116770,1,8,2:2:0:100:
192,192,116770,1,2,2:2:0:100:
320,192,116985,1,0,0:0:0:0:
448,192,117199,128,2,117413:2:2:0:100:
320,192,117413,1,0,0:0:0:0:
320,192,117628,128,10,117842:2:2:0:100:
192,192,117842,1,0,0:0:0:0:
192,192,118056,128,2,118270:2:2:0:100:
64,192,118270,1,0,0:0:0:0:
64,192,118485,128,10,118699:2:2:0:100:
320,192,118699,1,0,0:0:0:0:
320,192,118913,1,2,2:2:0:100:
448,192,118913,128,4,119342:0:0:0:40:soft-hitfinish.wav
64,192,119342,1,8,2:2:0:100:
192,192,119342,1,2,2:2:0:100:
320,192,119556,1,0,0:0:0:0:
64,192,119770,1,2,2:2:0:100:
192,192,119985,1,0,0:0:0:0:
320,192,120199,1,8,2:2:0:100:
448,192,120199,1,2,2:2:0:100:
192,192,120413,1,0,0:0:0:0:
64,192,120628,128,2,120842:2:2:0:100:
192,192,120842,1,0,0:0:0:0:
192,192,121056,128,10,121270:2:2:0:100:
320,192,121270,1,0,0:0:0:0:
320,192,121485,128,2,121699:2:2:0:100:
448,192,121699,1,0,0:0:0:0:
448,192,121913,128,10,122128:2:2:0:100:
64,192,122128,1,0,0:0:0:0:
64,192,122342,128,2,122770:2:2:0:100:
320,192,122342,1,4,0:0:0:20:soft-hitfinish.wav
320,192,122770,1,8,2:2:0:100:
448,192,122770,1,2,2:2:0:100:
192,192,122985,1,0,0:0:0:0:
448,192,123199,1,2,2:2:0:100:
320,192,123413,1,0,0:0:0:0:
64,192,123628,1,8,2:2:0:100:
192,192,123628,1,2,2:2:0:100:
320,192,123842,1,0,0:0:0:0:
64,192,124056,128,2,124270:2:2:0:100:
448,192,124056,128,4,124270:0:0:0:20:soft-hitfinish.wav
320,192,124270,1,0,0:0:0:0:
192,192,124485,1,10,2:2:0:100:
448,192,124699,1,0,0:0:0:0:
192,192,124913,128,2,125128:2:2:0:100:
320,192,124913,128,4,125128:0:0:0:20:soft-hitfinish.wav
64,192,125128,1,0,0:0:0:0:
448,192,125342,1,10,2:2:0:100:
320,192,125556,1,0,0:0:0:0:
192,192,125770,1,8,0:0:0:100:
320,192,125878,1,8,0:0:0:100:
448,192,125985,1,8,0:0:0:100:
64,192,126199,1,2,0:0:0:100:
192,192,126199,1,0,0:0:0:0:
320,192,126413,1,8,0:0:0:100:
192,192,126520,1,2,0:0:0:100:
320,192,126735,1,8,0:0:0:100:
192,192,126842,1,2,0:0:0:100:
448,192,127056,1,8,0:0:0:100:
320,192,127163,1,8,0:0:0:100:
192,192,127270,1,2,0:0:0:100:
64,192,127485,128,2,127913:2:2:0:100:
448,192,127485,1,4,0:0:0:40:soft-hitfinish.wav
320,192,127913,1,10,2:2:0:100:
192,192,128128,1,0,0:0:0:0:
64,192,128342,1,2,2:2:0:100:
192,192,128342,128,0,128770:0:0:0:0:
448,192,128770,1,10,2:2:0:100:
320,192,128985,1,0,0:0:0:0:
64,192,129199,1,2,2:2:0:100:
320,192,129199,1,0,0:0:0:0:
192,192,129413,1,0,0:0:0:0:
448,192,129520,1,0,0:0:0:0:
64,192,129628,1,10,2:2:0:100:
320,192,129842,1,0,0:0:0:0:
64,192,130056,1,2,2:2:0:100:
192,192,130056,1,0,0:0:0:0:
448,192,130270,1,0,0:0:0:0:
320,192,130378,1,0,0:0:0:0:
192,192,130485,1,10,2:2:0:100:
320,192,130699,1,0,0:0:0:0:
64,192,130913,128,2,131342:2:2:0:100:
448,192,130913,1,0,0:0:0:0:
320,192,131342,1,10,2:2:0:100:
192,192,131556,1,0,0:0:0:0:
64,192,131770,1,2,2:2:0:100:
448,192,131770,1,0,0:0:0:0:
192,192,131985,1,0,0:0:0:0:
320,192,132199,1,8,2:2:0:100:
448,192,132199,1,2,2:2:0:100:
64,192,132413,1,0,0:0:0:0:
192,192,132628,128,2,133485:2:2:0:100:
320,192,132628,1,0,0:0:0:0:
448,192,132842,1,0,0:0:0:0:
320,192,133056,1,10,2:2:0:100:
64,192,133270,1,0,0:0:0:0:
448,192,133485,1,2,2:2:0:100:
320,192,133592,1,8,0:0:0:100:
192,192,133699,1,8,0:0:0:100:
64,192,133913,128,10,134128:2:2:0:100:
192,192,134128,128,8,134342:0:0:0:100:
320,192,134342,1,2,2:2:0:100:
448,192,134342,128,4,134770:0:0:0:40:soft-hitfinish.wav
192,192,134770,1,10,2:2:0:100:
320,192,134985,1,0,0:0:0:0:
320,192,135199,128,2,135628:2:2:0:100:
448,192,135199,1,0,0:0:0:0:
64,192,135628,1,10,2:2:0:100:
192,192,135842,1,0,0:0:0:0:
192,192,136056,1,2,2:2:0:100:
448,192,136056,1,0,0:0:0:0:
64,192,136270,1,0,0:0:0:0:
320,192,136485,1,8,2:2:0:100:
448,192,136485,1,2,2:2:0:100:
192,192,136699,1,0,0:0:0:0:
64,192,136913,1,2,2:2:0:100:
448,192,136913,1,0,0:0:0:0:
320,192,137128,1,0,0:0:0:0:
192,192,137235,1,0,0:0:0:0:
64,192,137342,1,10,2:2:0:100:
320,192,137556,1,0,0:0:0:0:
64,192,137770,1,2,2:2:0:100:
448,192,137770,1,0,0:0:0:0:
192,192,137985,1,0,0:0:0:0:
320,192,138199,1,4,0:0:0:20:soft-hitfinish.wav
448,192,138199,1,8,2:2:0:100:
64,192,138413,1,0,0:0:0:0:
192,192,138628,1,2,2:2:0:100:
448,192,138628,1,0,0:0:0:0:
320,192,138842,1,0,0:0:0:0:
64,192,139056,1,4,0:0:0:20:soft-hitfinish.wav
192,192,139056,1,8,2:2:0:100:
320,192,139270,1,0,0:0:0:0:
448,192,139485,1,8,0:0:0:100:
192,192,139592,1,8,0:0:0:100:
320,192,139699,1,8,0:0:0:100:
64,192,139913,1,8,2:2:0:100:
192,192,139913,1,2,2:2:0:100:
448,192,140128,1,8,0:0:0:100:
320,192,140235,1,8,0:0:0:100:
64,192,140342,128,2,140556:2:2:0:100:
192,192,140556,128,8,140770:0:0:0:100:
320,192,140770,128,10,140985:2:2:0:100:
448,192,140985,128,8,141199:0:0:0:100:
64,192,141199,128,2,141628:2:2:0:100:
192,192,141199,1,4,0:0:0:40:soft-hitfinish.wav
320,192,141628,1,10,2:2:0:100:
192,192,141842,1,0,0:0:0:0:
192,192,142056,128,2,142485:2:2:0:100:
320,192,142056,1,0,0:0:0:0:
448,192,142485,1,10,2:2:0:100:
320,192,142699,1,0,0:0:0:0:
64,192,142913,1,2,2:2:0:100:
320,192,142913,1,0,0:0:0:0:
192,192,143128,1,0,0:0:0:0:
64,192,143342,1,8,2:2:0:100:
448,192,143342,1,2,2:2:0:100:
320,192,143556,1,0,0:0:0:0:
64,192,143770,1,2,2:2:0:100:
192,192,143770,1,0,0:0:0:0:
448,192,143985,1,0,0:0:0:0:
320,192,144092,1,0,0:0:0:0:
192,192,144199,1,10,2:2:0:100:
320,192,144413,1,0,0:0:0:0:
64,192,144628,128,2,145056:2:2:0:100:
448,192,144628,1,0,0:0:0:0:
320,192,145056,1,8,2:2:0:100:
448,192,145056,1,2,2:2:0:100:
192,192,145270,1,0,0:0:0:0:
64,192,145485,1,2,2:2:0:100:
448,192,145485,1,0,0:0:0:0:
192,192,145699,1,0,0:0:0:0:
320,192,145913,1,8,2:2:0:100:
448,192,145913,1,2,2:2:0:100:
64,192,146128,1,0,0:0:0:0:
192,192,146342,128,2,147199:2:2:0:100:
320,192,146342,1,0,0:0:0:0:
448,192,146556,1,0,0:0:0:0:
320,192,146770,1,10,2:2:0:100:
64,192,146985,1,0,0:0:0:0:
448,192,147199,1,2,2:2:0:100:
320,192,147306,1,8,0:0:0:100:
192,192,147413,1,8,0:0:0:100:
64,192,147628,128,10,147842:2:2:0:100:
192,192,147842,128,8,148056:0:0:0:100:
320,192,148056,1,2,2:2:0:100:
448,192,148056,128,4,148485:0:0:0:40:soft-hitfinish.wav
64,192,148485,1,10,2:2:0:100:
320,192,148699,1,0,0:0:0:0:
192,192,148913,1,2,2:2:0:100:
320,192,148913,128,0,149342:0:0:0:0:
64,192,149342,1,10,2:2:0:100:
448,192,149556,1,0,0:0:0:0:
320,192,149770,1,2,2:2:0:100:
448,192,149770,1,0,0:0:0:0:
64,192,149985,1,0,0:0:0:0:
192,192,150199,1,8,2:2:0:100:
320,192,150199,1,2,2:2:0:100:
448,192,150413,1,0,0:0:0:0:
64,192,150628,1,2,2:2:0:100:
192,192,150628,1,0,0:0:0:0:
320,192,150842,1,0,0:0:0:0:
192,192,150949,1,0,0:0:0:0:
64,192,151056,1,10,2:2:0:100:
320,192,151270,1,0,0:0:0:0:
64,192,151485,1,2,2:2:0:100:
448,192,151485,1,0,0:0:0:0:
192,192,151699,1,0,0:0:0:0:
320,192,151913,1,4,0:0:0:20:soft-hitfinish.wav
448,192,151913,1,8,2:2:0:100:
64,192,152128,1,0,0:0:0:0:
192,192,152342,1,2,2:2:0:100:
448,192,152342,1,0,0:0:0:0:
320,192,152556,1,0,0:0:0:0:
64,192,152770,1,4,0:0:0:20:soft-hitfinish.wav
192,192,152770,1,8,2:2:0:100:
320,192,152985,1,0,0:0:0:0:
448,192,153199,1,10,2:2:0:100:
192,192,153306,1,8,0:0:0:100:
320,192,153413,1,8,0:0:0:100:
64,192,153628,1,8,2:2:0:100:
192,192,153628,1,2,2:2:0:100:
448,192,153842,1,8,0:0:0:100:
320,192,153949,1,8,0:0:0:100:
64,192,154056,128,2,154270:2:2:0:100:
192,192,154270,128,8,154485:0:0:0:100:
320,192,154485,128,10,154699:2:2:0:100:
448,192,154699,128,8,154913:0:0:0:100:
64,192,154913,1,4,0:0:0:20:soft-hitfinish.wav
192,192,154913,1,0,0:0:0:0:
320,192,155393,1,0,0:0:0:0:
192,192,155633,1,0,0:0:0:0:
64,192,155873,1,0,0:0:0:0:
320,192,156123,1,0,0:0:0:0:
192,192,156373,1,0,0:0:0:0:
320,192,156623,1,0,0:0:0:0:
448,192,156873,1,0,0:0:0:0:
320,192,157225,1,0,0:0:0:0:
192,192,157578,1,0,0:0:0:0:
64,192,157978,1,0,0:0:0:0:
448,192,158478,1,0,0:0:0:0:
320,192,158665,1,0,0:0:0:0:
