osu file format v14

[General]
AudioFilename: audio.mp3
AudioLeadIn: 0
PreviewTime: 56226
Countdown: 0
SampleSet: Soft
StackLeniency: 0.5
Mode: 0
LetterboxInBreaks: 0
EpilepsyWarning: 1
WidescreenStoryboard: 1

[Editor]
DistanceSpacing: 1
BeatDivisor: 4
GridSize: 32
TimelineZoom: 3.180001

[Metadata]
Title:Enkoi
TitleUnicode:炎恋
Artist:Hatsuki Yura
ArtistUnicode:葉月ゆら
Creator:Half
Version:its not ringo
Source:
Tags:
BeatmapID:1972855
BeatmapSetID:944689

[Difficulty]
HPDrainRate:5.5
CircleSize:4
OverallDifficulty:8.5
ApproachRate:9
SliderMultiplier:1.4
SliderTickRate:1

[Events]
//Background and Video events
0,0,"bg.png",0,0
//Break Periods
//Storyboard Layer 0 (Background)
//Storyboard Layer 1 (Fail)
//Storyboard Layer 2 (Pass)
//Storyboard Layer 3 (Foreground)
//Storyboard Sound Samples

[TimingPoints]
150,352.941176470588,3,2,1,20,1,0
150,-200,4,2,1,20,0,0
4914,-100,4,2,1,20,0,0
5091,-200,4,2,1,20,0,0
14973,400,3,2,1,20,1,0
16173,410.958904109589,3,2,1,20,1,0
16173,-333.333333333333,3,2,1,20,0,0
18640,431.654676258993,3,2,1,20,1,0
19934,-200,3,2,1,20,0,0
21230,352.941176470588,3,2,1,30,1,0
21230,-111.111111111111,3,2,1,30,0,0
28641,-142.857142857143,3,2,1,30,0,0
28994,-111.111111111111,3,2,1,30,0,0
36053,-200,3,2,1,30,0,0
40288,-111.111111111111,3,2,1,30,0,0
40641,-111.111111111111,3,2,1,15,0,0
40994,-125,3,2,1,30,0,0
55112,405.405405405405,3,2,1,30,1,0
55517,-125,3,2,1,30,0,0
55922,-166.666666666667,3,2,1,30,0,0
56328,447.761194029851,3,2,1,40,1,0
56775,-100,3,2,1,50,0,0
57223,465.116279069767,3,2,1,60,1,0
57690,352.941176470588,3,2,1,60,1,1
57690,-90.9090909090909,3,2,1,60,0,1
70395,-100,3,2,1,30,0,0
83101,468.75,3,2,1,30,1,0
83569,530.973451327434,3,2,1,30,1,0
85570,375,3,2,1,30,1,0
86597,352.941176470588,3,2,1,30,1,0
86597,-125,3,2,1,30,0,0
142720,402.684563758389,3,2,1,30,1,0
143928,375,3,2,1,30,1,0
145053,352.941176470588,3,2,1,30,1,0
161288,382.165605095541,3,2,1,30,1,0
162434,413.793103448276,3,2,1,30,1,0
163251,428.571428571429,3,2,1,30,1,0
188969,352.941176470588,3,2,1,30,1,0
203798,377.358490566038,3,2,1,30,1,0
204930,413.793103448276,3,2,1,30,1,0
205757,458.015267175573,3,2,1,30,1,0
210337,465.116279069767,3,2,1,30,1,0
210802,495.867768595041,3,2,1,30,1,0
211297,458.015267175573,3,2,1,30,1,0
211755,352.941176470588,3,2,1,30,1,0
258343,365.853658536585,3,2,1,30,1,0
259440,384.615384615385,3,2,1,30,1,0
260593,413.793103448276,3,2,1,30,1,0
261834,442.477876106195,3,2,1,30,1,0

[Colours]
Combo1 : 242,222,130
Combo2 : 255,153,171

[HitObjects]
146,110,150,6,0,P|126:87|120:47,1,70
146,110,855,2,0,L|183:106,1,35
261,155,1208,5,0,0:0:0:0:
261,155,1561,1,0,0:0:0:0:
358,233,1738,1,0,0:0:0:0:
348,146,1914,1,0,0:0:0:0:
271,243,2091,1,0,0:0:0:0:
333,341,2267,6,0,P|306:360|269:363,1,70
196,286,2973,2,0,L|153:280,1,35
88,330,3326,1,0,0:0:0:0:
88,330,4032,6,0,L|85:282,1,35
24,232,4385,1,0,0:0:0:0:
99,133,4738,1,0,0:0:0:0:
99,133,4914,6,0,L|135:130,3,23.3333333333333
203,178,5267,1,0,0:0:0:0:
222,268,5444,6,0,L|229:309,1,35
302,384,5797,2,0,L|307:349,1,35
383,263,6149,2,0,L|390:304,1,35
460,199,6502,6,0,P|450:184|436:174,1,35
424,74,6855,2,0,P|406:75|390:82,1,35
332,153,7208,1,0,0:0:0:0:
251,108,7385,1,0,0:0:0:0:
158,189,7561,6,0,P|160:169|168:154,1,35
137,59,7914,2,0,P|152:51|170:50,1,35
38,124,8267,2,0,L|73:130,1,35
34,240,8620,6,0,L|-14:232,1,35
69,329,8973,2,0,P|118:331|160:298,1,105
177,198,9679,1,0,0:0:0:0:
177,198,10032,5,0,0:0:0:0:
323,231,10208,1,0,0:0:0:0:
234,289,10385,1,0,0:0:0:0:
267,143,10561,1,0,0:0:0:0:
435,147,10738,6,0,P|450:159|460:175,1,35
512,255,11091,2,0,P|465:264|436:311,1,105
360,362,11797,2,0,P|345:361|326:353,1,35
203,320,12149,2,0,P|245:309|274:256,1,105
216,132,12855,5,0,0:0:0:0:
196,128,13032,1,0,0:0:0:0:
182,143,13208,1,0,0:0:0:0:
189,162,13385,1,0,0:0:0:0:
208,166,13561,1,0,0:0:0:0:
222,151,13738,1,0,0:0:0:0:
321,63,13914,5,0,0:0:0:0:
343,67,14091,1,0,0:0:0:0:
358,50,14267,1,0,0:0:0:0:
350,29,14444,1,0,0:0:0:0:
329,25,14620,1,0,0:0:0:0:
314,42,14797,1,0,0:0:0:0:
362,202,14973,5,0,0:0:0:0:
344,221,15173,1,0,0:0:0:0:
352,244,15373,1,0,0:0:0:0:
377,248,15573,1,0,0:0:0:0:
392,230,15773,1,0,0:0:0:0:
384,207,15973,1,0,0:0:0:0:
310,132,16173,6,0,B|217:118|229:207|241:299|140:278,1,251.999992309571
147,279,19934,6,0,P|178:296|213:293,1,70
259,180,21014,5,0,0:0:0:0:
303,264,21230,6,0,L|380:274,1,62.9999980773926
491,171,21582,2,0,P|462:175|426:199,1,62.9999980773926
376,117,21935,2,0,P|328:117|304:106,1,62.9999980773926
259,19,22288,6,0,P|226:39|210:64,1,62.9999980773926
110,52,22641,2,0,P|110:90|124:118,1,62.9999980773926
64,197,22994,2,0,P|97:215|129:216,1,62.9999980773926
216,159,23347,6,0,P|246:141|277:137,1,62.9999980773926
430,208,23700,2,0,B|398:197|369:211|369:211|343:240|313:241,1,125.999996154785
315,240,24230,1,0,0:0:0:0:
167,292,24406,6,0,P|205:293|233:308,1,62.9999980773926
296,383,24759,2,0,P|330:382|361:368,1,62.9999980773926
473,208,25112,1,0,0:0:0:0:
374,274,25288,1,0,0:0:0:0:
306,167,25465,6,0,P|274:152|234:147,1,62.9999980773926
139,173,25818,2,0,P|189:159|204:40,1,188.999994232178
203,39,26524,1,0,0:0:0:0:
129,185,27229,6,0,L|197:177,1,62.9999980773926
290,78,27582,2,0,B|271:117|271:117|305:210,1,125.999996154785
395,294,28465,5,0,0:0:0:0:
395,294,28641,2,0,P|355:323|309:321,1,97.9999970092774
191,177,29524,5,0,0:0:0:0:
191,177,29700,2,0,B|125:209|57:200|57:200|77:222|94:250,1,188.999994232178
0,367,30406,2,0,P|32:343|65:339,1,62.9999980773926
167,362,30759,6,0,P|197:347|216:319,1,62.9999980773926
319,336,31112,2,0,P|321:302|306:272,1,62.9999980773926
372,191,31465,2,0,P|344:172|310:170,1,62.9999980773926
223,229,31818,6,0,P|192:225|166:207,1,62.9999980773926
83,56,32171,2,0,P|120:46|171:105,1,125.999996154785
171,105,32700,1,0,0:0:0:0:
267,47,32877,6,0,P|304:37|333:21,1,62.9999980773926
388,104,33229,2,0,P|420:110|447:124,1,62.9999980773926
483,283,33582,1,0,0:0:0:0:
398,188,33759,1,0,0:0:0:0:
291,257,33935,6,0,P|257:267|224:263,1,62.9999980773926
144,203,34288,2,0,P|190:263|136:348,1,188.999994232178
10,190,34994,6,0,P|30:163|58:149,1,62.9999980773926
64,46,35347,2,0,P|98:50|125:68,1,62.9999980773926
202,170,35700,1,0,0:0:0:0:
246,53,35877,1,0,0:0:0:0:
315,170,36053,6,0,L|330:318,1,140
329,309,36935,1,0,0:0:0:0:
430,300,37112,2,0,L|418:186,1,105
416,163,37818,2,0,L|410:116,1,35
312,28,38171,2,0,P|275:44|256:135,1,140
347,214,39053,1,0,0:0:0:0:
347,214,39229,2,0,P|295:212|258:251,1,105
246,284,39935,1,0,0:0:0:0:
94,185,40288,5,0,0:0:0:0:
84,203,40641,2,0,L|12:216,2,62.9999980773926
119,78,41171,1,0,0:0:0:0:
119,78,41347,6,0,B|159:23|219:81|279:137|323:74,1,224
373,2,42229,1,0,0:0:0:0:
453,61,42406,6,0,P|495:98|496:203,1,168
495,203,43112,1,0,0:0:0:0:
429,279,43288,1,0,0:0:0:0:
344,216,43465,6,0,B|303:212|267:246|267:246|223:257|186:234,1,168
84,177,44171,2,0,P|54:185|35:201,1,56
76,301,44524,2,0,P|124:316|187:235,1,168
186,234,45229,1,0,0:0:0:0:
117,155,45406,1,0,0:0:0:0:
171,57,45582,6,0,P|209:41|337:31,1,168
455,75,46288,2,0,P|420:85|385:107,1,56
262,131,46641,2,0,P|314:142|335:243,1,168
442,313,47347,2,0,P|414:319|384:335,1,56
281,336,47700,6,0,P|251:343|209:340,1,56
66,297,48053,2,0,P|93:296|121:290,1,56
257,212,48406,2,0,P|229:211|201:205,1,56
58,130,48759,6,0,P|49:91|146:39,1,168
206,113,49465,2,0,P|233:110|262:97,1,56
361,122,49818,2,0,P|384:82|371:19,2,112
228,191,50877,6,0,P|179:222|190:324,1,168
287,341,51582,2,0,L|351:352,1,56
336,249,51935,2,0,L|464:271,2,112
187,321,52994,6,0,L|178:192,1,112
179,209,53700,1,0,0:0:0:0:
90,27,54053,2,0,P|94:86|72:135,1,112
73,133,54759,1,0,0:0:0:0:
200,76,54935,1,0,0:0:0:0:
179,209,55112,6,0,L|166:293,1,70
264,266,55517,6,0,L|253:337,1,56
348,323,55922,6,0,L|340:376,1,41.9999987182618
509,195,56328,6,0,P|474:197|437:216,1,70
349,119,56775,6,0,P|323:95|284:81,1,70
264,266,57223,6,0,P|234:284|193:290,1,70
147,118,57690,6,0,L|140:9,1,77.0000023498536
0,126,58042,1,0,0:0:0:0:
164,156,58219,1,0,0:0:0:0:
56,43,58395,1,0,0:0:0:0:
72,206,58572,1,0,0:0:0:0:
265,259,58748,6,0,L|188:250,1,77.0000023498536
249,384,59101,1,0,0:0:0:0:
284,223,59278,1,0,0:0:0:0:
162,329,59454,1,0,0:0:0:0:
326,323,59631,1,0,0:0:0:0:
398,154,59807,6,0,L|405:75,1,77.0000023498536
264,98,60160,1,0,0:0:0:0:
426,176,60337,1,0,0:0:0:0:
333,16,60513,1,0,0:0:0:0:
315,189,60690,1,0,0:0:0:0:
434,57,60866,5,0,0:0:0:0:
324,208,61042,1,0,0:0:0:0:
231,28,61219,2,0,P|229:69|218:105,1,77.0000023498536
165,236,61572,2,0,P|159:198|141:159,1,77.0000023498536
64,31,61925,6,0,P|23:59|51:149,1,154.000004699707
47,147,62454,1,0,0:0:0:0:
165,236,62631,1,0,0:0:0:0:
189,80,62807,1,0,0:0:0:0:
312,201,62984,6,0,L|235:190,1,77.0000023498536
360,123,63337,2,0,L|408:61,1,77.0000023498536
401,208,63690,2,0,L|429:280,1,77.0000023498536
238,269,64042,6,0,P|183:321|209:384,1,154.000004699707
209,384,64572,1,0,0:0:0:0:
102,271,64748,2,0,P|93:223|77:178,1,77.0000023498536
213,52,65101,6,0,P|201:88|195:126,1,77.0000023498536
238,269,65454,2,0,P|292:250|302:195,1,115.50000352478
288,167,65807,1,0,0:0:0:0:
372,294,65984,1,0,0:0:0:0:
456,159,66160,6,0,L|468:76,1,77.0000023498536
309,142,66513,1,0,0:0:0:0:
475,184,66690,1,0,0:0:0:0:
361,52,66866,1,0,0:0:0:0:
386,223,67042,1,0,0:0:0:0:
201,325,67219,6,0,L|279:336,1,77.0000023498536
230,187,67572,1,0,0:0:0:0:
174,349,67748,1,0,0:0:0:0:
310,250,67925,1,0,0:0:0:0:
142,248,68101,1,0,0:0:0:0:
78,62,68278,6,0,L|65:150,1,77.0000023498536
204,85,68631,1,0,0:0:0:0:
44,41,68807,1,0,0:0:0:0:
155,174,68984,1,0,0:0:0:0:
139,0,69160,1,0,0:0:0:0:
302,98,69337,5,0,0:0:0:0:
145,198,69514,1,0,0:0:0:0:
303,295,69690,2,0,P|298:252|277:206,1,77.0000023498536
397,92,70042,2,0,P|378:151|383:188,1,77.0000023498536
456,283,70395,6,0,P|499:276|494:194,1,140
496,195,70925,1,0,0:0:0:0:
397,92,71101,2,0,P|364:94|327:115,1,70
281,238,71454,2,0,P|202:218|230:113,1,210
226,114,72160,1,0,0:0:0:0:
112,17,72337,1,0,0:0:0:0:
112,17,72425,1,0,0:0:0:0:
112,17,72513,6,0,P|112:56|103:96,1,70
0,163,72866,1,0,0:0:0:0:
143,213,73042,1,0,0:0:0:0:
32,255,73219,2,0,P|35:289|38:328,1,70
192,296,73572,6,0,P|194:355|303:322,1,210
267,228,74278,2,0,P|256:195|251:152,1,70
351,10,74631,6,0,P|317:55|422:102,1,210
419,104,75337,1,0,0:0:0:0:
512,192,75513,1,0,0:0:0:0:
439,290,75689,6,0,P|389:296|374:378,1,140
371,373,76219,1,0,0:0:0:0:
341,214,76395,2,0,P|324:175|302:146,1,70
283,19,76748,6,0,P|260:71|167:67,1,140
184,79,77278,1,0,0:0:0:0:
70,90,77454,2,0,P|85:61|83:23,1,70
131,180,77807,6,0,P|93:199|64:228,1,70
118,373,78160,2,0,P|180:378|196:259,1,210
184,93,78866,5,0,0:0:0:0:
181,66,79042,1,0,0:0:0:0:
204,51,79219,1,0,0:0:0:0:
227,64,79395,1,0,0:0:0:0:
228,90,79572,1,0,0:0:0:0:
205,104,79748,1,0,0:0:0:0:
97,218,79925,5,0,0:0:0:0:
71,228,80101,1,0,0:0:0:0:
69,255,80278,1,0,0:0:0:0:
92,269,80454,1,0,0:0:0:0:
115,257,80631,1,0,0:0:0:0:
116,231,80807,1,0,0:0:0:0:
28,109,80984,5,0,0:0:0:0:
2,99,81160,1,0,0:0:0:0:
0,72,81337,1,0,0:0:0:0:
23,58,81513,1,0,0:0:0:0:
46,70,81690,1,0,0:0:0:0:
47,96,81866,1,0,0:0:0:0:
183,183,82042,5,0,0:0:0:0:
183,183,82395,2,0,L|229:177,3,35
210,210,82748,2,0,L|256:204,3,35
257,237,83101,6,0,L|303:231,3,35
307,261,83569,2,0,L|353:255,3,35
375,283,84099,2,0,L|421:277,1,35
491,109,85570,6,0,P|455:59|380:74,1,140
297,207,86413,1,0,0:0:0:0:
297,207,86597,6,0,P|255:216|214:119,1,168
