osu file format v14

[General]
AudioFilename: eclipse parade.mp3
AudioLeadIn: 0
PreviewTime: 60190
Countdown: 0
SampleSet: Soft
StackLeniency: 0.7
Mode: 0
LetterboxInBreaks: 0
WidescreenStoryboard: 1

[Editor]
DistanceSpacing: 1
BeatDivisor: 3
GridSize: 4
TimelineZoom: 1.8

[Metadata]
Title:Eclipse Parade
TitleUnicode:Eclipse Parade
Artist:Hatsuki Yura
ArtistUnicode:葉月ゆら
Creator:Vert
Version:Yomi's Easy
Source:
Tags:Newspaper Cup gxytcgxytc Mei Tsukuyomi baldrace Lyric FreeSongs Zero__wind drop 清風明月 seifuu meigetsu
BeatmapID:956090
BeatmapSetID:430339

[Difficulty]
HPDrainRate:2
CircleSize:3
OverallDifficulty:2
ApproachRate:3
SliderMultiplier:0.9
SliderTickRate:1

[Events]
//Background and Video events
0,0,"yomi.jpg",0,0
//Break Periods
2,18852,21827
2,78652,86443
2,96064,97981
2,173267,181058
2,209140,219135
//Storyboard Layer 0 (Background)
//Storyboard Layer 1 (Fail)
//Storyboard Layer 2 (Pass)
//Storyboard Layer 3 (Foreground)
//Storyboard Sound Samples

[TimingPoints]
191,288.461538461538,4,2,17,40,1,0
60190,-95.2380952380952,4,2,17,60,0,1
78652,-100,4,2,17,40,0,0
117883,-100,4,2,17,50,0,0
136344,-95.2380952380952,4,2,17,60,0,1
154229,-117.647058823529,4,2,17,60,0,0
154517,-66.6666666666667,4,2,17,60,0,1
154806,-95.2380952380952,4,2,17,40,0,1
163748,-95.2380952380952,4,2,17,40,0,1
164037,-95.2380952380952,4,2,17,40,0,1
168075,-95.2380952380952,4,2,17,40,0,1
168652,-100,4,2,17,40,0,0
170671,-100,4,2,17,50,0,1
170960,-95.2380952380952,4,2,17,50,0,1
172114,-95.2380952380952,4,2,17,50,0,0
205575,-95.2380952380952,4,2,17,40,0,0
220575,-95.2380952380952,4,2,17,60,0,1
229229,-95.2380952380952,4,2,17,50,0,0
229806,-95.2380952380952,4,2,17,70,0,1
234133,-95.2380952380952,4,2,17,70,0,1
234421,-95.2380952380952,4,2,17,70,0,1
247690,-100,4,2,17,70,0,1
247979,-100,4,2,17,70,0,1
248267,-100,4,2,17,50,0,0

[Colours]
Combo1 : 115,94,236
Combo2 : 242,123,236
Combo3 : 84,71,245
Combo4 : 234,98,197

[HitObjects]
432,304,191,6,0,P|384:328|256:316,1,180,2|2,0:0|0:0,0:0:0:0:
96,240,1344,2,0,P|144:216|272:228,1,180,2|0,0:0|0:0,0:0:0:0:
444,268,2498,6,0,P|460:220|456:160,1,90,2|0,0:0|0:0,0:0:0:0:
420,100,3075,2,0,L|316:80,1,90,2|0,0:0|0:0,0:0:0:0:
244,68,3652,1,2,0:0:0:0:
68,100,4229,2,0,P|52:144|60:204,1,90,0|0,0:0|0:0,0:0:0:0:
92,268,4806,6,0,P|144:276|256:224,1,180,2|2,0:0|0:0,0:0:0:0:
384,92,5960,2,0,P|332:84|220:136,1,180,2|0,0:0|0:0,0:0:0:0:
64,224,7114,6,0,P|52:272|68:320,1,90,2|2,0:0|0:0,0:0:0:0:
144,352,7690,2,0,L|240:336,1,90,2|2,0:0|0:0,0:0:0:0:
324,324,8267,1,4,3:2:0:0:
433,217,8748,2,0,L|435:83,1,120,0|0,0:0|3:0,0:0:0:0:
348,68,9421,5,4,1:0:0:0:
264,224,9998,1,2,1:2:0:0:
108,128,10575,2,0,P|144:80|192:64,1,90,2|0,1:2|3:0,0:0:0:0:
244,120,11152,2,0,P|296:128|344:112,1,90,0|0,0:0|3:0,0:0:0:0:
416,88,11729,5,2,1:2:0:0:
412,272,12306,1,2,1:2:0:0:
248,336,12883,2,0,P|200:340|144:320,1,90,2|0,1:2|3:0,0:0:0:0:
80,288,13460,2,0,L|80:192,1,90,0|0,0:0|0:0,0:0:0:0:
144,136,14037,6,0,B|180:136|200:104|200:104|260:80|324:136,1,180,4|2,1:2|1:2,0:0:0:0:
432,248,15190,2,0,B|396:248|376:280|376:280|316:304|252:248,1,180,2|0,1:2|0:0,0:0:0:0:
256,192,16344,12,4,18652,1:0:0:0:
228,44,23267,6,0,L|200:144,1,90,4|0,1:0|0:0,0:0:0:0:
284,172,23844,2,0,L|292:272,1,90,0|2,1:0|0:0,0:0:0:0:
224,324,24421,2,0,P|176:336|52:292,2,180,0|0|0,1:0|1:0|1:0,0:0:0:0:
360,208,26152,5,0,1:0:0:0:
240,72,26729,2,0,P|196:96|168:136,1,90,0|2,1:0|0:0,0:0:0:0:
84,152,27306,2,0,P|72:212|88:256,1,90,0|2,1:0|0:0,0:0:0:0:
148,296,27883,5,0,1:0:0:0:
316,236,28460,2,0,P|328:288|328:336,1,90,0|2,1:0|0:0,0:0:0:0:
416,340,29037,2,0,P|480:308|500:192,2,180,0|0|0,1:0|1:0|1:0,0:0:0:0:
244,288,30767,6,0,P|196:284|148:304,2,90,0|2|0,1:0|0:0|1:0,0:0:0:0:
308,352,31633,2,0,P|356:356|404:336,2,90,2|0|2,0:0|1:0|0:0,0:0:0:0:
328,264,32498,6,0,P|336:220|376:172,1,90,4|0,1:0|0:0,0:0:0:0:
416,112,33075,2,0,P|372:88|304:80,1,90,0|2,1:0|0:0,0:0:0:0:
244,60,33652,2,0,P|208:108|224:248,2,180,0|0|0,1:0|1:0|1:0,0:0:0:0:
420,116,35383,5,0,1:0:0:0:
408,296,35960,2,0,P|368:320|312:320,1,90,0|2,1:0|0:0,0:0:0:0:
236,328,36537,2,0,P|208:280|204:212,1,90,0|2,1:0|0:0,0:0:0:0:
208,156,37114,5,0,1:0:0:0:
64,48,37690,2,0,P|36:96|32:148,1,90,0|0,1:0|0:0,0:0:0:0:
96,192,38267,2,0,B|96:303|96:303|42:364,2,180,0|0|0,1:0|1:0|1:0,0:0:0:0:
244,288,39998,1,0,1:0:0:0:
362,189,40479,2,0,P|398:153|408:68,1,120,0|2,0:0|3:2,0:0:0:0:
346,27,41152,2,0,L|237:27,1,90,2|8,3:2|3:0,0:0:0:0:
168,56,41729,6,0,B|144:104|144:104|140:236,1,180,4|2,1:0|1:2,0:0:0:0:
292,336,42883,2,0,L|392:328,1,90,0|0,0:0|0:0,0:0:0:0:
408,240,43460,2,0,L|308:248,1,90,0|0,0:0|3:0,0:0:0:0:
232,220,44037,6,0,B|208:160|208:160|232:32,1,180,2|2,1:2|1:2,0:0:0:0:
408,88,45190,2,0,L|432:180,1,90,0|0,0:0|0:0,0:0:0:0:
352,216,45767,2,0,L|328:124,1,90,0|0,0:0|3:0,0:0:0:0:
240,116,46344,6,0,B|216:168|168:176|168:176|88:140,1,180,4|0,1:0|1:0,0:0:0:0:
156,312,47498,2,0,B|180:260|228:252|228:252|308:288,1,180,0|0,1:0|0:0,0:0:0:0:
476,352,48652,6,0,L|492:256,1,90,4|4,3:2|3:2,0:0:0:0:
400,244,49229,2,0,L|384:140,1,90,4|2,3:2|3:2,0:0:0:0:
308,108,49806,2,0,B|260:100|232:64|232:64|208:100|144:112,1,180,0|8,0:0|3:0,0:0:0:0:
92,172,50671,2,0,L|104:272,1,90,4|4,3:0|1:0,0:0:0:0:
416,328,52017,5,4,1:2:0:0:
352,72,53267,1,0,3:0:0:0:
116,112,54325,1,4,1:0:0:0:
224,332,55575,6,0,P|176:324|132:280,1,90,4|0,1:2|3:0,0:0:0:0:
168,212,56152,2,0,P|216:196|288:212,1,90,2|0,1:2|3:0,0:0:0:0:
344,200,56729,2,0,L|360:88,1,90,0|0,0:0|3:0,0:0:0:0:
448,104,57306,2,0,L|432:216,1,90,2|0,1:2|3:0,0:0:0:0:
256,192,57787,12,0,58940,0:0:0:0:
412,96,60190,6,0,P|416:148|400:200,1,94.499997116089,4|0,1:0|3:0,0:0:0:0:
316,216,60767,2,0,L|320:320,1,94.499997116089,2|0,1:2|0:0,0:0:0:0:
232,340,61344,2,0,B|180:296|128:324|128:324|108:236,1,188.999994232178,0|2,0:0|1:2,0:0:0:0:
136,64,62498,6,0,P|208:48|244:56,1,94.499997116089,2|0,1:2|3:0,0:0:0:0:
188,136,63075,2,0,P|116:152|80:144,1,94.499997116089,2|0,1:2|0:0,0:0:0:0:
48,232,63652,2,0,P|72:280|204:308,1,188.999994232178,0|2,0:0|1:2,0:0:0:0:
368,244,64806,5,4,1:0:0:0:
372,56,65383,2,0,P|312:68|288:96,1,94.499997116089,2|0,1:2|3:0,0:0:0:0:
216,144,65960,2,0,P|152:156|48:84,1,188.999994232178,0|2,0:0|1:2,0:0:0:0:
240,56,67114,6,0,P|304:44|408:116,1,188.999994232178,0|0,3:0|0:0,0:0:0:0:
400,268,68171,2,0,P|356:296|272:296,1,125.999996154785,0|2,0:0|3:2,0:0:0:0:
192,288,68844,2,0,L|180:176,1,94.499997116089,8|4,3:0|3:0,0:0:0:0:
168,100,69421,6,0,P|120:104|72:128,1,94.499997116089,4|0,1:0|3:0,0:0:0:0:
40,208,69998,2,0,L|56:312,1,94.499997116089,2|0,1:2|0:0,0:0:0:0:
140,348,70575,2,0,B|212:356|212:356|232:280|328:312,1,188.999994232178,0|2,0:0|1:2,0:0:0:0:
448,176,71729,6,0,P|392:164|344:120,1,94.499997116089,2|4,1:2|3:2,0:0:0:0:
304,68,72306,2,0,P|236:92|208:132,1,94.499997116089,2|4,1:2|3:2,0:0:0:0:
196,200,72883,2,0,P|132:204|40:120,2,188.999994232178,0|2|2,0:0|1:2|1:2,0:0:0:0:
384,168,74614,1,2,1:2:0:0:
376,328,75094,6,0,P|332:340|240:320,1,125.999996154785,0|0,0:0|3:0,0:0:0:0:
160,312,75767,2,0,L|148:208,1,94.499997116089,2|2,1:2|3:2,0:0:0:0:
256,192,76344,12,0,77402,0:0:0:0:
300,308,87883,6,0,L|196:300,1,90,0|0,0:0|0:0,0:0:0:0:
200,212,88460,2,0,L|96:204,1,90,0|0,0:0|0:0,0:0:0:0:
72,120,89037,2,0,B|48:76|48:76|216:88,1,180,0|0,0:0|0:0,0:0:0:0:
340,160,90190,6,0,P|384:164|436:144,2,90,0|0|0,0:0|0:0|0:0,0:0:0:0:
192,260,91344,2,0,P|144:256|92:220,2,90,0|0|0,0:0|0:0|0:0,0:0:0:0:
356,344,92498,6,0,B|440:300|440:300|364:248|364:248|440:208|440:208|372:148,1,360,0|0,0:0|0:0,0:0:0:0:
208,72,94229,1,0,0:0:0:0:
256,192,94806,12,0,95864,0:0:0:0:
228,340,99421,6,0,L|200:240,1,90,4|0,1:0|0:0,0:0:0:0:
284,212,99998,2,0,L|292:112,1,90,0|0,0:0|0:0,0:0:0:0:
224,60,100575,2,0,P|176:48|52:92,2,180,0|0|0,1:0|1:0|1:0,0:0:0:0:
360,176,102306,5,0,0:0:0:0:
240,312,102883,2,0,P|196:288|168:248,1,90,0|2,1:0|0:0,0:0:0:0:
84,232,103460,2,0,P|72:172|88:128,1,90,0|2,1:0|0:0,0:0:0:0:
148,88,104037,5,0,1:0:0:0:
316,148,104614,2,0,P|328:96|328:48,1,90,0|2,1:0|0:0,0:0:0:0:
416,44,105191,2,0,P|480:76|500:192,2,180,0|0|0,1:0|1:0|1:0,0:0:0:0:
244,96,106921,6,0,P|196:100|112:44,1,150,0|4,1:0|1:2,0:0:0:0:
328,120,108652,6,0,P|336:164|376:212,1,90,4|2,1:0|0:0,0:0:0:0:
416,272,109229,2,0,P|372:296|304:304,1,90,0|2,1:0|0:0,0:0:0:0:
244,324,109806,2,0,P|208:276|224:136,2,180,0|0|0,1:0|1:0|1:0,0:0:0:0:
420,268,111537,5,0,1:0:0:0:
408,88,112114,2,0,P|368:64|312:64,1,90,0|2,1:0|0:0,0:0:0:0:
236,56,112691,2,0,P|208:104|204:172,1,90,0|2,1:0|0:0,0:0:0:0:
208,228,113268,5,0,1:0:0:0:
64,336,113844,2,0,P|36:288|32:236,1,90,0|2,0:0|0:0,0:0:0:0:
96,192,114421,2,0,P|88:140|-4:40,2,180,0|0|0,1:0|0:0|1:0,0:0:0:0:
244,88,116152,5,0,1:0:0:0:
352,196,116633,2,0,P|392:236|392:320,1,120
332,352,117306,2,0,L|228:356,1,90
164,312,117883,6,0,B|140:264|140:264|136:132,1,180,4|2,1:0|1:2,0:0:0:0:
292,48,119037,2,0,L|392:56,1,90
408,144,119614,2,0,L|308:136,1,90,0|0,0:0|3:0,0:0:0:0:
232,164,120191,6,0,B|208:224|208:224|232:352,1,180,2|2,1:2|1:2,0:0:0:0:
408,296,121344,2,0,L|432:204,1,90,0|0,0:0|0:0,0:0:0:0:
352,168,121921,2,0,L|328:260,1,90,0|0,0:0|3:0,0:0:0:0:
240,268,122498,2,0,B|216:216|168:208|168:208|88:244,1,180,4|0,1:0|1:0,0:0:0:0:
156,72,123652,2,0,B|180:124|228:132|228:132|308:96,1,180,2|0,1:2|0:0,0:0:0:0:
476,32,124806,6,0,L|492:128,1,90,4|0,3:2|0:0,0:0:0:0:
400,140,125383,2,0,L|384:244,1,90,8|0,3:0|0:0,0:0:0:0:
308,276,125960,6,0,B|260:284|232:320|232:320|208:284|144:272,1,180,0|0,0:0|0:0,0:0:0:0:
92,212,126825,2,0,L|104:112,1,90,0|4,0:0|1:0,0:0:0:0:
416,56,128171,5,4,1:2:0:0:
352,312,129421,1,4,3:0:0:0:
116,272,130479,1,4,1:0:0:0:
224,52,131729,6,0,P|176:60|132:104,1,90,4|0,1:2|3:0,0:0:0:0:
168,172,132306,2,0,P|216:188|288:172,1,90,2|0,1:2|3:0,0:0:0:0:
344,184,132883,2,0,L|360:296,1,90,0|0,0:0|3:0,0:0:0:0:
448,280,133460,2,0,L|432:168,1,90,2|0,1:2|0:0,0:0:0:0:
256,192,133940,12,4,135094,1:2:0:0:
100,96,136344,6,0,P|96:148|112:200,1,94.499997116089,4|0,1:0|3:0,0:0:0:0:
196,216,136921,2,0,L|192:320,1,94.499997116089,2|0,1:2|0:0,0:0:0:0:
280,340,137498,2,0,B|332:296|384:324|384:324|404:236,1,188.999994232178,0|2,0:0|1:2,0:0:0:0:
376,64,138652,6,0,P|304:48|268:56,1,94.499997116089,2|0,1:2|3:0,0:0:0:0:
324,136,139229,2,0,P|396:152|432:144,1,94.499997116089,2|0,1:2|0:0,0:0:0:0:
464,232,139806,2,0,P|440:280|308:308,1,188.999994232178,0|2,0:0|1:2,0:0:0:0:
144,244,140960,5,4,1:0:0:0:
140,56,141537,2,0,P|200:68|224:96,1,94.499997116089,2|0,1:2|3:0,0:0:0:0:
296,144,142114,2,0,P|360:156|464:84,1,188.999994232178,0|2,0:0|1:2,0:0:0:0:
272,56,143268,6,0,P|208:44|104:116,1,188.999994232178,0|0,3:0|0:0,0:0:0:0:
112,268,144325,2,0,P|156:296|240:296,1,125.999996154785,4|0,1:2|0:0,0:0:0:0:
320,288,144998,2,0,L|332:176,1,94.499997116089,8|4,3:0|3:0,0:0:0:0:
344,100,145575,6,0,P|392:104|440:128,1,94.499997116089,4|0,1:0|3:0,0:0:0:0:
472,208,146152,2,0,L|456:312,1,94.499997116089,2|0,1:2|0:0,0:0:0:0:
372,348,146729,2,0,B|300:356|300:356|280:280|184:312,1,188.999994232178,0|2,0:0|1:2,0:0:0:0:
64,176,147883,6,0,P|120:164|168:120,1,94.499997116089,2|4,1:2|3:2,0:0:0:0:
208,68,148460,2,0,P|276:92|304:132,1,94.499997116089,2|0,1:2|0:0,0:0:0:0:
316,200,149037,2,0,P|380:204|472:120,2,188.999994232178,0|2|2,0:0|1:2|1:2,0:0:0:0:
128,168,150768,1,2,1:2:0:0:
136,328,151248,6,0,P|180:340|272:320,1,125.999996154785,0|0,0:0|3:0,0:0:0:0:
352,312,151921,2,0,L|364:208,1,94.499997116089,2|2,1:2|3:2,0:0:0:0:
256,192,152498,12,4,153556,1:2:0:0:
152,60,154806,6,0,B|160:104|104:132|104:132|104:192|172:216,1,188.999994232178,2|2,1:2|1:2,0:0:0:0:
312,304,155864,2,0,P|364:296|420:244,1,125.999996154785,0|0,0:0|3:0,0:0:0:0:
356,176,156537,2,0,P|356:136|384:80,1,94.499997116089,2|0,1:2|3:0,0:0:0:0:
472,72,157114,6,0,L|496:172,2,94.499997116089,2|0|2,1:2|3:0|1:2,0:0:0:0:
312,56,158171,2,0,P|284:112|292:200,1,125.999996154785,4|0,1:2|3:0,0:0:0:0:
360,232,158844,2,0,L|340:332,1,94.499997116089,0|0,0:0|3:0,0:0:0:0:
252,356,159421,6,0,P|196:364|144:344,2,94.499997116089,2|0|2,1:2|3:0|1:2,0:0:0:0:
336,224,160479,2,0,P|284:200|248:128,1,125.999996154785,2|0,1:2|3:0,0:0:0:0:
176,84,161152,2,0,P|144:112|124:172,1,94.499997116089,2|0,1:2|3:0,0:0:0:0:
152,248,161729,6,0,P|112:264|44:248,2,94.499997116089,2|0|0,1:2|0:0|0:0,0:0:0:0:
312,216,162787,2,0,P|360:200|444:216,1,125.999996154785,0|0,0:0|0:0,0:0:0:0:
488,288,163460,2,0,L|432:376,1,94.499997116089,0|0,3:0|0:0,0:0:0:0:
344,364,164037,6,0,P|296:352|208:248,1,188.999994232178,2|2,1:2|1:2,0:0:0:0:
364,216,165094,2,0,P|314:137|196:92,1,220.499993270874,2|2,1:2|1:2,0:0:0:0:
88,248,166344,6,0,P|76:296|84:348,2,94.499997116089,2|0|2,1:2|3:0|1:2,0:0:0:0:
240,216,167402,2,0,P|296:204|376:224,1,125.999996154785,4|0,1:2|3:0,0:0:0:0:
456,236,168075,2,0,P|472:184|464:128,1,94.499997116089,8|4,3:0|3:0,0:0:0:0:
456,56,168652,5,0,1:0:0:0:
204,80,169710,1,0,0:0:0:0:
344,292,170960,6,0,P|296:308|164:260,2,188.999994232178,0|0|0,0:0|0:0|0:0,0:0:0:0:
424,244,172402,2,0,L|432:144,1,94.499997116089,0|0,0:0|0:0,0:0:0:0:
164,228,182498,6,0,B|164:172|164:172|112:140|112:140|108:92|108:92|136:48|136:48|204:48,1,283.499991348267,0|0,0:0|0:0,0:0:0:0:
300,48,183652,2,0,B|366:48|366:48|394:92|394:92|390:140|390:140|338:172|338:172|338:228,1,283.499991348267,0|0,0:0|0:0,0:0:0:0:
408,292,184806,6,0,B|356:340|356:340|288:360|224:304|224:304|140:348,1,283.499991348267,0|0,0:0|0:0,0:0:0:0:
120,252,185960,2,0,B|181:220|181:220|172:135|227:91|227:91|297:76,1,283.499991348267,0|0,0:0|0:0,0:0:0:0:
392,60,187114,6,0,B|460:124|460:124|372:188|416:316,1,283.499991348267,0|0,0:0|0:0,0:0:0:0:
317,313,188267,2,0,B|295:203|186:193|186:193|212:104,1,283.499991348267,0|0,0:0|0:0,0:0:0:0:
256,192,189421,12,0,190479,0:0:0:0:
144,288,191729,6,0,P|108:236|128:100,1,188.999994232178,4|0,1:0|3:0,0:0:0:0:
264,48,192787,2,0,P|312:88|396:88,1,125.999996154785,0|0,0:0|3:0,0:0:0:0:
460,136,193460,2,0,L|448:240,1,94.499997116089,0|8,3:0|3:0,0:0:0:0:
412,316,194037,6,0,B|356:344|356:344|220:320,1,188.999994232178,4|4,1:0|3:2,0:0:0:0:
132,200,195094,2,0,L|120:72,1,125.999996154785,0|0,0:0|3:0,0:0:0:0:
212,56,195767,2,0,L|220:160,1,94.499997116089,0|0,3:0|3:0,0:0:0:0:
312,168,196344,6,0,P|356:168|408:144,1,94.499997116089,0|0,1:0|3:0,0:0:0:0:
488,112,196921,1,0,1:0:0:0:
344,48,197402,2,0,P|280:44|212:76,1,125.999996154785,0|2,0:0|3:2,0:0:0:0:
140,108,198075,2,0,L|124:208,1,94.499997116089,0|0,1:0|3:0,0:0:0:0:
48,256,198652,6,0,L|60:356,2,94.499997116089,4|0|2,1:2|3:0|1:2,0:0:0:0:
200,304,199710,2,0,P|248:308|324:276,1,125.999996154785,0|0,0:0|3:0,0:0:0:0:
404,236,200383,2,0,L|408:132,1,94.499997116089,8|4,3:0|3:0,0:0:0:0:
368,56,200960,5,4,1:0:0:0:
120,112,202017,1,4,1:2:0:0:
308,336,203267,5,4,1:0:0:0:
368,88,204325,1,4,1:0:0:0:
72,144,205575,6,0,P|56:192|68:248,1,94.499997116089,4|0,1:2|3:0,0:0:0:0:
136,296,206152,2,0,L|240:284,1,94.499997116089,2|0,1:2|0:0,0:0:0:0:
296,216,206729,2,0,L|396:224,1,94.499997116089,0|0,0:0|3:0,0:0:0:0:
420,136,207306,2,0,L|320:128,1,94.499997116089,2|0,1:2|0:0,0:0:0:0:
256,192,207787,12,4,208940,1:2:0:0:
240,328,220575,6,0,P|200:276|196:236,1,94.499997116089,4|0,1:0|3:0,0:0:0:0:
284,212,221152,2,0,P|324:160|328:120,1,94.499997116089,2|0,1:2|0:0,0:0:0:0:
292,44,221729,2,0,B|224:48|204:28|204:28|152:60|148:116,1,188.999994232178,0|2,0:0|1:2,0:0:0:0:
92,284,222883,6,0,P|96:328|124:376,1,94.499997116089,2|4,1:2|3:2,0:0:0:0:
212,348,223460,2,0,P|256:336|312:344,1,94.499997116089,2|0,1:2|0:0,0:0:0:0:
400,332,224037,2,0,L|440:216,2,94.499997116089,0|0|0,0:0|3:0|3:0,0:0:0:0:
224,260,225190,6,0,P|172:216|160:88,1,188.999994232178,2|2,1:2|1:2,0:0:0:0:
304,52,226248,2,0,P|332:80|440:104,1,125.999996154785,4|0,1:2|3:0,0:0:0:0:
476,176,226921,2,0,P|436:204|364:208,1,94.499997116089,2|2,1:2|3:2,0:0:0:0:
304,244,227498,6,0,L|256:152,2,94.499997116089,4|0|0,1:2|3:0|3:0,0:0:0:0:
184,352,228556,2,0,P|112:344|60:304,1,125.999996154785,4|0,1:2|0:0,0:0:0:0:
24,232,229229,1,2,1:2:0:0:
156,100,229806,6,0,P|200:88|264:96,1,94.499997116089,4|0,1:0|3:0,0:0:0:0:
344,88,230383,2,0,L|352:204,1,94.499997116089,2|0,1:2|0:0,0:0:0:0:
388,272,230960,2,0,P|444:272|492:244,2,94.499997116089,0|0|2,0:0|3:0|1:2,0:0:0:0:
200,288,232114,6,0,P|184:236|196:176,1,94.499997116089,2|4,1:2|3:2,0:0:0:0:
272,156,232690,1,2,1:2:0:0:
152,48,233171,2,0,P|88:56|32:104,1,125.999996154785,0|0,0:0|3:0,0:0:0:0:
8,180,233844,2,0,L|24:284,1,94.499997116089,0|0,3:0|3:0,0:0:0:0:
96,336,234421,6,0,P|128:316|160:248,1,94.499997116089,2|4,1:2|3:2,0:0:0:0:
240,224,234998,2,0,L|240:120,1,94.499997116089,2|0,1:2|3:0,0:0:0:0:
308,64,235575,2,0,P|376:48|488:88,2,188.999994232178,0|2|0,0:0|1:2|3:0,0:0:0:0:
240,129,237017,6,0,L|240:224,1,94.499997116089,4|0,3:2|3:0,0:0:0:0:
356,336,237787,2,0,P|428:324|472:280,1,125.999996154785,4|8,1:2|3:0,0:0:0:0:
408,216,238460,2,0,L|416:120,1,94.499997116089,0|0,3:0|3:0,0:0:0:0:
352,52,239037,6,0,P|296:56|256:88,1,94.499997116089,4|0,1:0|3:0,0:0:0:0:
208,152,239614,2,0,P|168:152|112:124,1,94.499997116089,2|0,1:2|3:0,0:0:0:0:
24,148,240190,2,0,P|8:208|64:320,1,188.999994232178,0|2,0:0|1:2,0:0:0:0:
248,296,241344,6,0,P|232:232|232:184,1,94.499997116089,2|4,1:2|3:2,0:0:0:0:
232,108,241921,1,2,1:2:0:0:
388,128,242402,2,0,P|428:192|424:264,1,125.999996154785,0|0,0:0|3:0,0:0:0:0:
388,328,243075,2,0,L|280:320,1,94.499997116089,0|0,1:0|3:0,0:0:0:0:
200,300,243652,6,0,L|184:188,2,94.499997116089,2|4|2,1:2|3:2|1:2,0:0:0:0:
112,336,244517,1,0,3:0:0:0:
40,272,244806,2,0,P|24:208|36:152,1,94.499997116089,0|0,0:0|3:0,0:0:0:0:
68,96,245383,2,0,L|176:76,1,94.499997116089,0|2,3:0|3:2,0:0:0:0:
248,116,245960,6,0,L|316:44,2,94.499997116089,4|4|4,1:2|3:2|3:2,0:0:0:0:
172,256,247017,2,0,P|232:284|296:276,1,125.999996154785,4|4,1:2|3:2,0:0:0:0:
376,256,247690,2,0,L|392:164,1,90,2|4,1:2|3:2,0:0:0:0:
408,80,248267,5,4,1:0:0:0:
