osu file format v14

[General]
AudioFilename: eclipse parade.mp3
AudioLeadIn: 0
PreviewTime: 60190
Countdown: 0
SampleSet: Soft
StackLeniency: 0.3
Mode: 0
LetterboxInBreaks: 0
WidescreenStoryboard: 1

[Editor]
DistanceSpacing: 1
BeatDivisor: 3
GridSize: 8
TimelineZoom: 1.5

[Metadata]
Title:Eclipse Parade
TitleUnicode:Eclipse Parade
Artist:Hatsuki Yura
ArtistUnicode:葉月ゆら
Creator:Vert
Version:Lyric's Hard
Source:
Tags:Newspaper Cup gxytcgxytc Mei Tsukuyomi baldrace Lyric FreeSongs Zero__wind drop 清風明月 seifuu meigetsu
BeatmapID:944640
BeatmapSetID:430339

[Difficulty]
HPDrainRate:5.6
CircleSize:4
OverallDifficulty:6.6
ApproachRate:7.6
SliderMultiplier:1.2
SliderTickRate:1

[Events]
//Background and Video events
0,0,"lyric.jpg",0,0
//Break Periods
2,78652,96304
2,173267,181688
//Storyboard Layer 0 (Background)
//Storyboard Layer 1 (Fail)
//Storyboard Layer 2 (Pass)
//Storyboard Layer 3 (Foreground)
//Storyboard Sound Samples

[TimingPoints]
191,288.461538461538,4,2,17,50,1,0
8267,-90.9090909090909,4,2,17,70,0,0
18652,-100,4,2,17,60,0,0
40479,-90.9090909090909,4,2,17,60,0,0
46633,-90.9090909090909,4,2,17,60,0,0
46729,-90.9090909090909,4,2,17,40,0,0
46921,-90.9090909090909,4,2,17,60,0,0
47017,-90.9090909090909,4,2,17,50,0,0
47210,-90.9090909090909,4,2,17,60,0,0
47306,-90.9090909090909,4,2,17,50,0,0
47498,-90.9090909090909,4,2,17,60,0,0
51248,-90.9090909090909,4,2,17,40,0,0
55575,-90.9090909090909,4,2,17,50,0,0
60190,-83.3333333333333,4,2,17,60,0,1
78075,-133.333333333333,4,2,17,50,0,1
78364,-133.333333333333,4,2,17,90,0,1
78652,-100,4,2,17,5,0,0
97114,-100,4,2,17,50,0,0
107690,-100,4,2,17,40,0,0
108364,-100,4,2,17,30,0,0
108652,-100,4,2,17,50,0,0
116633,-90.9090909090909,4,2,17,60,0,0
122594,-90.9090909090909,4,2,17,40,0,0
122787,-90.9090909090909,4,2,17,60,0,0
122883,-90.9090909090909,4,2,17,40,0,0
123075,-90.9090909090909,4,2,17,60,0,0
123171,-90.9090909090909,4,2,17,50,0,0
123364,-90.9090909090909,4,2,17,60,0,0
123460,-90.9090909090909,4,2,17,50,0,0
123652,-90.9090909090909,4,2,17,60,0,0
124229,-90.9090909090909,4,2,17,50,0,0
124421,-90.9090909090909,4,2,17,60,0,0
136344,-83.3333333333333,4,2,17,60,0,1
154229,-133.333333333333,4,2,17,60,0,1
154517,-83.3333333333333,4,2,17,90,0,1
154806,-83.3333333333333,4,2,17,60,0,1
168652,-83.3333333333333,4,2,17,40,0,0
170671,-83.3333333333333,4,2,17,80,0,0
170960,-83.3333333333333,4,2,17,60,0,0
172114,-83.3333333333333,4,2,17,70,0,0
172402,-133.333333333333,4,2,17,50,0,0
172690,-133.333333333333,4,2,17,60,0,0
173267,-100,4,2,17,40,0,0
191440,-100,4,2,17,80,0,0
191729,-100,4,2,17,60,0,0
196440,-100,4,2,17,40,0,0
196633,-100,4,2,17,60,0,0
196729,-100,4,2,17,40,0,0
196921,-100,4,2,17,60,0,0
197017,-100,4,2,17,50,0,0
197210,-100,4,2,17,60,0,0
197306,-100,4,2,17,50,0,0
197498,-100,4,2,17,60,0,0
197883,-100,4,2,17,50,0,0
198075,-100,4,2,17,60,0,0
199710,-90.9090909090909,4,2,17,50,0,0
209517,-90.9090909090909,4,2,0,60,0,0
209614,-90.9090909090909,4,2,0,10,0,0
211344,-111.111111111111,4,2,17,30,0,0
219325,-90.9090909090909,4,2,17,50,0,0
220575,-83.3333333333333,4,2,17,60,0,1
229229,-83.3333333333333,4,2,17,50,0,1
229517,-83.3333333333333,4,2,17,50,0,1
229806,-83.3333333333333,4,2,17,70,0,1
247690,-133.333333333333,4,2,17,50,0,1
247979,-133.333333333333,4,2,17,90,0,1
248267,-100,4,2,17,50,0,0
257498,-100,4,2,17,40,0,0
263267,-100,4,2,17,30,0,0
263844,-100,4,2,17,20,0,0
264421,-100,4,2,17,10,0,0

[Colours]
Combo1 : 167,167,167
Combo2 : 224,121,140
Combo3 : 99,136,192
Combo4 : 199,118,163

[HitObjects]
357,244,191,6,0,L|274:239,1,80,2|0,0:0|0:0,0:0:0:0:
240,222,479,2,0,P|250:266|227:318,1,80,2|0,0:0|0:0,0:0:0:0:
160,261,767,2,0,P|150:217|173:165,1,80,2|0,0:0|0:0,0:0:0:0:
189,158,1056,2,0,L|175:74,1,80,2|0,0:0|0:0,0:0:0:0:
259,75,1344,2,0,P|296:91|352:86,1,80,2|0,0:0|0:0,0:0:0:0:
365,64,1633,2,0,L|359:170,1,80,2|2,0:0|0:0,0:0:0:0:
302,215,1921,2,0,L|313:324,1,80,0|0,0:0|0:0,0:0:0:0:
304,334,2210,2,0,P|345:313|408:324,1,80,2|0,0:0|0:0,0:0:0:0:
470,362,2498,6,0,B|454:227,1,120,2|0,0:0|0:0,0:0:0:0:
499,115,2979,1,0,0:0:0:0:
499,115,3075,2,0,P|451:136|375:103,1,120,2|0,0:0|0:0,0:0:0:0:
312,40,3556,1,0,0:0:0:0:
312,40,3652,2,0,P|277:93|278:128,1,80,2|2,0:0|0:0,0:0:0:0:
289,145,3940,1,0,0:0:0:0:
231,247,4133,2,0,P|184:258|130:236,1,80,2|0,0:0|0:0,0:0:0:0:
116,237,4421,2,0,L|66:251,3,40,0|0|0|0,0:0|0:0|0:0|0:0,0:0:0:0:
46,273,4806,6,0,L|54:164,1,80,2|0,0:0|0:0,0:0:0:0:
30,159,5094,2,0,L|26:73,1,80,2|0,0:0|0:0,0:0:0:0:
109,30,5383,2,0,P|137:23|203:44,1,80,2|0,0:0|0:0,0:0:0:0:
210,64,5671,2,0,L|204:151,1,80,2|0,0:0|0:0,0:0:0:0:
251,218,5960,2,0,P|262:256|241:313,1,80,2|0,0:0|0:0,0:0:0:0:
226,323,6248,2,0,L|316:312,1,80,2|2,0:0|0:0,0:0:0:0:
172,256,6537,2,0,L|81:255,1,80,0|0,0:0|0:0,0:0:0:0:
56,236,6825,2,0,L|72:333,1,80,2|0,0:0|0:0,0:0:0:0:
173,355,7114,6,0,P|232:342|326:358,1,120,2|2,0:0|0:0,0:0:0:0:
425,361,7594,1,0,0:0:0:0:
425,361,7690,2,0,L|401:216,1,120,2|2,0:0|0:0,0:0:0:0:
330,170,8171,1,0,0:0:0:0:
330,170,8267,1,4,3:2:0:0:
425,46,8460,1,0,3:0:0:0:
425,46,8748,2,0,P|374:65|319:51,1,88.000002685547,2|0,3:2|0:0,0:0:0:0:
305,35,9037,1,0,3:0:0:0:
305,35,9133,2,0,L|247:4,2,44.0000013427735,0|0|0,3:0|3:0|3:0,0:0:0:0:
288,128,9421,6,0,L|271:236,1,88.000002685547,4|0,1:0|0:0,0:0:0:0:
233,231,9710,2,0,P|229:277|251:324,1,88.000002685547,0|0,3:0|0:0,0:0:0:0:
280,339,9998,1,2,1:2:0:0:
150,369,10190,1,0,0:0:0:0:
150,369,10287,1,2,3:2:0:0:
47,286,10575,2,0,L|66:182,1,88.000002685547,2|0,1:2|0:0,0:0:0:0:
65,155,10864,1,0,3:0:0:0:
147,198,11056,2,0,P|187:203|248:171,1,88.000002685547,2|0,1:2|0:0,0:0:0:0:
256,150,11344,2,0,L|309:160,3,44.0000013427735,0|0|2|2,0:0|3:0|0:0|0:0,0:0:0:0:
331,189,11729,6,0,L|329:75,1,88.000002685547,2|0,1:2|0:0,0:0:0:0:
328,57,12017,1,2,3:2:0:0:
452,12,12306,2,0,B|471:52|471:52|457:131,1,88.000002685547,2|0,1:2|0:0,0:0:0:0:
451,137,12594,1,2,3:2:0:0:
346,217,12883,2,0,P|366:246|447:267,1,88.000002685547,2|0,1:2|0:0,0:0:0:0:
454,255,13171,1,0,3:0:0:0:
496,350,13364,2,0,L|339:345,1,132.00000402832,2|0,1:2|0:0,0:0:0:0:
320,345,13748,2,0,P|300:362|291:378,2,44.0000013427735,0|0|0,3:0|3:0|3:0,0:0:0:0:
306,302,14037,6,0,P|289:281|224:259,1,88.000002685547,4|0,1:2|0:0,0:0:0:0:
197,284,14325,2,0,L|203:177,1,88.000002685547,0|0,3:0|0:0,0:0:0:0:
205,151,14614,1,2,1:2:0:0:
150,82,14806,1,0,0:0:0:0:
150,82,14902,1,2,3:2:0:0:
40,155,15190,2,0,L|52:281,1,88.000002685547,2|0,1:2|0:0,0:0:0:0:
53,286,15479,1,0,3:0:0:0:
130,215,15672,2,0,P|175:216|235:181,1,88.000002685547,2|0,1:2|0:0,0:0:0:0:
235,161,15960,2,0,L|288:171,3,44.0000013427735,0|0|2|2,0:0|3:0|0:0|0:0,0:0:0:0:
316,147,16344,6,0,L|306:255,1,88.000002685547,4|0,3:2|0:0,0:0:0:0:
304,278,16633,1,2,3:2:0:0:
401,366,16921,2,0,B|425:329|425:329|426:253,1,88.000002685547,4|0,3:2|0:0,0:0:0:0:
421,240,17210,1,2,3:2:0:0:
468,117,17498,2,0,P|421:105|359:128,1,88.000002685547,4|0,3:2|0:0,0:0:0:0:
350,142,17787,1,2,3:2:0:0:
373,226,17979,2,0,P|283:197|263:136,1,132.00000402832,4|0,1:2|0:0,0:0:0:0:
264,124,18364,2,0,L|276:57,2,44.0000013427735,0|8|4,3:0|3:0|3:0,0:0:0:0:
264,124,18652,6,0,B|231:117|231:117|181:133|181:133|128:124,1,120,4|2,1:0|0:0,0:0:0:0:
42,225,19229,2,0,B|75:232|75:232|125:216|125:216|178:225,1,120,2|0,1:2|0:0,0:0:0:0:
243,365,19806,2,0,L|241:263,1,80,2|0,1:2|0:0,0:0:0:0:
239,245,20094,2,0,P|287:264|345:247,1,80,0|2,0:0|1:2,0:0:0:0:
344,234,20383,2,0,L|446:228,1,80,0|0,0:0|0:0,0:0:0:0:
463,226,20671,1,0,0:0:0:0:
495,84,20960,6,0,L|357:74,1,120,0|0,1:0|0:0,0:0:0:0:
291,161,21537,2,0,L|273:8,1,120,2|0,1:2|0:0,0:0:0:0:
164,83,22114,2,0,P|124:97|75:91,1,80,2|0,1:2|1:0,0:0:0:0:
54,71,22402,1,0,1:0:0:0:
14,157,22594,2,0,B|50:189|50:189|47:261,1,120,4|8,1:2|0:3,0:0:0:0:
45,301,22979,1,4,0:3:0:0:
148,361,23267,6,0,L|288:350,2,120,4|2|0,1:0|0:0|1:0,0:0:0:0:
217,262,24133,2,0,P|217:226|192:183,1,80,2|0,0:0|0:0,0:0:0:0:
196,187,24421,2,0,B|273:202|273:202|319:193,1,120,0|2,1:0|0:0,0:0:0:0:
393,283,24998,2,0,P|431:240|434:160,1,120,0|2,1:0|0:0,0:0:0:0:
445,59,25575,6,0,L|359:73,1,80,0|0,1:0|0:0,0:0:0:0:
326,80,25864,1,2,0:0:0:0:
229,151,26152,2,0,B|240:71|240:71|221:18,1,120,0|2,1:0|0:0,0:0:0:0:
123,94,26729,2,0,P|59:109|10:79,1,120,0|2,1:0|0:0,0:0:0:0:
64,193,27306,2,0,L|69:275,1,80,0|0,1:0|0:0,0:0:0:0:
72,312,27594,1,2,0:0:0:0:
173,376,27883,6,0,P|209:352|252:348,1,80,0|0,1:0|0:0,0:0:0:0:
283,356,28171,1,2,0:0:0:0:
401,375,28460,1,0,1:0:0:0:
365,303,28652,1,0,0:0:0:0:
365,303,28748,2,0,L|370:216,1,80,2|0,0:0|0:0,0:0:0:0:
383,185,29037,2,0,B|373:155|373:155|419:183|466:165,1,120,0|2,1:0|0:0,0:0:0:0:
426,51,29614,2,0,L|286:65,1,120,0|2,1:0|0:0,0:0:0:0:
191,30,30190,6,0,B|200:69|200:69|185:134,1,80,0|0,1:0|0:0,0:0:0:0:
182,147,30479,1,2,0:0:0:0:
136,257,30767,2,0,L|226:252,1,80,0|0,1:0|0:0,0:0:0:0:
255,242,31056,2,0,P|241:288|252:337,1,80,2|0,0:0|0:0,0:0:0:0:
325,368,31344,2,0,P|339:322|328:273,1,80,0|0,1:0|0:0,0:0:0:0:
365,264,31633,2,0,L|348:152,1,80,2|0,0:0|0:0,0:0:0:0:
295,94,31921,2,0,P|342:102|394:84,1,80,0|0,1:0|0:0,0:0:0:0:
405,71,32210,1,2,0:0:0:0:
225,28,32498,6,0,P|198:86|223:159,1,120,4|2,1:0|0:0,0:0:0:0:
235,256,33075,2,0,P|183:256|143:234,1,80,0|0,1:0|0:0,0:0:0:0:
130,215,33364,2,0,L|25:220,1,80,2|0,0:0|0:0,0:0:0:0:
12,297,33652,2,0,B|74:294|74:294|128:319,1,120,0|2,1:0|0:0,0:0:0:0:
229,377,34229,2,0,P|226:314|278:260,1,120,0|2,1:0|0:0,0:0:0:0:
378,281,34806,6,0,B|417:288|417:288|473:281,1,80,0|0,1:0|0:0,0:0:0:0:
492,264,35094,1,2,0:0:0:0:
419,168,35383,2,0,L|269:162,1,120,0|2,1:0|0:0,0:0:0:0:
191,217,35960,2,0,L|196:71,1,120,0|2,1:0|0:0,0:0:0:0:
303,44,36537,2,0,P|334:34|388:42,1,80,0|0,1:0|0:0,0:0:0:0:
411,63,36825,1,2,0:0:0:0:
307,153,37114,6,0,L|207:150,1,80,0|0,1:0|0:0,0:0:0:0:
192,130,37402,1,2,0:0:0:0:
139,22,37690,1,0,1:0:0:0:
63,77,37883,1,0,0:0:0:0:
63,77,37979,2,0,P|76:119|53:182,1,80,0|0,0:0|0:0,0:0:0:0:
43,182,38267,2,0,L|60:284,1,80,0|0,1:0|0:0,0:0:0:0:
48,300,38556,1,2,0:0:0:0:
148,364,38844,2,0,P|192:340|274:366,1,120,0|2,1:0|0:0,0:0:0:0:
375,255,39421,6,0,L|275:245,1,80,0|0,1:0|0:0,0:0:0:0:
255,242,39710,1,2,0:0:0:0:
169,158,39998,1,0,1:0:0:0:
169,158,40190,1,2,0:0:0:0:
264,66,40479,2,0,B|306:80|306:80|363:77,1,88.000002685547,4|0,1:2|0:0,0:0:0:0:
439,38,40767,1,0,3:0:0:0:
439,38,40864,2,0,L|430:142,1,88.000002685547,2|0,3:2|0:0,0:0:0:0:
438,228,41152,2,0,P|380:209|332:219,1,88.000002685547,2|0,3:2|0:0,0:0:0:0:
278,272,41441,1,8,3:0:0:0:
93,369,41729,6,0,B|104:320|104:320|93:249,1,88.000002685547,4|0,1:0|0:0,0:0:0:0:
125,242,42017,2,0,L|132:152,1,88.000002685547,0|0,3:0|0:0,0:0:0:0:
104,113,42306,1,2,1:2:0:0:
227,158,42594,1,0,3:0:0:0:
288,221,42787,2,0,P|326:230|416:183,1,132.00000402832,2|0,1:2|0:0,0:0:0:0:
422,152,43171,1,0,3:0:0:0:
358,70,43364,2,0,L|198:64,1,132.00000402832,2|0,1:2|0:0,0:0:0:0:
182,63,43748,1,0,3:0:0:0:
228,186,44037,6,0,L|237:284,1,88.000002685547,2|0,1:2|0:0,0:0:0:0:
248,315,44325,2,0,P|183:292|146:301,1,88.000002685547,0|0,3:0|0:0,0:0:0:0:
127,316,44614,1,2,1:2:0:0:
31,224,44902,1,0,3:0:0:0:
100,164,45094,2,0,B|137:164|137:164|190:186|190:186|246:186,1,132.00000402832,2|0,1:2|0:0,0:0:0:0:
271,185,45479,1,0,3:0:0:0:
336,126,45671,2,0,P|399:141|437:223,1,132.00000402832,2|0,1:2|0:0,0:0:0:0:
426,237,46056,1,0,3:0:0:0:
339,336,46344,6,0,L|176:332,1,132.00000402832,4|0,1:0|3:0,0:0:0:0:
130,224,46921,2,0,L|293:228,1,132.00000402832,0|0,1:0|3:0,0:0:0:0:
199,110,47498,1,0,1:0:0:0:
90,33,47787,2,0,L|86:124,1,88.000002685547,0|2,3:0|1:2,0:0:0:0:
85,164,48075,1,2,0:0:0:0:
25,229,48267,1,0,1:0:0:0:
25,229,48364,2,0,P|62:272|64:329,1,88.000002685547,0|0,3:0|0:0,0:0:0:0:
142,370,48652,6,0,B|167:331|167:331|169:259,1,88.000002685547,4|0,3:2|1:0,0:0:0:0:
208,305,48940,2,0,L|302:304,1,88.000002685547,4|0,3:2|1:0,0:0:0:0:
383,345,49229,2,0,P|422:357|485:345,1,88.000002685547,4|0,3:2|1:0,0:0:0:0:
499,321,49517,1,2,3:2:0:0:
431,247,49710,2,0,B|418:165|418:165|441:100,1,132.00000402832,4|0,1:2|1:0,0:0:0:0:
460,83,50094,2,0,L|448:28,2,44.0000013427735,0|0|0,3:0|3:0|3:0,0:0:0:0:
374,66,50383,2,0,L|362:11,2,44.0000013427735,8|8|8,3:0|3:0|3:0,0:0:0:0:
300,109,50671,2,0,L|288:54,2,44.0000013427735,4|4|4,3:0|3:0|3:0,0:0:0:0:
323,146,50960,5,4,1:0:0:0:
238,244,51248,2,0,B|197:238|197:238|152:246|152:246|102:240,2,132.00000402832,0|0|0,0:0|0:0|0:0,0:0:0:0:
301,305,52017,1,4,1:2:0:0:
317,346,52114,2,0,L|213:341,1,88.000002685547,0|0,0:0|0:0,0:0:0:0:
130,349,52402,2,0,P|81:346|36:366,1,88.000002685547,0|0,0:0|0:0,0:0:0:0:
52,316,52690,2,0,L|64:218,1,88.000002685547,0|0,0:0|0:0,0:0:0:0:
62,138,52979,2,0,L|12:118,2,44.0000013427735,0|0|0,3:0|3:0|3:0,0:0:0:0:
105,138,53267,6,0,P|148:154|199:146,1,88.000002685547,4|0,1:0|0:0,0:0:0:0:
212,112,53556,2,0,L|202:19,1,88.000002685547,0|0,0:0|0:0,0:0:0:0:
313,56,53844,2,0,L|311:156,1,88.000002685547,0|0,0:0|0:0,0:0:0:0:
303,187,54133,1,0,0:0:0:0:
386,276,54325,2,0,L|232:266,1,132.00000402832,4|0,1:0|0:0,0:0:0:0:
212,252,54710,2,0,P|223:313|200:361,1,88.000002685547,0|0,0:0|1:0,0:0:0:0:
330,324,54998,2,0,L|447:317,1,88.000002685547,4|0,3:2|1:0,0:0:0:0:
462,315,55287,1,4,3:2:0:0:
496,187,55575,5,4,1:2:0:0:
371,143,55864,1,0,3:0:0:0:
256,208,56152,2,0,L|262:109,1,88.000002685547,2|0,1:2|1:0,0:0:0:0:
264,76,56440,1,0,3:0:0:0:
172,144,56633,2,0,P|93:145|47:97,1,132.00000402832,4|0,1:2|0:0,0:0:0:0:
53,68,57017,1,0,3:0:0:0:
38,213,57306,2,0,P|45:256|25:308,1,88.000002685547,2|0,1:2|0:0,0:0:0:0:
5,332,57594,2,0,L|109:322,1,88.000002685547,0|4,3:0|3:2,0:0:0:0:
195,260,57883,6,0,L|190:355,1,88.000002685547,0|0,0:0|1:0,0:0:0:0:
226,322,58171,2,0,P|267:308|325:319,1,88.000002685547,0|0,3:0|1:0,0:0:0:0:
393,357,58460,2,0,L|465:352,3,44.0000013427735,0|2|2|2,3:0|0:0|3:2|1:2,0:0:0:0:
496,247,58940,1,4,1:2:0:0:
242,302,60190,6,0,B|225:230|225:230|255:141,1,143.999995605469,4|0,1:0|3:0,0:0:0:0:
433,85,60767,2,0,L|310:78,1,95.9999970703126,2|0,1:2|1:0,0:0:0:0:
302,63,61056,2,0,L|189:64,1,95.9999970703126,0|2,3:0|1:2,0:0:0:0:
106,15,61344,2,0,P|118:60|95:131,1,95.9999970703126,0|0,0:0|1:0,0:0:0:0:
89,139,61633,1,0,3:0:0:0:
17,249,61825,1,0,0:0:0:0:
17,249,61921,2,0,B|106:229|70:271|168:248,1,143.999995605469,2|0,1:2|3:0,0:0:0:0:
258,340,62402,1,2,0:0:0:0:
258,340,62498,6,0,P|272:275|374:253,1,143.999995605469,2|0,1:2|3:0,0:0:0:0:
464,366,62979,1,0,0:0:0:0:
464,366,63075,2,0,P|414:377|366:360,1,95.9999970703126,2|0,1:2|1:0,0:0:0:0:
348,334,63364,1,0,3:0:0:0:
413,178,63556,2,0,B|445:224|426:282|426:282|478:225,1,143.999995605469,2|0,1:2|1:0,0:0:0:0:
483,142,63940,2,0,L|360:150,1,95.9999970703126,0|2,3:0|0:0,0:0:0:0:
299,103,64229,2,0,P|289:159|314:212,1,95.9999970703126,2|0,1:2|0:0,0:0:0:0:
201,283,64517,2,0,P|211:227|186:174,1,95.9999970703126,0|0,3:0|0:0,0:0:0:0:
177,158,64806,6,0,B|132:157|132:157|81:175|81:175|15:173,1,143.999995605469,4|4,1:0|3:2,0:0:0:0:
104,47,65287,1,0,0:0:0:0:
104,47,65383,2,0,L|219:47,1,95.9999970703126,2|0,1:2|1:0,0:0:0:0:
253,47,65671,1,0,3:0:0:0:
352,176,65864,2,0,P|282:179|224:113,1,143.999995605469,2|0,1:2|1:0,0:0:0:0:
401,122,66248,2,0,L|388:243,1,95.9999970703126,0|0,3:0|0:0,0:0:0:0:
475,284,66537,2,0,L|488:163,1,95.9999970703126,2|0,1:2|0:0,0:0:0:0:
490,146,66825,1,0,3:0:0:0:
349,329,67114,6,0,P|280:313|230:340,1,95.9999970703126,0|0,3:0|1:0,0:0:0:0:
227,354,67402,1,0,3:0:0:0:
48,303,67594,2,0,L|150:307,1,95.9999970703126,0|0,1:0|3:0,0:0:0:0:
181,273,67883,1,8,3:0:0:0:
181,273,67979,1,4,3:0:0:0:
87,76,68171,2,0,P|54:129|113:217,1,143.999995605469,4|0,1:2|3:0,0:0:0:0:
196,95,68556,2,0,P|202:64|195:34,2,47.9999985351563,2|0|0,3:2|3:0|3:0,0:0:0:0:
258,181,68844,2,0,L|352:179,2,47.9999985351563,8|8|8,3:0|3:0|3:0,0:0:0:0:
360,81,69133,2,0,L|301:73,2,47.9999985351563,4|4|4,3:0|3:0|3:0,0:0:0:0:
421,166,69421,6,0,L|409:6,1,143.999995605469,4|0,1:0|3:0,0:0:0:0:
492,250,69998,2,0,P|492:289|457:344,1,95.9999970703126,2|0,1:2|1:0,0:0:0:0:
421,337,70287,2,0,L|299:328,1,95.9999970703126,0|2,3:0|1:2,0:0:0:0:
154,354,70575,2,0,P|205:341|246:286,1,95.9999970703126,0|0,0:0|1:0,0:0:0:0:
243,274,70864,1,0,3:0:0:0:
128,139,71056,1,0,0:0:0:0:
128,139,71152,2,0,P|106:197|164:263,1,143.999995605469,2|0,1:2|3:0,0:0:0:0:
245,155,71633,1,2,0:0:0:0:
245,155,71729,6,0,L|247:8,1,143.999995605469,2|4,1:2|3:2,0:0:0:0:
62,52,72210,1,0,0:0:0:0:
62,52,72306,2,0,L|160:50,1,95.9999970703126,2|0,1:2|1:0,0:0:0:0:
194,49,72594,1,4,3:2:0:0:
349,171,72787,2,0,P|259:164|226:93,1,143.999995605469,4|0,1:2|1:0,0:0:0:0:
382,76,73171,2,0,L|494:68,1,95.9999970703126,0|2,3:0|0:0,0:0:0:0:
453,197,73460,2,0,P|440:153|475:82,1,95.9999970703126,2|0,1:2|3:0,0:0:0:0:
385,256,73748,2,0,L|398:366,1,95.9999970703126,0|0,3:0|3:0,0:0:0:0:
349,316,74037,6,0,B|304:315|304:315|253:333|253:333|187:331,1,143.999995605469,2|4,1:2|3:2,0:0:0:0:
38,367,74517,1,0,0:0:0:0:
38,367,74614,2,0,P|85:365|132:331,1,95.9999970703126,2|0,1:2|1:0,0:0:0:0:
133,296,74902,1,0,3:0:0:0:
58,140,75094,2,0,P|34:239|73:282,1,143.999995605469,2|0,1:2|1:0,0:0:0:0:
155,161,75479,2,0,L|148:60,1,95.9999970703126,0|0,3:0|0:0,0:0:0:0:
241,67,75767,2,0,P|287:62|343:90,1,95.9999970703126,2|0,1:2|1:0,0:0:0:0:
363,108,76056,1,2,3:2:0:0:
233,208,76344,6,0,L|120:202,1,95.9999970703126,4|0,1:2|1:0,0:0:0:0:
215,308,76633,2,0,L|328:314,1,95.9999970703126,4|0,3:2|1:0,0:0:0:0:
430,293,76921,2,0,P|398:253|393:185,1,95.9999970703126,0|0,3:0|3:0,0:0:0:0:
410,169,77210,1,4,3:0:0:0:
297,90,77402,2,0,P|266:150|305:231,1,143.999995605469,4|0,1:2|1:2,0:0:0:0:
164,178,77787,2,0,L|98:170,2,47.9999985351563,4|8|4,3:2|3:0|3:0,0:0:0:0:
152,150,78075,6,0,L|42:139,1,90.0000034332277,2|4,1:2|1:2,0:0:0:0:
256,192,97114,12,0,98844,1:0:0:0:
62,141,99421,6,0,L|52:291,2,120,4|0|0,1:0|0:0|1:0,0:0:0:0:
172,190,100287,2,0,P|213:184|266:199,1,80,0|0,0:0|0:0,0:0:0:0:
277,220,100575,2,0,L|265:77,1,120,0|0,1:0|0:0,0:0:0:0:
376,50,101152,2,0,P|446:53|493:106,1,120,0|0,1:0|0:0,0:0:0:0:
395,167,101729,6,0,L|400:262,1,80,0|0,1:0|0:0,0:0:0:0:
402,286,102017,1,2,0:0:0:0:
306,358,102306,2,0,B|235:343|235:343|166:350,1,120,0|2,1:0|0:0,0:0:0:0:
59,365,102883,2,0,P|97:314|82:239,1,120,0|2,1:0|0:0,0:0:0:0:
17,167,103460,2,0,L|119:160,1,80,0|0,1:0|0:0,0:0:0:0:
136,157,103748,1,2,0:0:0:0:
245,206,104037,6,0,P|259:166|245:109,1,80,0|0,1:0|0:0,0:0:0:0:
238,92,104325,1,2,0:0:0:0:
335,22,104614,1,0,1:0:0:0:
410,64,104806,1,0,0:0:0:0:
410,64,104902,2,0,L|401:143,1,80,2|0,0:0|0:0,0:0:0:0:
386,180,105190,2,0,P|436:165|510:201,1,120,0|0,1:0|0:0,0:0:0:0:
423,282,105767,2,0,P|373:297|299:261,1,120,0|2,1:0|0:0,0:0:0:0:
216,200,106344,6,0,L|224:295,1,80,0|0,1:0|0:0,0:0:0:0:
227,319,106633,1,2,0:0:0:0:
113,357,106921,2,0,P|70:360|25:336,1,80,0|0,1:0|0:0,0:0:0:0:
18,309,107210,1,0,0:0:0:0:
85,257,107402,2,0,L|80:117,1,120,4|0,1:2|0:0,0:0:0:0:
63,100,107787,2,0,L|37:58,2,40,2|0|0,0:0|0:0|0:0,0:0:0:0:
143,57,108075,2,0,L|116:13,2,40,2|0|0,0:0|0:0|0:0,0:0:0:0:
164,95,108364,1,2,1:2:0:0:
272,43,108652,6,0,P|287:97|238:178,1,120,4|2,1:0|0:0,0:0:0:0:
200,256,109229,2,0,P|243:248|292:265,1,80,0|0,1:0|0:0,0:0:0:0:
307,282,109517,2,0,L|397:267,1,80,2|0,0:0|0:0,0:0:0:0:
445,326,109806,2,0,P|417:280|447:190,1,120,0|2,1:0|0:0,0:0:0:0:
510,131,110383,2,0,L|361:121,1,120,0|2,1:0|0:0,0:0:0:0:
279,170,110960,6,0,P|268:128|277:87,1,80,0|0,1:0|0:0,0:0:0:0:
301,63,111248,1,2,0:0:0:0:
183,88,111537,2,0,P|112:89|72:41,1,120,0|2,1:0|0:0,0:0:0:0:
14,159,112114,2,0,B|39:198|39:198|34:292,1,120,0|2,1:0|0:0,0:0:0:0:
133,202,112690,2,0,P|178:193|219:207,1,80,0|0,1:0|0:0,0:0:0:0:
238,230,112979,1,2,0:0:0:0:
263,347,113267,6,0,P|218:356|177:342,1,80,0|0,1:0|0:0,0:0:0:0:
158,319,113556,1,2,0:0:0:0:
238,230,113844,1,0,1:0:0:0:
340,293,114133,2,0,L|441:288,1,80,2|0,0:0|0:0,0:0:0:0:
458,298,114421,2,0,P|437:254|448:207,1,80,0|0,1:0|0:0,0:0:0:0:
459,188,114710,1,2,0:0:0:0:
410,124,114902,2,0,P|364:105|297:136,1,120,0|0,0:0|0:0,0:0:0:0:
282,165,115287,2,0,L|198:161,1,80,2|0,0:0|0:0,0:0:0:0:
164,147,115575,6,0,P|179:188|151:249,1,80,0|0,1:0|0:0,0:0:0:0:
151,257,115864,1,2,0:0:0:0:
48,195,116152,1,0,1:0:0:0:
48,195,116344,1,2,0:0:0:0:
85,68,116633,2,0,B|134:78|134:78|208:66,1,88.000002685547,4|0,1:2|0:0,0:0:0:0:
266,32,116921,1,0,3:0:0:0:
266,32,117018,2,0,L|257:136,1,88.000002685547,2|0,3:2|0:0,0:0:0:0:
229,223,117306,2,0,P|287:204|335:214,1,88.000002685547,2|0,3:2|0:0,0:0:0:0:
384,262,117595,1,8,3:0:0:0:
245,359,117883,6,0,B|203:342|203:342|144:344,1,88.000002685547,4|0,1:0|0:0,0:0:0:0:
119,360,118171,2,0,P|129:300|109:256,1,88.000002685547,0|0,3:0|0:0,0:0:0:0:
87,246,118460,2,0,L|97:143,1,88.000002685547,2|0,1:2|0:0,0:0:0:0:
102,115,118748,1,0,3:0:0:0:
190,183,118940,2,0,P|224:207|314:188,1,132.00000402832,2|0,1:2|0:0,0:0:0:0:
336,158,119325,1,0,3:0:0:0:
429,82,119517,2,0,L|436:218,1,132.00000402832,2|0,1:2|0:0,0:0:0:0:
439,258,119902,1,0,3:0:0:0:
324,333,120191,6,0,L|226:342,1,88.000002685547,2|0,1:2|0:0,0:0:0:0:
195,353,120479,2,0,P|218:288|209:251,1,88.000002685547,0|0,3:0|0:0,0:0:0:0:
194,232,120768,1,2,1:2:0:0:
74,287,121056,1,0,3:0:0:0:
22,215,121248,2,0,B|22:177|22:177|44:124|44:124|44:87,1,132.00000402832,2|0,1:2|0:0,0:0:0:0:
44,43,121633,1,0,3:0:0:0:
140,105,121825,2,0,P|185:129|280:77,1,132.00000402832,2|0,1:2|0:0,0:0:0:0:
289,74,122210,1,0,3:0:0:0:
415,212,122498,6,0,L|283:208,1,132.00000402832,4|0,1:0|3:0,0:0:0:0:
210,319,123075,2,0,L|341:322,1,132.00000402832,0|0,1:0|3:0,0:0:0:0:
473,335,123652,1,2,1:2:0:0:
415,212,123940,2,0,P|402:161|426:108,1,88.000002685547,0|0,3:0|1:0,0:0:0:0:
440,94,124229,1,0,0:0:0:0:
348,48,124421,1,0,1:0:0:0:
348,48,124517,2,0,L|229:54,1,88.000002685547,0|0,3:0|0:0,0:0:0:0:
198,171,124806,6,0,P|200:137|166:85,1,88.000002685547,4|0,3:2|1:0,0:0:0:0:
130,92,125094,2,0,B|87:104|87:104|25:89,1,88.000002685547,4|4,3:2|1:3,0:0:0:0:
7,117,125383,2,0,L|14:193,1,44.0000013427735,8|8,3:0|3:0,0:0:0:0:
86,239,125671,1,2,1:2:0:0:
34,338,125864,2,0,P|87:319|159:343,1,132.00000402832,4|0,1:2|3:0,0:0:0:0:
195,319,126248,2,0,L|268:313,2,44.0000013427735,0|0|0,3:0|3:0|3:0,0:0:0:0:
230,236,126537,2,0,L|303:230,2,44.0000013427735,0|4|4,3:0|3:0|3:0,0:0:0:0:
194,210,126825,1,4,3:2:0:0:
349,176,127114,6,0,P|367:220|356:274,1,88.000002685547,4|0,1:0|0:0,0:0:0:0:
341,298,127402,2,0,L|450:286,1,88.000002685547,0|0,0:0|0:0,0:0:0:0:
465,194,127690,2,0,P|447:150|458:96,1,88.000002685547,0|0,0:0|0:0,0:0:0:0:
478,75,127979,1,0,0:0:0:0:
353,102,128171,2,0,L|208:95,1,132.00000402832,4|0,1:2|0:0,0:0:0:0:
179,80,128556,2,0,P|192:117|180:177,1,88.000002685547,0|0,0:0|0:0,0:0:0:0:
76,242,128844,2,0,B|120:238|120:238|181:259,1,88.000002685547,0|0,0:0|0:0,0:0:0:0:
180,292,129133,2,0,L|170:356,2,44.0000013427735,0|8|4,3:0|3:0|3:0,0:0:0:0:
266,288,129421,6,0,L|369:279,1,88.000002685547,4|0,1:0|0:0,0:0:0:0:
396,293,129710,2,0,P|381:262|400:185,1,88.000002685547,0|0,0:0|0:0,0:0:0:0:
462,125,129998,2,0,P|401:125|360:93,1,88.000002685547,0|0,0:0|0:0,0:0:0:0:
355,74,130287,1,0,0:0:0:0:
259,20,130479,2,0,L|271:164,1,132.00000402832,4|0,1:0|0:0,0:0:0:0:
289,191,130864,2,0,P|233:177|192:190,1,88.000002685547,0|0,0:0|1:0,0:0:0:0:
110,247,131152,2,0,L|114:150,1,88.000002685547,0|0,3:0|1:0,0:0:0:0:
116,115,131440,1,0,3:0:0:0:
22,21,131729,5,4,1:2:0:0:
116,115,132017,1,0,3:0:0:0:
232,51,132306,2,0,P|278:36|335:51,1,88.000002685547,2|0,1:2|1:0,0:0:0:0:
349,70,132594,1,0,3:0:0:0:
455,202,132787,2,0,B|413:191|373:205|373:205|317:176,1,132.00000402832,4|0,1:2|0:0,0:0:0:0:
291,160,133171,1,0,3:0:0:0:
190,245,133460,2,0,L|199:346,1,88.000002685547,2|0,1:2|0:0,0:0:0:0:
438,353,133940,6,0,P|377:379|306:345,1,132.00000402832,4|0,3:2|3:0,0:0:0:0:
285,327,134325,2,0,L|167:334,1,88.000002685547,0|4,3:0|3:0,0:0:0:0:
155,346,134614,2,0,L|94:334,3,44.0000013427735,0|2|2|2,3:0|3:2|3:2|3:2,0:0:0:0:
185,221,135094,1,4,1:2:0:0:
441,117,136344,6,0,B|374:138|374:138|275:109,1,143.999995605469,4|0,1:0|3:0,0:0:0:0:
135,34,136921,2,0,P|152:87|121:155,1,95.9999970703126,2|0,1:2|1:0,0:0:0:0:
105,155,137210,2,0,L|107:268,1,95.9999970703126,0|2,3:0|1:2,0:0:0:0:
26,353,137498,2,0,P|87:337|133:350,1,95.9999970703126,0|0,0:0|1:0,0:0:0:0:
156,372,137787,1,0,3:0:0:0:
293,338,137979,1,0,0:0:0:0:
293,338,138075,2,0,P|261:312|285:195,1,143.999995605469,2|0,1:2|3:0,0:0:0:0:
345,115,138556,1,2,0:0:0:0:
345,115,138652,6,0,B|386:162|386:162|385:260,1,143.999995605469,2|0,1:2|3:0,0:0:0:0:
363,360,139133,1,0,0:0:0:0:
363,360,139229,2,0,P|407:334|458:335,1,95.9999970703126,2|0,1:2|1:0,0:0:0:0:
483,354,139518,1,0,3:0:0:0:
385,243,139710,2,0,P|354:184|399:106,1,143.999995605469,2|0,1:2|1:0,0:0:0:0:
502,28,140094,2,0,P|437:41|382:10,1,95.9999970703126,0|2,3:0|0:0,0:0:0:0:
285,3,140383,2,0,L|296:142,1,95.9999970703126,2|0,1:2|0:0,0:0:0:0:
198,192,140671,2,0,L|187:53,1,95.9999970703126,0|0,3:0|0:0,0:0:0:0:
96,5,140960,6,0,B|96:45|96:45|72:104|72:104|72:149,1,143.999995605469,4|4,1:0|3:2,0:0:0:0:
136,265,141440,1,0,0:0:0:0:
136,265,141537,2,0,P|92:249|29:263,1,95.9999970703126,2|0,1:2|1:0,0:0:0:0:
5,283,141825,1,0,3:0:0:0:
124,377,142017,2,0,L|301:366,1,143.999995605469,2|0,1:2|1:0,0:0:0:0:
256,268,142402,2,0,P|229:217|237:161,1,95.9999970703126,0|0,3:0|0:0,0:0:0:0:
372,145,142690,2,0,L|366:265,1,95.9999970703126,2|0,1:2|0:0,0:0:0:0:
364,289,142979,1,0,3:0:0:0:
425,60,143267,6,0,P|365:45|307:71,1,95.9999970703126,0|0,3:0|1:0,0:0:0:0:
295,84,143556,1,0,3:0:0:0:
211,202,143748,2,0,L|203:87,1,95.9999970703126,0|0,1:0|3:0,0:0:0:0:
199,58,144037,1,4,3:0:0:0:
199,58,144133,1,0,3:0:0:0:
73,15,144325,2,0,P|56:71|106:149,1,143.999995605469,4|0,1:2|3:0,0:0:0:0:
60,236,144710,2,0,L|-10:245,2,47.9999985351563,0|0|0,3:0|3:0|3:0,0:0:0:0:
132,347,144998,2,0,P|136:314|128:285,2,47.9999985351563,8|8|8,3:0|3:0|3:0,0:0:0:0:
249,236,145287,2,0,L|190:228,2,47.9999985351563,4|4|4,3:0|3:0|3:0,0:0:0:0:
282,270,145575,6,0,P|308:213|415:188,1,143.999995605469,4|0,1:0|3:0,0:0:0:0:
503,313,146152,2,0,L|374:304,1,95.9999970703126,2|0,1:2|1:0,0:0:0:0:
463,250,146440,2,0,P|489:198|475:133,1,95.9999970703126,0|2,3:0|1:2,0:0:0:0:
398,111,146729,2,0,L|279:116,1,95.9999970703126,0|0,0:0|1:0,0:0:0:0:
269,150,147017,1,0,3:0:0:0:
308,249,147210,1,0,0:0:0:0:
308,249,147306,2,0,L|140:240,1,143.999995605469,2|0,1:2|3:0,0:0:0:0:
35,311,147787,1,2,0:0:0:0:
35,311,147883,6,0,P|66:268|35:170,1,143.999995605469,2|4,1:2|3:2,0:0:0:0:
130,15,148364,1,0,0:0:0:0:
130,15,148460,2,0,P|150:60|137:126,1,95.9999970703126,2|0,1:2|1:0,0:0:0:0:
128,140,148748,1,4,3:2:0:0:
250,184,148940,2,0,L|414:177,1,143.999995605469,4|0,1:2|1:0,0:0:0:0:
476,286,149325,2,0,L|358:279,1,95.9999970703126,0|2,3:0|0:0,0:0:0:0:
273,334,149614,2,0,P|279:292|261:254,5,47.9999985351563,2|0|0|0|0|0,1:2|3:0|3:0|3:0|3:0|3:0,0:0:0:0:
239,258,150190,6,0,B|194:257|194:257|143:275|143:275|77:273,1,143.999995605469,2|4,1:2|3:2,0:0:0:0:
59,363,150671,1,0,0:0:0:0:
59,363,150767,2,0,L|53:265,1,95.9999970703126,2|0,1:2|1:0,0:0:0:0:
49,218,151056,1,0,3:0:0:0:
15,101,151248,2,0,P|76:128|155:103,1,143.999995605469,2|0,1:2|1:0,0:0:0:0:
187,171,151633,2,0,L|180:70,1,95.9999970703126,0|0,3:0|0:0,0:0:0:0:
275,114,151921,2,0,P|326:132|402:99,1,95.9999970703126,2|0,1:2|1:0,0:0:0:0:
405,96,152210,1,2,3:2:0:0:
402,306,152498,6,0,L|413:190,1,95.9999970703126,4|0,1:2|1:0,0:0:0:0:
303,239,152787,2,0,L|292:355,1,95.9999970703126,4|0,3:2|1:0,0:0:0:0:
87,318,153075,2,0,P|136:331|198:306,1,95.9999970703126,0|0,3:0|3:0,0:0:0:0:
209,282,153364,1,4,3:0:0:0:
135,88,153556,2,0,P|104:160|145:232,1,143.999995605469,4|0,1:2|1:0,0:0:0:0:
264,142,153941,2,0,L|254:74,2,47.9999985351563,4|0|0,3:2|0:0|0:0,0:0:0:0:
238,122,154229,6,0,L|222:6,1,90.0000034332277,2|4,1:2|3:2,0:0:0:0:
355,96,154806,6,0,P|394:109|468:87,1,95.9999970703126,2|0,1:2|0:0,0:0:0:0:
481,66,155094,2,0,L|467:181,1,95.9999970703126,2|0,1:2|0:0,0:0:0:0:
474,254,155383,2,0,B|420:238|420:238|305:252,1,143.999995605469,2|0,1:2|3:0,0:0:0:0:
205,225,155864,2,0,P|225:283|175:368,1,143.999995605469,2|0,1:2|1:0,0:0:0:0:
148,372,156248,2,0,L|21:363,1,95.9999970703126,0|0,3:0|0:0,0:0:0:0:
94,266,156537,2,0,L|111:106,1,143.999995605469,2|0,1:2|3:0,0:0:0:0:
268,33,157114,6,0,P|185:9|117:54,1,143.999995605469,2|0,1:2|3:0,0:0:0:0:
202,142,157690,2,0,P|285:166|353:121,1,143.999995605469,2|0,1:2|3:0,0:0:0:0:
421,53,158171,2,0,L|411:204,1,143.999995605469,4|0,1:2|1:0,0:0:0:0:
409,245,158556,1,0,3:0:0:0:
452,352,158748,2,0,P|375:328|312:357,1,143.999995605469,4|0,1:2|3:0,0:0:0:0:
276,328,159133,2,0,L|219:331,2,47.9999985351563,0|0|0,3:0|3:0|3:0,0:0:0:0:
301,244,159421,6,0,L|119:256,1,143.999995605469,2|0,1:2|3:0,0:0:0:0:
56,344,159998,2,0,P|66:297|50:251,1,95.9999970703126,2|0,1:2|0:0,0:0:0:0:
20,214,160287,1,0,3:0:0:0:
107,169,160479,2,0,L|289:157,1,143.999995605469,2|0,1:2|1:0,0:0:0:0:
298,155,160864,1,0,3:0:0:0:
399,88,161056,1,0,0:0:0:0:
399,88,161152,2,0,P|381:160|438:229,1,143.999995605469,2|0,1:2|3:0,0:0:0:0:
492,303,161633,1,0,0:0:0:0:
492,303,161729,6,0,L|357:303,2,95.9999970703126,2|0|4,1:2|0:0|0:0,0:0:0:0:
488,139,162306,1,2,1:2:0:0:
241,215,162594,1,0,3:0:0:0:
291,288,162787,2,0,P|328:232|288:140,1,143.999995605469,2|0,1:2|1:0,0:0:0:0:
276,128,163171,2,0,L|281:29,1,95.9999970703126,0|0,3:0|1:0,0:0:0:0:
196,68,163460,2,0,P|167:70|126:57,5,47.9999985351563,0|0|0|8|4|4,3:0|3:0|3:0|1:3|1:3|1:3,0:0:0:0:
106,42,164037,6,0,P|113:95|88:145,1,95.9999970703126,2|0,1:2|0:0,0:0:0:0:
16,167,164325,2,0,L|129:166,1,95.9999970703126,2|0,1:2|0:0,0:0:0:0:
202,280,164614,2,0,P|144:297|68:228,1,143.999995605469,2|0,1:2|3:0,0:0:0:0:
237,189,165094,2,0,P|247:256|321:295,1,143.999995605469,2|0,1:2|1:0,0:0:0:0:
348,360,165479,2,0,L|343:247,1,95.9999970703126,0|0,3:0|0:0,0:0:0:0:
433,200,165767,2,0,L|438:313,1,95.9999970703126,2|0,1:2|0:0,0:0:0:0:
440,334,166056,1,0,3:0:0:0:
328,165,166344,6,0,L|341:11,2,143.999995605469,2|0|2,1:2|3:0|1:2,0:0:0:0:
247,218,167114,1,0,3:0:0:0:
247,218,167210,1,0,3:0:0:0:
154,222,167402,2,0,B|146:173|190:140|190:140|204:106|177:63,1,143.999995605469,4|0,1:2|3:0,0:0:0:0:
158,55,167787,2,0,L|164:0,2,47.9999985351563,0|0|0,3:0|3:0|3:0,0:0:0:0:
66,84,168075,2,0,P|38:86|1:72,2,47.9999985351563,8|8|8,3:0|3:0|3:0,0:0:0:0:
93,170,168364,2,0,L|153:166,2,47.9999985351563,4|4|4,3:0|3:0|3:0,0:0:0:0:
33,248,168652,6,0,P|74:283|178:255,1,143.999995605469,0|0,1:0|0:0,0:0:0:0:
271,183,169229,2,0,L|260:279,1,95.9999970703126,0|0,0:0|0:0,0:0:0:0:
256,326,169517,1,0,0:0:0:0:
384,288,169710,1,0,1:0:0:0:
384,288,170575,1,0,1:0:0:0:
384,288,170671,2,0,P|368:233|400:172,1,95.9999970703126,4|0,3:2|0:0,0:0:0:0:
438,152,170960,6,0,L|342:159,2,95.9999970703126,8|8|8,3:0|3:0|3:0,0:0:0:0:
299,69,171537,2,0,L|395:62,2,95.9999970703126,8|4|4,3:0|3:0|3:0,0:0:0:0:
223,128,172114,1,4,1:2:0:0:
223,128,172402,6,0,L|124:124,1,90.0000034332277,4|4,1:0|1:2,0:0:0:0:
133,124,182498,6,0,P|194:113|261:143,1,120,4|0,1:0|3:0,0:0:0:0:
300,239,183075,2,0,P|239:250|172:220,1,120,0|0,1:0|3:0,0:0:0:0:
71,193,183652,2,0,L|81:333,1,120,2|2,1:2|3:2,0:0:0:0:
185,230,184229,2,0,L|175:90,1,120,2|2,0:0|3:2,0:0:0:0:
293,137,184806,6,0,B|326:142|326:142|380:129|380:129|433:137,1,120,0|0,1:0|3:0,0:0:0:0:
446,248,185383,2,0,B|413:243|413:243|359:256|359:256|306:248,1,120,0|0,1:0|3:0,0:0:0:0:
259,349,185960,1,2,1:2:0:0:
180,363,186152,1,0,3:0:0:0:
180,363,186248,2,0,P|130:349|103:315,1,80,2|0,3:2|3:0,0:0:0:0:
71,338,186537,2,0,L|72:228,1,80,2|0,3:2|3:0,0:0:0:0:
71,218,186825,2,0,L|22:166,2,40,0|8|4,3:0|3:0|3:0,0:0:0:0:
151,237,187114,6,0,P|201:242|274:193,1,120,4|4,1:2|3:2,0:0:0:0:
281,92,187690,2,0,P|217:100|190:120,1,80,2|0,1:2|1:0,0:0:0:0:
180,139,187979,1,2,3:2:0:0:
261,210,188267,2,0,L|356:206,1,80,4|2,1:2|1:2,0:0:0:0:
381,203,188556,1,4,3:2:0:0:
488,149,188844,2,0,L|464:96,5,40,2|0|0|2|0|0,0:0|0:0|3:0|3:2|3:0|3:0,0:0:0:0:
440,86,189421,5,4,3:2:0:0:
329,133,189710,1,4,3:2:0:0:
218,179,189998,2,0,P|222:123|170:58,1,120,2|4,3:2|3:0,0:0:0:0:
78,38,190479,2,0,B|80:120|80:120|119:182,1,120,4|0,1:2|0:0,0:0:0:0:
114,189,190864,2,0,P|111:229|57:277,1,80,0|0,0:0|0:0,0:0:0:0:
61,290,191152,2,0,L|144:286,1,80,0|0,0:0|0:0,0:0:0:0:
180,284,191440,1,4,3:2:0:0:
311,374,191729,6,0,P|314:336|361:280,1,80,4|0,1:0|0:0,0:0:0:0:
306,271,192017,2,0,L|300:178,1,80,0|0,0:0|1:0,0:0:0:0:
297,150,192306,1,0,3:0:0:0:
364,97,192498,1,8,3:0:0:0:
364,97,192594,1,4,3:0:0:0:
404,173,192787,2,0,P|331:177|284:125,1,120,4|0,1:2|1:0,0:0:0:0:
262,170,193171,2,0,L|175:177,1,80,0|0,3:0|1:0,0:0:0:0:
143,187,193460,2,0,L|72:172,5,40,0|0|0|8|8|4,3:0|3:0|3:0|3:0|3:0|3:0,0:0:0:0:
67,160,194037,6,0,P|76:198|62:246,1,80,4|0,1:0|0:0,0:0:0:0:
12,283,194325,2,0,L|105:278,1,80,0|0,0:0|1:0,0:0:0:0:
130,291,194614,1,4,3:2:0:0:
222,367,194902,1,4,3:0:0:0:
286,320,195094,2,0,B|288:289|288:289|269:234|269:234|271:175,1,120,4|0,1:2|1:0,0:0:0:0:
259,164,195479,2,0,P|295:179|351:172,1,80,0|0,3:0|1:0,0:0:0:0:
367,154,195767,2,0,L|376:85,5,40,0|0|0|0|0|0,3:0|3:0|1:0|3:0|3:0|3:0,0:0:0:0:
396,82,196344,6,0,B|313:88|313:88|248:66,1,120,0|0,1:0|3:0,0:0:0:0:
170,22,196921,1,0,1:0:0:0:
170,22,197114,1,2,1:2:0:0:
82,103,197402,2,0,P|108:150|70:230,1,120,2|0,1:2|1:0,0:0:0:0:
59,235,197787,2,0,L|68:321,1,80,2|0,3:2|0:0,0:0:0:0:
159,336,198075,2,0,L|150:250,1,80,0|0,1:0|1:0,0:0:0:0:
172,222,198364,1,0,3:0:0:0:
268,295,198652,6,0,P|316:307|379:284,1,80,4|0,1:2|0:0,0:0:0:0:
373,273,198940,1,0,3:0:0:0:
476,334,199229,2,0,L|467:236,1,80,2|0,1:2|1:0,0:0:0:0:
481,216,199517,1,0,3:0:0:0:
434,141,199710,2,0,B|356:164|356:164|274:151,1,132.00000402832,4|0,1:2|3:0,0:0:0:0:
219,146,200094,2,0,P|220:176|200:222,8,44.0000013427735,0|0|0|8|8|8|4|4|4,3:0|3:0|3:0|3:0|3:0|3:0|3:0|3:0|3:0,0:0:0:0:
189,111,200960,6,0,L|74:116,1,88.000002685547,4|0,1:0|0:0,0:0:0:0:
62,136,201248,2,0,P|45:179|57:234,1,88.000002685547,0|0,0:0|0:0,0:0:0:0:
79,252,201537,1,0,0:0:0:0:
18,381,201825,1,0,0:0:0:0:
100,339,202017,2,0,B|145:324|145:324|188:350|254:332,1,132.00000402832,4|0,1:2|0:0,0:0:0:0:
269,324,202402,1,0,0:0:0:0:
368,297,202594,2,0,L|386:352,6,44.0000013427735,0|0|0|8|8|8|4,3:0|3:0|3:0|3:0|3:0|3:0|3:0,0:0:0:0:
343,260,203267,6,0,P|394:267|459:238,1,88.000002685547,4|0,1:0|0:0,0:0:0:0:
454,221,203556,2,0,L|442:109,1,88.000002685547,0|0,0:0|0:0,0:0:0:0:
404,115,203844,2,0,B|362:119|362:119|321:142|321:142|268:145,1,132.00000402832,0|0,0:0|0:0,0:0:0:0:
207,208,204325,2,0,P|230:158|196:78,1,132.00000402832,4|0,1:0|0:0,0:0:0:0:
172,59,204710,1,0,0:0:0:0:
101,151,204902,1,0,1:0:0:0:
101,151,204998,2,0,L|107:242,1,88.000002685547,0|0,3:0|1:0,0:0:0:0:
111,282,205287,1,0,3:0:0:0:
14,371,205575,6,0,B|49:358|80:370|80:370|117:384|150:369,1,132.00000402832,4|0,1:2|3:0,0:0:0:0:
275,370,206152,2,0,P|253:335|258:274,1,88.000002685547,2|0,1:2|1:0,0:0:0:0:
274,251,206440,1,0,3:0:0:0:
360,301,206633,2,0,P|431:289|458:207,1,132.00000402832,4|0,1:2|1:0,0:0:0:0:
460,197,207017,1,0,3:0:0:0:
358,83,207306,2,0,L|368:180,1,88.000002685547,2|0,1:2|1:0,0:0:0:0:
373,214,207594,1,0,3:0:0:0:
263,140,207787,6,0,P|214:128|165:143,1,88.000002685547,4|0,3:2|0:0,0:0:0:0:
145,165,208075,1,0,0:0:0:0:
145,165,208171,2,0,L|152:46,1,88.000002685547,0|0,3:0|1:0,0:0:0:0:
43,131,208460,2,0,L|49:231,1,88.000002685547,0|0,3:0|3:0,0:0:0:0:
52,262,208748,1,2,1:2:0:0:
144,324,208940,1,4,1:2:0:0:
144,324,209517,1,4,1:2:0:0:
256,192,209614,12,2,211056,0:0:0:0:
368,60,211344,6,0,P|308:80|239:51,1,107.999996704102,2|2,0:0|0:0,0:0:0:0:
162,37,211921,2,0,L|171:118,1,71.9999978027344,2|0,0:0|0:0,0:0:0:0:
162,144,212210,1,2,0:0:0:0:
251,212,212402,2,0,B|222:212|222:212|176:229|176:229|124:230,1,107.999996704102,2|0,0:0|0:0,0:0:0:0:
110,222,212787,2,0,L|119:303,1,71.9999978027344,2|0,0:0|0:0,0:0:0:0:
110,329,213076,1,2,0:0:0:0:
215,351,213364,2,0,P|262:338|304:347,1,71.9999978027344,2|0,0:0|0:0,0:0:0:0:
311,364,213652,6,0,L|437:355,1,107.999996704102,2|2,0:0|0:0,0:0:0:0:
361,264,214229,2,0,P|345:230|352:177,1,71.9999978027344,2|0,0:0|0:0,0:0:0:0:
362,164,214517,1,2,0:0:0:0:
457,195,214710,2,0,L|462:72,1,107.999996704102,2|0,0:0|0:0,0:0:0:0:
440,57,215094,2,0,P|406:51|361:61,1,71.9999978027344,2|0,0:0|0:0,0:0:0:0:
339,77,215383,2,0,P|303:83|268:77,1,71.9999978027344,2|0,0:0|0:0,0:0:0:0:
236,60,215671,1,2,0:0:0:0:
137,38,215864,1,0,0:0:0:0:
137,38,215960,6,0,L|143:120,1,71.9999978027344,2|0,0:0|0:0,0:0:0:0:
113,130,216248,2,0,L|107:226,1,71.9999978027344,2|0,0:0|0:0,0:0:0:0:
74,246,216537,2,0,P|142:234|193:265,1,107.999996704102,2|2,0:0|0:0,0:0:0:0:
196,327,217017,2,0,P|246:344|297:329,1,107.999996704102,2|0,0:0|0:0,0:0:0:0:
316,299,217402,2,0,L|309:225,1,71.9999978027344,2|0,0:0|0:0,0:0:0:0:
318,192,217690,1,2,0:0:0:0:
417,234,217979,1,2,0:0:0:0:
474,142,218267,6,0,L|463:23,2,107.999996704102,2|2|2,0:0|0:0|0:0,0:0:0:0:
429,215,219037,1,0,0:0:0:0:
429,215,219133,1,2,0:0:0:0:
337,164,219325,2,0,P|292:149|222:174,1,88.000002685547,4|0,1:2|0:0,0:0:0:0:
217,184,219614,1,0,3:0:0:0:
217,184,219710,2,0,L|140:176,8,44.0000013427735,0|0|0|8|0|0|0|0|0,3:0|3:0|3:0|3:0|3:0|3:0|3:0|3:0|3:0,0:0:0:0:
115,112,220575,6,0,B|139:178|139:178|103:272,1,143.999995605469,4|0,1:0|3:0,0:0:0:0:
171,339,221152,2,0,P|123:356|51:333,1,95.9999970703126,2|0,1:2|1:0,0:0:0:0:
42,318,221440,1,0,3:0:0:0:
206,257,221633,2,0,L|385:245,1,143.999995605469,2|0,1:2|1:0,0:0:0:0:
399,314,222017,2,0,P|379:263|398:199,1,95.9999970703126,0|0,3:0|0:0,0:0:0:0:
464,150,222306,2,0,P|484:201|465:265,1,95.9999970703126,2|0,1:2|0:0,0:0:0:0:
389,108,222594,2,0,L|506:99,1,95.9999970703126,0|0,3:0|0:0,0:0:0:0:
328,190,222883,6,0,P|289:145|321:37,1,143.999995605469,2|4,1:2|3:2,0:0:0:0:
105,164,223460,2,0,L|203:157,1,95.9999970703126,2|0,1:2|1:0,0:0:0:0:
248,153,223748,1,4,3:2:0:0:
52,107,223940,2,0,B|67:137|67:137|67:213|67:213|87:248,1,143.999995605469,4|0,1:2|1:0,0:0:0:0:
106,347,224325,2,0,P|50:336|-18:366,1,95.9999970703126,0|2,3:0|1:2,0:0:0:0:
168,279,224614,2,0,L|241:273,5,47.9999985351563,0|0|0|0|0|0,3:0|3:0|3:0|3:0|3:0|3:0,0:0:0:0:
252,306,225190,6,0,L|363:295,1,95.9999970703126,2|0,1:2|0:0,0:0:0:0:
416,350,225479,2,0,P|394:311|414:232,1,95.9999970703126,4|0,3:2|0:0,0:0:0:0:
505,171,225767,2,0,B|445:182|445:182|368:156,1,95.9999970703126,2|0,1:2|1:0,0:0:0:0:
366,153,226056,1,0,3:0:0:0:
232,210,226248,2,0,P|271:173|271:71,1,143.999995605469,4|0,1:2|1:0,0:0:0:0:
248,48,226633,1,0,3:0:0:0:
45,135,226921,2,0,P|88:152|143:143,1,95.9999970703126,2|0,1:2|1:0,0:0:0:0:
176,118,227210,1,2,3:2:0:0:
10,66,227498,6,0,L|20:164,1,95.9999970703126,4|0,1:2|1:0,0:0:0:0:
13,209,227787,1,0,3:0:0:0:
98,301,227979,1,0,1:0:0:0:
98,301,228075,2,0,P|75:298|28:314,2,47.9999985351563,0|0|0,3:0|3:0|3:0,0:0:0:0:
214,215,228556,2,0,P|263:191|360:223,1,143.999995605469,4|0,1:2|1:0,0:0:0:0:
187,254,228940,2,0,L|176:153,1,95.9999970703126,4|4,3:2|3:0,0:0:0:0:
179,66,229229,2,0,L|106:46,5,47.9999985351563,2|2|2|2|2|2,1:2|1:2|1:2|1:2|1:2|1:2,0:0:0:0:
260,117,229806,6,0,P|307:128|378:92,1,95.9999970703126,4|0,1:0|0:0,0:0:0:0:
381,77,230094,1,0,3:0:0:0:
510,187,230287,1,0,0:0:0:0:
510,187,230383,2,0,L|373:178,1,95.9999970703126,2|0,1:2|1:0,0:0:0:0:
372,204,230671,1,0,3:0:0:0:
297,276,230864,2,0,B|270:253|268:205|268:205|260:239|230:262,1,143.999995605469,2|0,1:2|1:0,0:0:0:0:
50,289,231248,2,0,L|172:278,1,95.9999970703126,0|0,3:0|0:0,0:0:0:0:
169,183,231537,2,0,P|124:167|60:193,1,95.9999970703126,2|0,1:2|0:0,0:0:0:0:
122,367,231825,2,0,L|115:231,1,95.9999970703126,0|0,3:0|0:0,0:0:0:0:
78,178,232114,6,0,B|75:136|75:136|61:77|61:77|58:-3,1,143.999995605469,2|4,1:2|3:2,0:0:0:0:
292,101,232690,2,0,P|238:115|172:94,1,95.9999970703126,2|0,1:2|1:0,0:0:0:0:
159,80,232979,1,4,3:2:0:0:
335,29,233171,2,0,P|324:98|390:164,1,143.999995605469,4|0,1:2|1:0,0:0:0:0:
463,220,233556,2,0,L|470:118,1,95.9999970703126,0|2,3:0|0:0,0:0:0:0:
411,309,233844,2,0,P|440:321|488:317,5,47.9999985351563,0|0|0|0|8|4,3:0|3:0|1:0|3:0|3:0|3:0,0:0:0:0:
330,247,234421,6,0,L|215:240,1,95.9999970703126,2|0,1:2|0:0,0:0:0:0:
187,310,234710,2,0,P|205:258|174:186,1,95.9999970703126,4|0,3:2|0:0,0:0:0:0:
89,105,234998,2,0,L|94:207,1,95.9999970703126,2|0,1:2|1:0,0:0:0:0:
97,249,235287,1,0,3:0:0:0:
190,136,235479,2,0,B|224:121|263:137|263:137|302:153|341:131,1,143.999995605469,4|0,1:2|1:0,0:0:0:0:
420,56,235864,2,0,P|411:104|450:164,1,95.9999970703126,0|0,3:0|0:0,0:0:0:0:
508,246,236152,2,0,L|388:240,1,95.9999970703126,2|0,1:2|0:0,0:0:0:0:
364,238,236440,1,0,3:0:0:0:
237,367,236729,6,0,B|256:319|256:319|238:199,1,143.999995605469,0|4,3:0|3:2,0:0:0:0:
144,301,237210,1,0,1:0:0:0:
144,301,237306,2,0,L|60:307,3,47.9999985351563,0|0|4|0,3:0|3:0|3:0|3:0,0:0:0:0:
76,193,237787,2,0,P|41:161|32:102,1,95.9999970703126,4|0,1:2|0:0,0:0:0:0:
171,21,238075,1,8,3:0:0:0:
171,21,238171,2,0,P|163:70|92:119,1,95.9999970703126,8|4,3:0|3:0,0:0:0:0:
230,150,238460,2,0,L|312:145,2,47.9999985351563,0|0|4,3:0|3:0|3:0,0:0:0:0:
350,45,238748,2,0,L|268:50,2,47.9999985351563,0|0|0,3:0|3:0|3:0,0:0:0:0:
443,127,239037,6,0,P|385:86|386:0,1,143.999995605469,4|0,1:0|3:0,0:0:0:0:
379,196,239614,2,0,L|373:316,1,95.9999970703126,2|0,1:2|1:0,0:0:0:0:
372,339,239902,1,0,3:0:0:0:
206,305,240094,2,0,P|263:282|343:321,1,143.999995605469,2|0,1:2|1:0,0:0:0:0:
184,342,240479,2,0,L|173:225,1,95.9999970703126,0|0,3:0|0:0,0:0:0:0:
170,198,240767,1,2,1:2:0:0:
93,157,241056,2,0,P|117:117|110:53,1,95.9999970703126,0|0,3:0|0:0,0:0:0:0:
26,207,241344,6,0,L|192:196,1,143.999995605469,2|4,1:2|3:2,0:0:0:0:
363,110,241921,2,0,L|257:117,1,95.9999970703126,2|0,1:2|1:0,0:0:0:0:
224,120,242210,1,4,3:2:0:0:
360,205,242402,2,0,P|390:240|396:302,1,95.9999970703126,4|0,1:2|0:0,0:0:0:0:
308,354,242690,1,0,1:0:0:0:
308,354,242787,2,0,L|234:347,2,47.9999985351563,0|0|2,3:0|0:0|0:0,0:0:0:0:
248,240,243075,2,0,P|242:211|251:172,2,47.9999985351563,0|0|0,1:0|3:0|3:0,0:0:0:0:
121,310,243364,2,0,P|150:309|195:285,2,47.9999985351563,0|0|0,3:0|3:0|3:0,0:0:0:0:
24,366,243652,6,0,L|29:233,1,95.9999970703126,2|0,1:2|0:0,0:0:0:0:
54,230,243940,2,0,L|47:128,1,95.9999970703126,4|0,3:2|0:0,0:0:0:0:
139,96,244229,2,0,P|86:101|34:73,1,95.9999970703126,2|0,1:2|1:0,0:0:0:0:
19,45,244517,1,0,3:0:0:0:
200,15,244710,2,0,P|238:61|214:162,1,143.999995605469,4|0,1:2|1:0,0:0:0:0:
133,240,245094,2,0,L|263:232,1,95.9999970703126,0|0,3:0|0:0,0:0:0:0:
330,242,245383,2,0,L|317:186,2,47.9999985351563,0|0|0,3:0|3:0|1:0,0:0:0:0:
422,200,245671,2,0,L|470:197,2,47.9999985351563,2|8|4,3:2|3:2|3:2,3:2:0:0:
424,150,245960,6,0,L|417:259,1,95.9999970703126,4|0,1:2|1:0,0:0:0:0:
415,288,246248,1,4,3:2:0:0:
232,351,246537,2,0,P|262:355|293:344,3,47.9999985351563,4|0|0|4,3:2|3:0|3:0|3:0,0:0:0:0:
89,243,247017,2,0,P|149:223|227:254,1,143.999995605469,4|0,1:2|1:0,0:0:0:0:
267,157,247402,2,0,L|266:106,2,47.9999985351563,4|8|4,3:2|3:0|3:0,0:0:0:0:
246,131,247690,6,0,L|246:27,1,90.0000034332277,2|4,1:2|3:2,0:0:0:0:
15,98,248267,6,0,P|54:111|119:94,1,80,4|0,1:0|0:0,0:0:0:0:
126,86,248556,2,0,L|117:177,1,80,0|0,3:0|0:0,0:0:0:0:
100,201,248844,2,0,L|101:303,1,80,2|0,1:2|1:0,0:0:0:0:
103,321,249133,1,2,3:2:0:0:
204,257,249421,2,0,P|253:246|300:261,1,80,2|0,1:2|1:0,0:0:0:0:
313,276,249710,1,0,3:0:0:0:
359,346,249902,2,0,L|366:192,1,120,2|0,1:2|1:0,0:0:0:0:
430,178,250287,2,0,L|489:174,2,40,0|2|2,3:0|0:0|0:0,0:0:0:0:
402,149,250575,6,0,P|392:103|415:47,1,80,2|0,1:2|0:0,0:0:0:0:
424,40,250864,1,2,3:2:0:0:
306,91,251152,2,0,B|260:98|260:98|199:84,1,80,2|0,1:2|1:0,0:0:0:0:
189,78,251440,1,2,3:2:0:0:
92,175,251729,2,0,L|98:285,1,80,2|0,1:2|1:0,0:0:0:0:
100,294,252017,1,0,3:0:0:0:
194,227,252210,2,0,P|250:203|338:225,1,120,4|0,1:2|3:0,0:0:0:0:
387,233,252594,2,0,L|446:192,2,40,0|0|0,3:0|3:0|3:0,0:0:0:0:
386,273,252883,6,0,L|390:379,1,80,4|0,1:2|0:0,0:0:0:0:
349,350,253171,2,0,P|312:335|253:348,1,80,0|0,3:0|0:0,0:0:0:0:
238,359,253460,1,2,1:2:0:0:
169,304,253652,1,0,1:0:0:0:
169,304,253748,1,2,3:2:0:0:
259,225,254037,2,0,L|254:124,1,80,2|0,1:2|1:0,0:0:0:0:
253,105,254325,1,0,3:0:0:0:
173,157,254517,2,0,P|132:168|70:152,1,80,4|0,1:2|0:0,0:0:0:0:
66,135,254806,1,0,3:0:0:0:
66,135,254902,2,0,L|61:70,2,40,0|8|4,3:0|3:0|3:0,0:0:0:0:
41,231,255190,6,0,L|40:333,1,80,4|0,3:2|1:0,0:0:0:0:
40,351,255479,1,2,3:2:0:0:
196,383,255767,2,0,L|196:276,1,80,4|0,3:2|1:0,0:0:0:0:
196,262,256056,1,2,3:2:0:0:
354,206,256344,2,0,L|353:315,1,80,4|0,3:2|1:0,0:0:0:0:
353,326,256633,1,2,3:2:0:0:
227,256,256825,2,0,L|229:100,1,120,4|0,1:2|3:0,0:0:0:0:
211,99,257210,2,0,L|211:31,2,40,0|8|4,3:0|3:0|3:0,0:0:0:0:
211,99,257498,6,0,B|178:92|178:92|128:108|128:108|75:99,1,120,4|2,1:0|3:2,0:0:0:0:
315,50,258075,2,0,B|348:43|348:43|398:59|398:59|451:50,1,120,2|0,1:2|3:0,0:0:0:0:
500,168,258652,2,0,P|433:181|400:168,1,80,2|0,1:2|1:0,0:0:0:0:
388,158,258940,1,0,3:0:0:0:
321,222,259133,2,0,L|331:367,1,120,2|0,1:2|1:0,0:0:0:0:
333,381,259517,1,4,3:2:0:0:
256,192,259806,12,8,261825,3:0:0:0:
157,165,262114,5,4,1:0:0:0:
256,192,262210,12,0,264517,0:0:0:0:
