osu file format v14

[General]
AudioFilename: eclipse parade.mp3
AudioLeadIn: 0
PreviewTime: 60190
Countdown: 0
SampleSet: Soft
StackLeniency: 0.7
Mode: 0
LetterboxInBreaks: 0
WidescreenStoryboard: 1

[Editor]
DistanceSpacing: 1.5
BeatDivisor: 3
GridSize: 4
TimelineZoom: 2.4

[Metadata]
Title:Eclipse Parade
TitleUnicode:Eclipse Parade
Artist:Hatsuki Yura
ArtistUnicode:葉月ゆら
Creator:Vert
Version:Gxy's Insane
Source:
Tags:Newspaper Cup gxytcgxytc Mei Tsukuyomi baldrace Lyric FreeSongs Zero__wind drop 清風明月 seifuu meigetsu
BeatmapID:944717
BeatmapSetID:430339

[Difficulty]
HPDrainRate:7
CircleSize:4.2
OverallDifficulty:8.4
ApproachRate:9
SliderMultiplier:1.54
SliderTickRate:1

[Events]
//Background and Video events
0,0,"Gxy.jpg",0,0
//Break Periods
2,78852,82379
2,83467,86321
2,88083,91610
//Storyboard Layer 0 (Background)
//Storyboard Layer 1 (Fail)
//Storyboard Layer 2 (Pass)
//Storyboard Layer 3 (Foreground)
//Storyboard Sound Samples

[TimingPoints]
191,288.461538461538,4,2,7,65,1,0
1729,-133.333333333333,4,2,7,65,0,0
2114,-100,4,2,7,65,0,0
6440,-133.333333333333,4,2,7,65,0,0
6825,-100,4,2,7,65,0,0
8556,-200,4,2,7,65,0,0
9133,-90.9090909090909,4,2,7,65,0,0
12306,-100,4,2,7,65,0,0
12883,-111.111111111111,4,2,7,65,0,0
13652,-90.9090909090909,4,2,7,65,0,0
18652,-100,4,2,7,65,0,0
19806,-133.333333333333,4,2,7,65,0,0
20960,-100,4,2,7,65,0,0
23267,-133.333333333333,4,2,7,65,0,0
28364,-105.263157894737,4,2,7,65,0,0
31248,-133.333333333333,4,2,7,65,0,0
31921,-117.647058823529,4,2,7,65,0,0
32210,-105.263157894737,4,2,7,65,0,0
32498,-133.333333333333,4,2,7,65,0,0
40864,-117.647058823529,4,2,7,65,0,0
41152,-105.263157894737,4,2,7,65,0,0
41440,-95.2380952380952,4,2,7,65,0,0
41729,-117.647058823529,4,2,7,65,0,0
50383,-117.647058823529,4,2,7,48,0,0
50960,-200,4,2,7,65,0,0
54710,-142.857142857143,4,2,7,65,0,0
54998,-117.647058823529,4,2,7,65,0,0
59614,-153.846153846153,4,2,7,65,0,0
59902,-95.2380952380952,4,2,7,65,0,0
60190,-95.2380952380952,4,2,7,65,0,1
64229,-105.263157894737,4,2,7,65,0,1
64517,-117.647058823529,4,2,7,65,0,1
64806,-95.2380952380952,4,2,7,65,0,1
68171,-133.333333333333,4,2,7,65,0,1
68844,-133.333333333333,4,2,7,46,0,1
69421,-95.2380952380951,4,2,7,65,0,1
73460,-133.333333333333,4,2,7,65,0,1
73652,-95.2380952380951,4,2,7,65,0,1
78364,-66.6666666666667,4,2,7,65,0,1
78652,-133.333333333333,4,2,7,65,0,0
95864,-105.263157894737,4,2,7,65,0,0
96537,-133.333333333333,4,2,7,65,0,0
98556,-66.6666666666667,4,2,7,65,0,0
98844,-133.333333333333,4,2,7,65,0,0
104614,-105.263157894737,4,2,7,65,0,0
107402,-133.333333333333,4,2,7,65,0,0
117017,-117.647058823529,4,2,7,65,0,0
117306,-105.263157894737,4,2,7,65,0,0
117594,-95.2380952380951,4,2,7,65,0,0
117883,-117.647058823529,4,2,7,65,0,0
124806,-100,4,2,7,65,0,0
127114,-200,4,2,7,65,0,0
130864,-142.857142857143,4,2,7,65,0,0
131152,-117.647058823529,4,2,7,65,0,0
135767,-153.846153846153,4,2,7,65,0,0
136056,-95.2380952380952,4,2,7,65,0,0
136344,-95.2380952380952,4,2,7,65,0,1
140383,-105.263157894737,4,2,7,65,0,1
140671,-117.647058823529,4,2,7,65,0,1
140960,-95.238095238095,4,2,7,65,0,1
144325,-133.333333333333,4,2,7,65,0,1
144710,-117.647058823529,4,2,7,65,0,1
144998,-105.263157894737,4,2,7,46,0,1
145287,-95.2380952380951,4,2,7,47,0,1
145575,-95.2380952380951,4,2,7,71,0,1
154037,-95.2380952380951,4,2,7,50,0,1
154229,-117.647058823529,4,2,7,65,0,0
154517,-66.6666666666667,4,2,7,65,0,1
154806,-95.2380952380952,4,2,7,65,0,1
163748,-95.2380952380952,4,2,7,49,0,1
164037,-95.2380952380952,4,2,7,65,0,1
168075,-95.2380952380952,4,2,7,47,0,1
168652,-200,4,2,7,65,0,0
170671,-66.6666666666667,4,2,7,65,0,1
170960,-95.2380952380952,4,2,7,65,0,1
172114,-95.2380952380952,4,2,7,65,0,0
174998,-95.2380952380952,4,2,7,51,0,0
175575,-95.2380952380952,4,2,7,65,0,0
177306,-95.2380952380952,4,2,7,51,0,0
177883,-95.2380952380952,4,2,7,65,0,0
181633,-105.263157894737,4,2,7,65,0,0
181921,-117.647058823529,4,2,7,65,0,0
182210,-133.333333333333,4,2,7,65,0,0
182498,-95.2380952380951,4,2,7,65,0,0
184229,-95.2380952380951,4,2,7,47,0,0
184806,-95.2380952380951,4,2,7,65,0,0
185960,-95.2380952380951,4,2,7,51,0,0
186537,-95.2380952380951,4,2,7,61,0,0
191729,-95.2380952380951,4,2,7,65,0,0
193748,-95.2380952380951,4,2,7,46,0,0
194037,-95.2380952380951,4,2,7,65,0,0
200383,-95.2380952380951,4,2,7,43,0,0
200960,-200,4,2,7,65,0,0
202690,-200,4,2,7,45,0,0
204710,-142.857142857143,4,2,7,65,0,0
204998,-111.111111111111,4,2,7,65,0,0
205575,-95.2380952380952,4,2,7,65,0,0
210767,-117.647058823529,4,2,7,55,0,0
211056,-133.333333333333,4,2,7,45,0,0
220575,-95.2380952380952,4,2,7,65,0,1
229229,-95.2380952380952,4,2,7,65,0,0
229806,-86.9565217391304,4,2,7,65,0,1
234133,-86.9565217391304,4,2,7,51,0,1
234421,-86.9565217391304,4,2,7,65,0,1
247690,-117.647058823529,4,2,7,65,0,1
247979,-66.6666666666667,4,2,7,65,0,1
248267,-66.6666666666667,4,2,7,65,0,0

[Colours]
Combo1 : 115,94,236
Combo2 : 242,123,236
Combo3 : 84,71,245
Combo4 : 234,98,197

[HitObjects]
126,77,191,6,0,P|86:140|55:158,1,102.666666666667
48,228,479,2,0,L|79:342,1,102.666666666667,2|0,0:0|0:0,0:0:0:0:
152,352,767,2,0,P|207:337|266:352,1,102.666666666667
320,308,1056,2,0,L|440:286,1,102.666666666667,2|0,0:0|0:0,0:0:0:0:
352,224,1344,2,0,L|457:206,1,102.666666666667
512,252,1633,1,2,0:0:0:0:
324,152,1825,6,0,L|190:175,1,115.500004405976
152,224,2210,2,0,P|138:276|162:347,1,102.666666666667,2|0,0:0|0:0,0:0:0:0:
200,371,2498,5,0,0:0:0:0:
328,259,2690,1,0,0:0:0:0:
328,259,2787,1,2,0:0:0:0:
152,223,2979,1,0,0:0:0:0:
152,223,3075,1,0,0:0:0:0:
376,168,3267,1,0,0:0:0:0:
376,168,3364,1,2,0:0:0:0:
176,298,3556,1,0,0:0:0:0:
176,298,3652,5,2,0:0:0:0:
452,216,3844,1,0,0:0:0:0:
452,216,4133,1,0,0:0:0:0:
452,216,4229,2,0,L|503:198,2,51.3333333333333,2|0|0,0:0|0:0|0:0,0:0:0:0:
376,168,4517,2,0,L|434:143,2,51.3333333333333,2|0|0,0:0|0:0|0:0,0:0:0:0:
290,171,4806,6,0,P|245:138|223:80,1,102.666666666667
232,25,5094,2,0,L|109:9,1,102.666666666667,2|0,0:0|0:0,0:0:0:0:
58,3,5383,2,0,P|66:57|39:116,1,102.666666666667
29,170,5671,2,0,P|14:231|28:276,1,102.666666666667,2|0,0:0|0:0,0:0:0:0:
90,296,5960,2,0,L|195:284,1,102.666666666667
254,319,6248,1,2,0:0:0:0:
91,221,6440,6,0,L|207:208,1,115.500004405976
93,144,6825,2,0,L|200:133,1,102.666666666667,2|0,0:0|0:0,0:0:0:0:
267,127,7114,5,0,0:0:0:0:
456,187,7306,1,0,0:0:0:0:
456,187,7402,1,2,0:0:0:0:
205,208,7594,1,0,0:0:0:0:
205,208,7690,1,0,0:0:0:0:
485,106,7883,1,0,0:0:0:0:
485,106,7979,1,2,0:0:0:0:
280,200,8171,5,0,0:0:0:0:
280,200,8267,1,0,1:0:0:0:
512,34,8460,1,0,1:0:0:0:
512,34,8556,6,0,P|484:54|447:53,1,51.3333333333333,4|0,0:3|0:0,0:0:0:0:
400,32,8844,2,0,L|336:37,1,51.3333333333333,0|0,0:0|1:0,0:0:0:0:
279,40,9133,1,0,1:0:0:0:
276,57,9229,1,0,1:0:0:0:
275,74,9325,1,0,1:0:0:0:
272,92,9421,6,0,P|227:160|172:173,1,112.933336779785,12|0,0:1|0:0,0:0:0:0:
163,254,9710,2,0,P|115:176|121:144,1,112.933336779785,0|0,1:0|0:0,0:0:0:0:
169,81,9998,2,0,P|96:73|64:92,1,112.933336779785,8|0,0:1|0:0,0:0:0:0:
8,156,10287,1,0,1:0:0:0:
200,170,10479,1,0,0:0:0:0:
200,170,10575,6,0,L|324:148,1,112.933336779785,8|8,0:1|0:1,0:0:0:0:
396,132,10864,1,0,1:0:0:0:
169,81,11056,2,0,P|96:73|30:167,1,169.400005169678,8|0,0:1|0:0,0:0:0:0:
24,175,11440,1,0,1:0:0:0:
18,214,11537,1,0,0:0:0:0:
12,253,11633,1,0,0:0:0:0:
8,291,11729,6,0,L|123:255,1,112.933336779785,8|0,0:1|0:0,0:0:0:0:
232,221,12017,1,0,1:0:0:0:
3,328,12306,6,0,L|112:293,1,102.666666666667,8|0,0:1|0:0,0:0:0:0:
209,263,12594,1,0,1:0:0:0:
0,370,12883,6,0,L|88:342,1,92.3999971801759,8|0,0:1|0:0,0:0:0:0:
184,309,13171,1,0,1:0:0:0:
184,309,13364,2,0,L|250:186,1,138.599995770264,8|0,1:0|1:0,0:0:0:0:
285,121,13748,1,0,1:0:0:0:
285,121,13844,1,0,1:0:0:0:
285,121,13940,1,0,1:0:0:0:
284,121,14037,6,0,P|344:117|390:143,1,112.933336779785,12|0,0:1|0:0,0:0:0:0:
480,155,14325,2,0,P|465:200|382:228,1,112.933336779785,0|0,1:0|0:0,0:0:0:0:
324,205,14614,2,0,P|343:289|376:308,1,112.933336779785,8|0,0:1|0:0,0:0:0:0:
444,320,14902,1,0,1:0:0:0:
388,141,15094,1,0,0:0:0:0:
388,141,15190,6,0,L|368:24,1,112.933336779785,8|8,1:1|0:1,0:0:0:0:
304,0,15479,1,0,1:0:0:0:
324,205,15671,2,0,P|343:289|439:312,1,169.400005169678,8|0,0:1|0:0,0:0:0:0:
410,230,16056,1,0,1:0:0:0:
410,230,16152,1,0,0:0:0:0:
410,230,16248,1,0,0:0:0:0:
410,230,16344,6,0,L|386:110,1,112.933336779785,0|0,1:0|0:0,0:0:0:0:
345,53,16633,2,0,P|249:35|237:44,1,112.933336779785,0|0,1:0|0:0,0:0:0:0:
307,213,16921,2,0,L|285:95,1,112.933336779785,0|0,1:0|0:0,1:0:0:0:
447,68,17210,2,0,P|351:50|339:59,1,112.933336779785,0|0,1:0|0:0,0:0:0:0:
410,230,17498,6,0,L|386:110,1,112.933336779785,0|0,1:0|0:0,0:0:0:0:
447,68,17787,1,0,1:0:0:0:
243,38,17979,2,0,B|297:25|345:55|345:55|383:34|417:44,1,169.400005169678,0|0,1:0|0:0,0:0:0:0:
447,68,18364,1,0,1:0:0:0:
461,114,18460,1,4,0:3:0:0:
473,160,18556,1,4,0:3:0:0:
483,207,18652,6,0,P|472:278|439:302,1,102.666666666667,12|0,0:1|0:0,0:0:0:0:
381,301,18940,2,0,L|274:314,1,102.666666666667,2|0,0:0|0:0,0:0:0:0:
315,240,19229,2,0,L|157:257,1,154,2|0,0:0|0:0,0:0:0:0:
381,301,19806,6,0,L|255:315,1,115.500004405976,2|0,0:0|0:0,0:0:0:0:
436,360,20287,2,0,L|265:382,1,154.000005874634,2|0,0:0|0:0,0:0:0:0:
29,177,20960,6,0,P|40:106|73:82,1,102.666666666667,8|0,3:1|0:0,0:0:0:0:
131,83,21248,2,0,L|238:70,1,102.666666666667,2|0,0:0|0:0,0:0:0:0:
197,144,21537,2,0,L|355:127,1,154,2|0,0:0|0:0,0:0:0:0:
131,83,22114,6,0,L|235:71,1,102.666666666667,2|0,0:0|1:0,0:0:0:0:
270,12,22402,1,0,1:0:0:0:
114,156,22594,2,0,P|112:225|45:271,1,154,0|8,1:0|0:3,0:0:0:0:
0,218,22979,2,0,L|15:331,1,102.666666666667,4|0,0:3|0:0,0:0:0:0:
79,366,23267,6,0,L|160:339,1,77.000002937317,12|0,3:1|0:0,0:0:0:0:
165,266,23556,2,0,L|237:241,1,77.000002937317,2|0,0:0|0:0,0:0:0:0:
302,280,23844,2,0,L|387:249,1,77.000002937317,0|0,1:0|0:0,0:0:0:0:
426,198,24133,2,0,P|423:149|390:108,1,77.000002937317,2|0,0:0|0:0,0:0:0:0:
374,253,24421,6,0,P|363:318|381:353,1,77.000002937317,8|0,0:1|0:0,0:0:0:0:
418,382,24710,1,2,0:0:0:0:
427,198,24902,1,0,0:0:0:0:
427,198,24998,2,0,P|421:142|401:107,1,77.000002937317,0|0,1:0|0:0,0:0:0:0:
364,64,25287,1,2,0:0:0:0:
374,253,25479,1,0,0:0:0:0:
368,278,25575,1,8,0:1:0:0:
165,266,25767,5,0,0:0:0:0:
176,291,25863,1,2,0:0:0:0:
501,245,26056,1,0,0:0:0:0:
492,271,26152,2,0,P|445:289|396:282,1,77.000002937317,0|0,1:0|0:0,0:0:0:0:
333,234,26440,2,0,P|269:232|222:245,1,77.000002937317,2|0,0:0|0:0,0:0:0:0:
190,317,26729,6,0,P|245:322|286:308,1,77.000002937317,8|0,0:1|0:0,0:0:0:0:
338,298,27017,1,2,0:0:0:0:
190,317,27210,1,0,0:0:0:0:
190,317,27306,2,0,B|223:328|253:322|264:320|264:320|239:340|236:360,1,115.500004405976,0|2,1:0|1:0,0:0:0:0:
419,138,27883,6,0,P|367:118|346:83,1,77.000002937317,8|0,0:1|0:0,0:0:0:0:
325,34,28171,1,2,0:0:0:0:
235,200,28460,6,0,P|283:136|290:95,1,97.5333307289124,0|0,1:0|0:0,0:0:0:0:
325,34,28748,1,2,0:0:0:0:
460,228,28940,5,0,0:0:0:0:
460,228,29037,2,0,P|509:167|499:94,1,146.299996093369,8|2,0:1|0:0,0:0:0:0:
310,204,29517,1,0,0:0:0:0:
310,204,29614,2,0,L|340:306,1,97.5333307289124,0|0,1:0|0:0,0:0:0:0:
412,312,29902,2,0,L|385:214,1,97.5333307289124,2|0,0:0|0:0,0:0:0:0:
363,145,30190,6,0,P|286:128|260:144,1,97.5333307289124,8|0,0:1|0:0,0:0:0:0:
386,217,30479,2,0,P|425:188|439:140,1,97.5333307289124,2|0,0:0|0:0,0:0:0:0:
310,204,30767,2,0,L|343:311,1,97.5333307289124,0|0,1:0|0:0,0:0:0:0:
412,312,31056,1,2,0:0:0:0:
112,340,31248,1,0,0:0:0:0:
141,355,31344,6,0,P|209:351|233:319,1,77.000002937317,8|0,0:1|0:0,0:0:0:0:
286,337,31633,6,0,L|272:259,1,77.000002937317,2|0,0:0|0:0,0:0:0:0:
359,310,31921,2,0,L|340:214,1,87.2666683311463,2|0,1:2|0:0,0:0:0:0:
434,288,32210,2,0,L|412:180,1,97.5333307289124,2|0,0:0|0:0,0:0:0:0:
286,337,32498,6,0,L|272:259,1,77.000002937317,12|0,0:1|0:0,0:0:0:0:
202,213,32787,2,0,P|146:170|140:148,1,77.000002937317,2|0,0:0|0:0,0:0:0:0:
272,261,33075,2,0,P|262:329|246:346,1,77.000002937317,0|0,1:0|0:0,0:0:0:0:
278,174,33364,2,0,P|342:147|364:153,1,77.000002937317,2|0,0:0|0:0,0:0:0:0:
202,213,33652,6,0,P|137:239|115:233,1,77.000002937317,8|0,0:1|0:0,0:0:0:0:
63,210,33940,1,2,0:0:0:0:
335,225,34133,1,0,0:0:0:0:
335,225,34229,2,0,P|384:209|423:215,1,77.000002937317,0|0,1:0|0:0,0:0:0:0:
480,232,34517,1,2,0:0:0:0:
136,139,34710,5,0,0:0:0:0:
144,165,34806,1,8,0:1:0:0:
351,170,34998,1,0,0:0:0:0:
343,197,35094,1,2,0:0:0:0:
63,210,35287,1,0,0:0:0:0:
76,238,35383,2,0,P|129:249|166:228,1,77.000002937317,0|0,1:0|0:0,0:0:0:0:
192,318,35671,2,0,P|223:262|217:222,1,77.000002937317,2|0,0:0|0:0,0:0:0:0:
299,282,35960,6,0,P|291:218|262:189,1,77.000002937317,8|0,0:1|0:0,0:0:0:0:
226,161,36248,1,2,0:0:0:0:
118,351,36440,1,0,0:0:0:0:
118,351,36537,2,0,B|220:272,1,115.500004405976,0|2,1:0|1:2,0:0:0:0:
42,179,37114,6,0,P|81:136|88:89,1,77.000002937317,8|0,0:1|0:0,0:0:0:0:
108,25,37402,1,2,0:0:0:0:
250,231,37690,6,0,P|226:179|226:155,1,77.000002937317,0|0,1:0|0:0,0:0:0:0:
224,88,37979,1,2,0:0:0:0:
316,280,38171,5,0,0:0:0:0:
316,280,38267,2,0,P|368:272|420:284,1,77.000002937317,8|0,0:1|0:0,0:0:0:0:
244,304,38556,2,0,P|220:348|188:368,1,77.000002937317,2|0,0:0|0:0,0:0:0:0:
250,231,38844,2,0,P|222:171|222:155,1,77.000002937317,0|0,1:0|0:0,0:0:0:0:
224,88,39133,1,2,0:0:0:0:
424,112,39325,5,0,0:0:0:0:
424,112,39421,1,8,0:1:0:0:
152,272,39710,1,2,0:0:0:0:
412,192,39998,1,2,1:2:0:0:
144,172,40190,1,8,0:1:0:0:
152,192,40287,1,2,1:2:0:0:
456,328,40479,6,0,P|404:316|376:248,1,115.500004405976,2|0,1:2|0:0,0:0:0:0:
412,192,40864,6,0,L|312:168,1,87.2666683311463,2|0,1:2|0:0,0:0:0:0:
424,112,41152,2,0,L|308:84,1,97.5333307289124,2|0,1:2|0:0,0:0:0:0:
440,36,41440,2,0,L|316:8,1,107.799996710205,2|0,1:2|0:0,0:0:0:0:
228,20,41729,6,0,P|192:72|144:88,1,87.2666683311463,12|0,0:1|0:0,0:0:0:0:
88,80,42017,2,0,L|80:188,1,87.2666683311463,0|0,1:0|0:0,0:0:0:0:
4,208,42306,2,0,P|56:256|84:256,1,87.2666683311463,8|0,0:1|0:0,0:0:0:0:
140,248,42594,1,0,1:0:0:0:
288,372,42787,6,0,P|303:302|268:256,1,130.900002496719,8|0,0:1|0:0,0:0:0:0:
224,320,43171,1,0,1:0:0:0:
224,12,43364,2,0,P|208:81|244:128,1,130.900002496719,8|0,0:1|0:0,0:0:0:0:
288,64,43748,1,0,1:0:0:0:
136,320,44037,6,0,P|88:280|76:244,1,87.2666683311463,8|0,0:1|0:0,0:0:0:0:
152,236,44325,2,0,L|132:144,1,87.2666683311463,0|0,1:0|0:0,0:0:0:0:
212,164,44614,2,0,P|200:112|172:76,1,87.2666683311463,8|0,0:1|0:0,0:0:0:0:
120,28,44902,1,0,1:0:0:0:
151,235,45094,6,0,P|216:256|280:228,1,130.900002496719,8|8,0:1|0:1,0:0:0:0:
212,164,45479,1,0,1:0:0:0:
409,62,45671,2,0,P|344:41|280:69,1,130.900002496719,8|0,0:1|0:0,0:0:0:0:
348,133,46056,1,0,1:0:0:0:
428,312,46344,6,0,L|480:312,2,43.6333341655731,12|0|0,0:1|0:0|0:0,0:0:0:0:
416,240,46633,2,0,L|340:240,2,43.6333341655731,0|0|0,1:0|0:0|0:0,0:0:0:0:
328,168,46921,2,0,L|380:168,2,43.6333341655731,8|0|0,0:1|0:0|0:0,0:0:0:0:
328,96,47210,2,0,L|272:96,2,43.6333341655731,0|0|0,1:0|0:0|0:0,0:0:0:0:
188,100,47498,5,8,0:1:0:0:
172,132,47594,2,0,P|164:156|168:196,1,43.6333341655731
324,328,47787,1,0,1:2:0:0:
340,292,47883,2,0,P|348:268|348:236,1,43.6333341655731,0|8,0:0|0:1,0:0:0:0:
240,156,48075,5,8,0:1:0:0:
224,188,48171,2,0,P|216:212|220:252,1,43.6333341655731
268,284,48364,1,0,1:0:0:0:
284,248,48460,2,0,P|292:224|292:192,1,43.6333341655731
296,148,48652,6,0,P|324:96|368:68,1,87.2666683311463,0|0,1:0|0:0,0:0:0:0:
456,208,48940,2,0,L|368:144,1,87.2666683311463,0|0,1:0|0:0,0:0:0:0:
296,148,49229,2,0,P|324:96|368:68,1,87.2666683311463,0|0,1:0|0:0,0:0:0:0:
412,52,49517,1,0,1:0:0:0:
456,208,49710,2,0,B|384:156|384:156|364:196,1,130.900002496719,0|0,1:0|0:0,0:0:0:0:
352,232,50094,5,0,1:0:0:0:
340,264,50190,1,0,1:0:0:0:
328,296,50287,1,0,1:0:0:0:
284,264,50383,5,8,0:3:0:0:
288,288,50479,1,8,0:3:0:0:
292,312,50575,1,8,0:3:0:0:
244,312,50671,5,4,0:3:0:0:
252,324,50767,1,4,0:3:0:0:
260,336,50864,1,4,0:3:0:0:
268,348,50960,6,0,P|204:364|100:344,1,154,4|2,1:2|0:0,0:0:0:0:
68,184,51825,1,0,0:0:0:0:
24,118,52017,6,0,B|88:64|160:176|200:112,1,179.666666666667,4|2,1:2|0:0,0:0:0:0:
480,152,52979,1,0,1:0:0:0:
468,192,53075,1,0,1:0:0:0:
456,232,53171,1,0,1:0:0:0:
444,272,53267,6,0,P|376:288|288:268,1,154,4|2,1:0|0:0,0:0:0:0:
360,152,54133,1,0,0:0:0:0:
412,92,54325,6,0,P|368:76|320:84,1,77,4|0,1:0|0:0,0:0:0:0:
280,112,54710,2,0,P|212:112|188:104,1,71.8666644734701,0|0,1:0|0:0,0:0:0:0:
116,80,54998,6,0,L|136:184,1,87.2666683311463,0|0,1:0|0:0,0:0:0:0:
36,176,55287,2,0,L|60:272,1,87.2666683311463,0|0,1:0|0:0,0:0:0:0:
12,336,55575,6,0,P|76:348|116:332,1,87.2666683311463,12|0,0:1|0:0,0:0:0:0:
156,304,55864,1,0,1:0:0:0:
432,312,56056,1,0,0:0:0:0:
432,312,56152,2,0,P|384:320|340:308,1,87.2666683311463,8|0,0:1|0:0,0:0:0:0:
292,264,56440,1,0,1:0:0:0:
400,104,56633,6,0,B|384:156|384:156|388:196|388:196|376:248,1,130.900002496719,12|0,0:1|0:0,0:0:0:0:
346,311,57017,1,0,1:0:0:0:
488,240,57210,1,0,0:0:0:0:
491,254,57306,2,0,P|475:286|400:311,1,87.2666683311463,8|0,0:1|0:0,0:0:0:0:
346,311,57594,1,0,1:0:0:0:
176,272,57787,6,0,L|320:228,1,130.900002496719,8|0,0:1|0:0,0:0:0:0:
340,204,58171,5,0,1:0:0:0:
352,164,58267,1,0,0:0:0:0:
332,128,58364,1,0,0:0:0:0:
276,72,58460,5,0,1:0:0:0:
232,88,58556,1,0,0:0:0:0:
188,68,58652,1,0,0:0:0:0:
176,24,58748,1,2,0:0:0:0:
175,23,58940,6,0,P|186:86|155:141,1,130.900002496719,2|0,1:2|0:0,0:0:0:0:
176,24,59325,6,0,P|160:92|136:112,1,87.2666683311463,2|0,0:0|0:0,0:0:0:0:
176,24,59614,6,0,P|152:64|132:80,1,66.7333302785239,2|0,0:0|0:0,0:0:0:0:
176,24,59902,6,0,P|116:32|128:56,1,107.799996710205,6|0,1:1|0:0,0:0:0:0:
160,128,60190,6,0,P|152:184|92:224,1,107.799996710205,12|0,0:1|0:0,0:0:0:0:
44,252,60479,2,0,P|24:308|48:368,1,107.799996710205,0|0,1:0|0:0,0:0:0:0:
116,368,60767,2,0,P|168:384|236:352,1,107.799996710205,8|0,0:1|0:0,0:0:0:0:
280,332,61056,1,0,1:0:0:0:
224,160,61248,6,0,B|212:224|212:224|168:248|168:248|164:320,1,161.699995065308,8|0,0:1|0:0,0:0:0:0:
248,352,61633,1,0,1:0:0:0:
432,120,61825,1,0,0:0:0:0:
432,120,61921,2,0,P|404:156|396:216,1,107.799996710205,8|0,0:1|0:0,0:0:0:0:
428,284,62210,1,0,1:0:0:0:
432,120,62402,1,0,0:0:0:0:
432,120,62498,6,0,B|408:140|396:168|396:168|400:104|352:60,1,161.699995065308,8|0,0:1|1:0,0:0:0:0:
68,176,62979,1,0,0:0:0:0:
76,208,63075,1,8,0:1:0:0:
340,212,63267,1,8,0:1:0:0:
336,244,63364,1,0,1:0:0:0:
28,292,63556,6,0,P|88:308|168:228,1,161.699995065308,8|0,0:1|0:0,0:0:0:0:
152,172,63940,2,0,P|163:118|204:72,1,107.799996710205,0|0,1:0|0:0,0:0:0:0:
256,20,64229,2,0,L|364:24,1,97.5333307289124,8|0,0:1|0:0,0:0:0:0:
424,96,64517,2,0,L|316:92,1,87.2666683311463,0|0,1:0|0:0,0:0:0:0:
255,107,64806,6,0,P|252:161|222:205,1,107.799996710205,12|0,0:1|0:0,0:0:0:0:
152,172,65094,2,0,P|100:160|48:180,1,107.799996710205,0|0,1:0|0:0,0:0:0:0:
0,244,65383,2,0,L|32:352,1,107.799996710205,8|0,0:1|0:0,0:0:0:0:
0,384,65671,1,0,1:0:0:0:
152,172,65864,6,0,P|220:160|260:76,1,161.699995065308,8|8,0:1|0:1,0:0:0:0:
240,8,66248,2,0,L|356:0,1,107.799996710205,0|0,1:0|0:0,0:0:0:0:
424,20,66537,2,0,P|448:60|428:132,1,107.799996710205,8|0,0:1|0:0,0:0:0:0:
372,76,66825,1,0,1:0:0:0:
440,312,67017,5,0,0:0:0:0:
440,312,67114,2,0,P|384:304|336:244,1,107.799996710205,0|0,1:0|0:0,0:0:0:0:
272,316,67402,2,0,P|260:256|288:208,1,107.799996710205,0|0,1:0|0:0,0:0:0:0:
344,172,67690,1,0,1:0:0:0:
384,188,67787,1,8,0:3:0:0:
424,204,67883,1,4,0:3:0:0:
464,220,67979,1,8,0:1:0:0:
464,220,68171,6,0,P|496:168|488:108,1,115.500004405976,2|0,1:2|0:0,0:0:0:0:
472,92,68556,5,0,1:0:0:0:
452,76,68652,1,0,1:0:0:0:
432,60,68748,1,0,1:0:0:0:
424,28,68844,5,8,0:3:0:0:
384,44,68940,1,8,0:3:0:0:
352,60,69037,1,8,0:3:0:0:
360,88,69133,5,8,0:1:0:0:
312,76,69229,1,8,0:1:0:0:
264,64,69325,1,8,0:1:0:0:
216,52,69421,6,0,P|183:107|136:132,1,107.799996710205,4|0,3:1|0:0,0:0:0:0:
72,152,69710,2,0,P|68:216|96:264,1,107.799996710205,0|0,1:0|0:0,0:0:0:0:
148,304,69998,2,0,P|208:308|252:268,1,107.799996710205,8|0,0:1|0:0,0:0:0:0:
272,200,70287,1,0,1:0:0:0:
176,68,70479,6,0,B|184:124|184:124|168:156|168:156|180:232,1,161.699995065308,8|0,0:1|0:0,0:0:0:0:
244,280,70864,1,0,1:0:0:0:
456,320,71056,1,0,0:0:0:0:
456,320,71152,2,0,P|400:260|400:232,1,107.799996710205,8|0,0:1|0:0,0:0:0:0:
424,164,71440,2,0,P|436:104|412:56,1,107.799996710205,0|0,1:0|0:0,0:0:0:0:
344,32,71729,6,0,L|228:20,1,107.799996710205,8|0,0:1|0:0,0:0:0:0:
176,68,72017,1,0,1:2:0:0:
424,164,72210,1,0,0:0:0:0:
424,164,72306,2,0,P|436:104|416:60,1,107.799996710205,8|0,0:1|0:0,0:0:0:0:
344,32,72594,1,0,1:2:0:0:
188,144,72787,6,0,B|268:112|268:112|328:124|328:124|380:104,1,161.699995065308,8|0,0:1|0:0,0:0:0:0:
420,108,73171,2,0,L|484:96,2,53.8999983551026,2|2|2,1:2|0:0|0:0,0:0:0:0:
380,176,73460,6,0,P|376:204|400:252,1,77.000002937317,8|0,0:1|1:0,0:0:0:0:
440,256,73748,1,0,1:0:0:0:
420,288,73844,1,0,1:0:0:0:
404,320,73940,1,0,1:0:0:0:
388,352,74037,6,0,L|272:348,1,107.799996710205,12|0,0:1|0:0,0:0:0:0:
312,276,74325,2,0,L|192:272,1,107.799996710205,2|0,1:2|0:0,0:0:0:0:
160,340,74614,2,0,P|124:280|136:236,1,107.799996710205,8|8,0:1|0:1,0:0:0:0:
168,176,74902,1,0,1:0:0:0:
349,312,75094,6,0,B|300:312|300:312|244:272|244:272|176:272,1,161.699995065308,8|8,0:1|0:1,0:0:0:0:
130,246,75479,2,0,P|86:190|90:138,1,107.799996710205,0|0,1:0|0:0,0:0:0:0:
216,244,75767,2,0,P|189:310|142:332,1,107.799996710205,8|0,0:1|0:0,0:0:0:0:
168,176,76056,2,0,P|238:165|281:195,1,107.799996710205,0|0,1:3|0:3,0:3:0:0:
280,344,76344,6,0,L|316:220,1,107.799996710205,0|0,1:0|0:0,0:0:0:0:
185,347,76633,2,0,L|221:223,1,107.799996710205,0|0,1:0|0:0,0:0:0:0:
328,176,76921,1,0,1:0:0:0:
324,190,77017,1,0,1:0:0:0:
320,206,77114,1,0,1:0:0:0:
316,222,77210,1,8,0:1:0:0:
168,176,77402,6,0,B|236:152|272:184|272:184|320:152|356:184,1,161.699995065308,0|0,1:0|0:0,0:0:0:0:
404,172,77787,2,0,P|436:248|412:288,1,107.799996710205,8|0,0:1|0:0,0:0:0:0:
310,240,78075,2,0,P|280:180|296:140,1,107.799996710205,0|0,1:0|0:0,0:0:0:0:
224,112,78364,6,0,P|328:83|352:184,1,231.000008811951,8|4,1:3|1:0,0:0:0:0:
252,300,82979,5,0,1:0:0:0:
228,108,83267,1,4,1:0:0:0:
76,148,86921,5,0,0:0:0:0:
88,184,87017,1,2,0:0:0:0:
208,136,87210,1,0,0:0:0:0:
212,100,87306,1,2,0:0:0:0:
344,164,87498,1,0,0:0:0:0:
352,196,87594,1,2,0:0:0:0:
480,144,87787,1,2,0:0:0:0:
480,108,87883,1,4,0:1:0:0:
148,188,92210,5,0,1:1:0:0:
408,80,92498,2,0,L|464:92,2,38.5000014686585,2|0|2,0:0|0:0|0:0,0:0:0:0:
336,144,92787,2,0,L|360:184,2,38.5000014686585,2|0|2,0:0|0:0|0:0,0:0:0:0:
252,176,93075,2,0,L|264:224,2,38.5000014686585,2|0|2,0:0|0:0|0:0,0:0:0:0:
148,188,93364,2,0,L|148:240,2,38.5000014686585,2|0|2,0:0|0:0|0:0,0:0:0:0:
148,112,93652,6,0,P|160:64|180:36,1,77.000002937317,0|2,0:0|0:0,0:0:0:0:
232,0,93940,1,0,0:0:0:0:
148,188,94133,2,0,P|136:280|116:312,1,115.500004405976,2|0,0:0|0:0,0:0:0:0:
204,348,94517,2,0,L|308:356,1,77.000002937317,0|2,0:0|0:0,0:0:0:0:
408,332,94806,6,0,P|380:288|388:232,1,77.000002937317,2|0,0:0|0:0,0:0:0:0:
400,188,95094,1,2,0:0:0:0:
288,48,95287,1,0,0:0:0:0:
288,48,95383,2,0,P|304:96|296:140,1,77.000002937317,2|0,0:0|0:0,0:0:0:0:
112,360,95864,6,0,P|100:304|152:216,1,146.299996093369,2|0,0:2|0:0,0:0:0:0:
224,152,96248,2,0,L|44:176,1,146.299996093369,8|2,0:1|0:0,0:0:0:0:
78,171,96825,1,0,0:0:0:0:
78,171,96921,1,2,0:0:0:0:
78,171,97017,1,0,0:0:0:0:
92,216,97114,6,2,L|80:272,2,38.5000014686585
164,248,97402,2,2,L|152:304,2,38.5000014686585
236,280,97690,2,2,L|224:336,2,38.5000014686585
304,307,97979,2,2,L|292:363,3,38.5000014686585,2|2|0|2,0:0|0:0|0:0|0:0,0:0:0:0:
92,216,98556,6,0,L|316:312,1,231.000008811951,2|2,0:0|0:0,0:0:0:0:
304,306,99421,2,0,P|340:256|344:216,1,77.000002937317,12|0,0:1|0:0,0:0:0:0:
360,164,99710,2,2,L|344:80,1,77.000002937317,2|0,0:0|0:0,0:0:0:0:
288,36,99998,2,0,P|216:48|200:64,1,77.000002937317,0|0,1:0|0:0,0:0:0:0:
168,112,100287,2,0,P|128:132|76:132,1,77.000002937317,2|0,0:0|0:0,0:0:0:0:
56,200,100575,6,0,L|52:280,1,77.000002937317,8|0,0:1|0:0,0:0:0:0:
88,336,100864,1,2,0:0:0:0:
141,193,101056,1,0,0:0:0:0:
141,193,101152,2,0,P|125:157|81:129,1,77.000002937317,0|0,1:0|0:0,0:0:0:0:
56,200,101440,1,2,0:0:0:0:
168,292,101633,5,0,0:0:0:0:
160,320,101729,1,8,0:1:0:0:
288,264,101921,1,0,0:0:0:0:
280,232,102017,1,2,0:0:0:0:
428,264,102210,1,0,0:0:0:0:
416,296,102306,2,0,P|352:308|332:296,1,77.000002937317,0|0,1:0|0:0,0:0:0:0:
205,235,102594,2,0,P|265:227|293:239,1,77.000002937317,2|0,0:0|0:0,0:0:0:0:
160,320,102883,6,0,L|108:240,1,77.000002937317,8|0,0:1|0:0,0:0:0:0:
128,184,103171,1,2,0:0:0:0:
248,8,103364,1,0,0:0:0:0:
232,44,103460,2,0,P|289:60|360:28,1,115.500004405976,0|2,1:0|1:0,0:0:0:0:
203,178,104037,6,0,P|163:174|115:190,1,77.000002937317,8|0,0:1|0:0,0:0:0:0:
64,208,104325,1,2,0:0:0:0:
216,304,104614,6,0,P|172:332|108:336,1,97.5333307289124,0|0,1:0|0:0,0:0:0:0:
56,328,104902,1,2,0:0:0:0:
280,380,105094,5,0,0:0:0:0:
280,380,105190,2,0,P|328:336|332:296,1,97.5333307289124,8|0,0:1|0:0,0:0:0:0:
336,232,105479,2,0,L|320:136,1,97.5333307289124,2|0,0:0|0:0,0:0:0:0:
428,32,105767,2,0,P|416:72|456:132,1,97.5333307289124,0|0,1:0|0:0,0:0:0:0:
476,184,106056,2,0,L|460:284,1,97.5333307289124,2|0,0:0|0:0,0:0:0:0:
496,344,106344,5,8,0:1:0:0:
224,296,106537,1,0,0:0:0:0:
224,296,106633,2,0,L|112:316,1,97.5333307289124,2|0,0:0|0:0,0:0:0:0:
64,276,106921,2,0,P|44:208|56:164,1,97.5333307289124,0|0,1:0|0:0,0:0:0:0:
80,116,107210,1,2,0:0:0:0:
248,228,107402,6,0,L|104:208,1,115.500004405976,2|0,1:2|0:0,0:0:0:0:
136,136,107787,2,0,L|192:144,2,38.5000014686585,2|0|0,0:0|0:0|0:0,0:0:0:0:
176,180,108075,2,0,L|232:188,2,38.5000014686585,2|0|0,0:0|0:0|0:0,0:0:0:0:
208,224,108364,2,0,L|232:228,5,19.2500007343293,2|0|0|0|0|0,0:0|0:0|0:0|0:0|0:0|0:0,0:0:0:0:
248,228,108652,6,0,L|340:220,1,77.000002937317,12|0,0:1|0:0,0:0:0:0:
384,172,108940,2,0,P|400:104|384:72,1,77.000002937317,2|0,0:0|0:0,0:0:0:0:
328,24,109229,2,0,P|288:12|240:20,1,77.000002937317,0|0,1:0|0:0,0:0:0:0:
212,80,109517,2,0,L|116:92,1,77.000002937317,2|0,0:0|0:0,0:0:0:0:
12,144,109806,6,0,L|88:164,1,77.000002937317,8|0,0:1|0:0,0:0:0:0:
136,216,110094,1,2,0:0:0:0:
120,32,110287,1,0,0:0:0:0:
120,32,110383,2,0,L|132:128,1,77.000002937317,0|0,1:0|0:0,0:0:0:0:
86,163,110671,1,2,0:0:0:0:
296,112,110864,5,0,0:0:0:0:
288,144,110960,1,8,0:1:0:0:
240,360,111152,1,0,0:0:0:0:
228,324,111248,1,2,0:0:0:0:
184,136,111440,1,0,0:0:0:0:
176,176,111537,2,0,P|144:220|112:236,1,77.000002937317,0|0,1:0|0:0,0:0:0:0:
132,308,111825,2,0,P|72:280|56:252,1,77.000002937317,2|0,0:0|0:0,0:0:0:0:
4,304,112114,6,0,P|4:244|32:212,1,77.000002937317,8|0,0:1|0:0,0:0:0:0:
76,192,112402,1,2,0:0:0:0:
228,324,112594,1,0,0:0:0:0:
216,292,112690,2,0,B|164:292|164:292|136:276|136:276|80:276,1,115.500004405976,0|2,1:0|1:2,0:0:0:0:
368,212,113267,6,0,P|371:249|404:292,1,77.000002937317,8|0,0:1|0:3,0:3:0:0:
444,228,113556,1,2,0:0:0:0:
272,92,113844,2,0,P|303:70|323:20,1,77.000002937317,0|0,1:0|0:0,0:0:0:0:
247,18,114133,1,2,0:0:0:0:
184,244,114325,5,0,0:0:0:0:
156,264,114421,2,0,P|117:273|68:255,1,77.000002937317,8|0,0:1|0:0,0:0:0:0:
20,216,114710,1,2,0:0:0:0:
264,176,114902,1,0,0:3:0:0:
282,203,114998,2,0,P|290:241|271:290,1,77.000002937317,0|0,1:3|0:3,0:3:0:0:
233,338,115287,1,2,0:2:0:0:
228,120,115479,5,0,0:0:0:0:
244,148,115575,1,8,0:1:0:0:
496,112,115864,1,2,0:0:0:0:
180,260,116152,2,0,P|232:232|256:188,1,77.000002937317,0|0,1:0|0:0,0:0:0:0:
244,148,116440,1,2,0:0:0:0:
460,252,116633,2,0,P|448:304|496:356,1,115.500004405976,0|0,1:0|0:0,0:0:0:0:
412,320,117017,6,0,L|320:276,1,87.2666683311463,0|0,1:0|0:0,0:0:0:0:
380,208,117306,2,0,L|288:172,1,97.5333307289124,0|0,1:0|0:0,0:0:0:0:
352,96,117594,2,0,L|244:56,1,107.799996710205,0|0,1:0|0:0,0:0:0:0:
168,28,117883,6,4,P|112:64|76:52,1,87.2666683311463,12|0,0:1|0:0,0:0:0:0:
20,124,118171,2,0,P|12:168|32:228,1,87.2666683311463,0|0,1:0|0:0,0:0:0:0:
108,320,118460,2,0,P|128:264|108:208,1,87.2666683311463,8|0,0:1|0:0,0:0:0:0:
88,172,118748,1,0,1:0:0:0:
252,64,118940,6,0,P|200:140|244:192,1,130.900002496719,8|0,0:1|0:0,0:0:0:0:
284,136,119325,1,0,1:0:0:0:
228,360,119517,2,0,P|304:320|316:280,1,130.900002496719,8|0,0:1|0:0,0:0:0:0:
236,276,119902,1,0,1:0:0:0:
36,220,120190,6,0,P|96:236|132:216,1,87.2666683311463,8|0,0:1|0:0,0:0:0:0:
189,201,120479,2,0,L|241:284,1,87.2666683311463,0|0,1:0|0:0,0:0:0:0:
352,308,120767,2,0,P|351:250|371:214,1,87.2666683311463,8|0,0:1|0:0,0:0:0:0:
448,184,121056,1,0,1:0:0:0:
200,100,121248,6,0,P|264:60|268:8,1,130.900002496719,8|0,0:1|0:0,0:0:0:0:
200,28,121633,1,0,1:0:0:0:
36,220,121825,2,0,P|25:294|62:331,1,130.900002496719,8|0,0:1|0:0,0:0:0:0:
91,266,122210,1,0,1:0:0:0:
196,232,122498,6,0,L|188:296,2,43.6333341655731,12|0|2,0:1|0:0|0:0,0:0:0:0:
268,212,122787,2,0,L|276:260,2,43.6333341655731,0|0|2,1:0|0:0|0:0,0:0:0:0:
332,172,123075,2,0,L|352:216,2,43.6333341655731,8|0|2,0:1|0:0|0:0,0:0:0:0:
380,112,123364,2,0,L|432:152,2,43.6333341655731,0|0|2,1:0|0:0|0:0,0:0:0:0:
404,40,123652,5,8,0:1:0:0:
430,41,123748,2,0,P|455:53|473:70,1,43.6333341655731,0|2,0:0|0:0,0:0:0:0:
453,213,123940,1,0,1:0:0:0:
451,190,124037,2,0,P|463:168|475:154,1,43.6333341655731,2|10,0:0|0:1,0:0:0:0:
425,287,124229,1,2,0:0:0:0:
425,310,124325,2,0,P|413:338|385:365,1,43.6333341655731,0|10,0:0|0:1,0:0:0:0:
241,324,124517,1,0,1:0:0:0:
266,330,124614,2,0,P|286:334|309:329,1,43.6333341655731,2|0,0:0|0:0,0:0:0:0:
248,220,124806,6,0,P|208:168|144:160,1,102.666666666667,0|8,1:0|0:1,0:0:0:0:
72,288,125094,2,0,L|180:224,1,102.666666666667,0|8,1:0|0:1,0:0:0:0:
174,157,125383,1,0,1:0:0:0:
208,136,125479,2,0,P|236:80|220:32,1,102.666666666667,8|4,0:3|0:3,0:0:0:0:
12,236,125864,6,0,P|-4:288|52:368,1,154,4|0,1:0|0:0,0:0:0:0:
88,360,126248,5,0,1:0:0:0:
108,352,126344,1,0,1:0:0:0:
128,344,126440,1,0,1:0:0:0:
136,296,126537,1,8,1:3:0:0:
168,308,126633,1,8,1:3:0:0:
200,320,126729,1,8,1:3:0:0:
240,332,126825,2,0,P|308:340|352:296,1,102.666666666667,8|0,0:1|0:0,0:0:0:0:
424,352,127114,6,0,B|412:284|412:284|436:244|436:244|428:192,1,154,4|2,1:2|0:0,0:0:0:0:
224,48,127979,1,0,0:0:0:0:
304,32,128171,6,0,P|280:104|176:112,1,179.666666666667,4|2,1:2|0:0,0:0:0:0:
24,128,129133,1,0,1:0:0:0:
32,168,129229,1,8,0:3:0:0:
44,212,129325,1,4,0:3:0:0:
56,256,129421,6,0,P|136:248|196:296,1,154,12|2,1:1|0:0,0:0:0:0:
104,344,130287,1,0,0:0:0:0:
264,332,130479,6,0,P|312:336|340:320,1,77,4|0,1:0|0:0,0:0:0:0:
424,224,130864,2,0,P|380:228|352:248,1,71.8666644734701,0|0,1:0|0:0,0:0:0:0:
512,248,131152,6,0,L|472:156,1,87.2666683311463,0|0,1:0|0:0,0:0:0:0:
424,224,131440,2,0,L|384:128,1,87.2666683311463,0|0,1:0|0:0,0:0:0:0:
344,84,131729,6,0,P|300:100|248:72,1,87.2666683311463,12|0,0:1|0:1,0:1:0:0:
204,44,132017,2,0,P|144:32|104:56,1,87.2666683311463,0|0,1:0|0:0,0:0:0:0:
96,112,132306,2,0,L|112:208,1,87.2666683311463,8|0,0:1|0:0,0:0:0:0:
176,228,132594,1,0,1:0:0:0:
121,41,132787,6,0,P|64:44|20:112,1,130.900002496719,8|0,0:1|0:0,0:0:0:0:
20,172,133171,2,0,L|36:264,1,87.2666683311463,0|0,1:0|0:0,0:0:0:0:
56,328,133460,2,0,P|104:340|140:328,1,87.2666683311463,8|0,0:1|0:0,0:0:0:0:
188,276,133748,1,0,1:0:0:0:
440,264,133940,6,0,P|408:324|348:344,1,130.900002496719,8|0,0:1|0:0,0:0:0:0:
296,336,134325,5,0,1:0:0:0:
256,304,134421,1,8,0:3:0:0:
212,316,134517,1,4,0:3:0:0:
132,336,134614,1,8,0:1:0:0:
104,300,134710,1,4,1:3:0:0:
104,252,134806,1,0,1:0:0:0:
132,216,134902,1,0,1:0:0:0:
132,216,135094,6,0,L|12:160,1,130.900002496719,2|0,1:2|0:0,0:0:0:0:
132,216,135479,6,0,L|56:144,1,87.2666683311463,2|0,0:0|0:0,0:0:0:0:
132,216,135767,6,0,L|128:136,1,66.7333302785239,2|0,0:0|0:0,0:0:0:0:
132,216,136056,6,0,P|172:200|160:144,1,107.799996710205,2|0,1:1|0:0,0:0:0:0:
161,145,136344,6,0,L|276:160,1,107.799996710205,12|0,0:1|0:0,0:0:0:0:
340,140,136633,2,0,P|363:92|360:28,1,107.799996710205,2|0,1:2|0:0,0:0:0:0:
440,152,136921,2,0,P|416:228|432:272,1,107.799996710205,8|0,0:1|0:0,0:0:0:0:
480,304,137210,1,0,1:0:0:0:
244,348,137402,6,0,L|404:327,1,161.699995065308,8|8,0:1|0:1,0:0:0:0:
424,256,137787,1,0,1:0:0:0:
512,112,137979,1,0,0:0:0:0:
512,112,138075,2,0,P|500:192|468:232,1,107.799996710205,8|0,0:1|0:0,0:0:0:0:
424,256,138364,1,0,1:0:0:0:
126,203,138556,5,0,0:0:0:0:
126,203,138652,2,0,P|184:224|240:176,1,107.799996710205,8|0,0:1|0:0,0:0:0:0:
292,240,138940,2,0,L|324:354,1,107.799996710205,0|0,1:1|0:0,0:0:0:0:
376,240,139229,2,0,P|356:184|304:156,1,107.799996710205,8|8,0:1|0:1,0:0:0:0:
236,148,139517,1,0,1:1:0:0:
178,342,139710,6,0,B|242:298|242:298|254:258|254:258|302:234,1,161.699995065308,8|0,0:1|0:0,0:0:0:0:
376,240,140094,2,0,P|402:195|388:128,1,107.799996710205,0|0,1:0|0:0,0:0:0:0:
324,84,140383,2,0,L|228:56,1,97.5333307289124,0|0,1:0|0:0,0:0:0:0:
236,148,140671,2,0,L|336:176,1,87.2666683311463,0|0,1:0|0:0,0:0:0:0:
332,100,140960,6,0,P|316:48|336:0,1,107.799996710205,12|0,0:1|0:0,0:0:0:0:
416,128,141248,2,0,P|428:180|408:240,1,107.799996710205,0|0,1:0|0:0,0:0:0:0:
356,280,141537,2,0,L|248:296,1,107.799996710205,8|8,0:1|0:1,0:0:0:0:
200,240,141825,1,0,1:0:0:0:
456,340,142017,6,0,L|276:364,1,161.699995065308,8|0,0:1|0:0,0:0:0:0:
216,380,142402,2,0,P|152:360|116:304,1,107.799996710205,0|0,1:0|0:0,0:0:0:0:
132,252,142690,2,0,L|156:144,1,107.799996710205,8|0,0:1|0:0,0:0:0:0:
220,104,142979,1,0,1:0:0:0:
40,340,143171,5,0,0:0:0:0:
40,340,143267,2,0,P|16:304|32:240,1,107.799996710205,0|0,1:0|0:0,0:0:0:0:
88,196,143556,2,0,P|104:156|76:96,1,107.799996710205,0|0,1:0|0:0,0:0:0:0:
56,52,143844,1,0,1:0:0:0:
100,60,143940,1,0,1:0:0:0:
148,68,144037,1,0,1:0:0:0:
196,76,144133,1,8,0:1:0:0:
196,76,144325,6,0,P|256:72|304:32,1,115.500004405976,0|0,1:0|0:0,0:0:0:0:
336,40,144710,5,0,1:0:0:0:
348,52,144806,1,0,1:0:0:0:
360,64,144902,1,0,1:0:0:0:
404,56,144998,5,8,0:3:0:0:
404,76,145094,1,8,0:3:0:0:
404,96,145190,1,8,0:3:0:0:
440,104,145287,5,4,0:3:0:0:
428,136,145383,1,4,0:3:0:0:
416,168,145479,1,4,0:3:0:0:
404,196,145575,6,0,P|420:276|400:324,1,107.799996710205,12|0,0:1|0:0,0:0:0:0:
336,260,145864,2,0,P|288:300|236:296,1,107.799996710205,0|0,1:0|0:0,0:0:0:0:
260,216,146152,2,0,P|200:204|164:168,1,107.799996710205,8|0,0:1|0:0,0:0:0:0:
172,92,146440,1,0,1:0:0:0:
336,0,146633,6,0,B|292:48|292:48|296:84|296:84|252:128,1,161.699995065308,8|8,0:1|0:1,0:0:0:0:
216,192,147017,1,0,1:0:0:0:
68,336,147210,1,0,0:0:0:0:
68,336,147306,2,0,P|108:276|92:216,1,107.799996710205,8|0,0:1|0:0,0:0:0:0:
52,192,147594,2,0,L|40:72,1,107.799996710205,0|0,1:0|0:0,0:0:0:0:
80,20,147883,6,0,P|148:8|204:44,1,107.799996710205,8|0,0:1|0:0,0:0:0:0:
240,72,148171,1,0,1:0:0:0:
52,192,148364,1,0,0:0:0:0:
52,192,148460,2,0,L|40:72,1,107.799996710205,8|8,0:1|0:1,0:0:0:0:
80,20,148748,1,0,1:1:0:0:
23,260,148940,6,0,P|20:336|87:373,1,161.699995065308,8|0,0:1|0:0,0:0:0:0:
156,340,149325,2,0,L|216:352,2,53.8999983551026,2|0|2,1:2|0:0|0:0,0:0:0:0:
224,284,149614,1,8,0:1:0:0:
244,289,149710,1,0,1:0:0:0:
265,295,149806,1,0,1:0:0:0:
286,300,149902,1,0,1:0:0:0:
307,306,149998,1,0,1:0:0:0:
328,312,150094,1,0,1:0:0:0:
348,317,150190,6,0,P|416:300|436:256,1,107.799996710205,12|0,0:1|0:0,0:0:0:0:
360,144,150479,2,0,P|340:211|368:250,1,107.799996710205,0|0,1:0|0:0,0:0:0:0:
504,240,150767,2,0,P|455:189|407:194,1,107.799996710205,8|8,0:1|0:1,0:0:0:0:
357,240,151056,1,0,1:1:0:0:
436,24,151248,6,0,P|436:80|344:144,1,161.699995065308,8|0,0:1|0:0,0:0:0:0:
284,184,151633,2,0,P|232:184|188:148,1,107.799996710205,0|0,1:0|0:0,0:0:0:0:
100,128,151921,2,0,P|126:82|179:62,1,107.799996710205,0|8,1:0|0:1,0:0:0:0:
272,88,152210,1,0,1:0:0:0:
272,88,152498,6,0,L|228:240,1,107.799996710205,0|0,1:0|0:0,0:0:0:0:
180,144,152787,2,0,L|150:247,1,107.799996710205,0|0,1:0|0:0,0:0:0:0:
80,200,153075,1,0,1:0:0:0:
72,236,153171,1,0,1:0:0:0:
64,268,153267,1,0,1:0:0:0:
56,296,153364,1,0,0:0:0:0:
56,296,153556,6,0,P|124:348|208:324,1,161.699995065308,0|0,1:0|0:0,0:0:0:0:
224,264,153940,1,0,1:0:0:0:
232,288,154037,1,8,0:3:0:0:
240,308,154133,1,4,0:3:0:0:
248,332,154229,2,0,L|352:348,1,87.2666683311463,8|0,0:1|0:0,0:0:0:0:
440,372,154517,6,0,P|400:320|460:244,1,154.000005874634,4|0,1:2|0:0,0:0:0:0:
512,276,154806,6,0,P|508:208|472:180,1,107.799996710205,12|0,0:1|0:0,0:0:0:0:
408,168,155094,2,0,P|360:136|344:76,1,107.799996710205,0|0,1:0|0:0,0:0:0:0:
312,16,155383,2,0,P|252:-4|204:20,1,107.799996710205,8|8,0:1|0:1,0:0:0:0:
160,68,155671,1,0,1:0:0:0:
312,228,155864,6,0,B|304:156|304:156|268:128|268:128|264:64,1,161.699995065308,8|0,0:1|0:0,0:0:0:0:
312,20,156248,1,0,1:0:0:0:
156,168,156440,1,0,0:0:0:0:
156,168,156537,2,0,P|173:226|156:272,1,107.799996710205,8|0,0:1|0:0,0:0:0:0:
80,188,156825,2,0,P|64:120|96:72,1,107.799996710205,0|0,1:0|0:0,0:0:0:0:
160,68,157114,6,0,P|232:52|280:88,1,107.799996710205,8|0,0:1|0:0,0:0:0:0:
328,100,157402,2,0,P|392:116|440:88,1,107.799996710205,0|0,1:0|0:0,0:0:0:0:
488,52,157690,2,0,L|484:168,1,107.799996710205,8|0,0:1|0:0,0:0:0:0:
432,216,157979,1,0,1:0:0:0:
216,200,158171,6,0,L|392:164,1,161.699995065308,8|8,0:1|0:1,0:0:0:0:
432,216,158556,1,0,0:0:0:0:
500,360,158748,2,0,P|412:336|396:264,1,161.699995065308,8|0,0:1|1:0,0:0:0:0:
432,216,159133,1,0,1:0:0:0:
392,236,159229,1,0,1:0:0:0:
356,256,159325,1,0,1:0:0:0:
324,276,159421,6,0,L|204:264,1,107.799996710205,12|0,0:1|0:0,0:0:0:0:
164,320,159710,2,0,P|136:252|164:208,1,107.799996710205,0|0,1:0|0:0,0:0:0:0:
144,148,159998,2,0,P|132:96|84:64,1,107.799996710205,8|8,0:1|0:1,0:0:0:0:
12,48,160287,1,0,1:0:0:0:
36,288,160479,6,0,B|68:220|68:220|56:168|56:168|72:128|72:128,1,161.699995065308,8|0,0:1|0:0,0:0:0:0:
144,148,160864,1,0,1:0:0:0:
164,320,161056,1,0,0:0:0:0:
164,320,161152,2,0,L|216:180,1,107.799996710205,8|0,0:1|0:0,0:0:0:0:
300,196,161440,2,0,L|256:304,1,107.799996710205,0|0,1:0|0:0,0:0:0:0:
304,356,161729,6,0,L|368:352,1,53.8999983551026,8|0,1:1|0:0,0:0:0:0:
376,156,161921,2,0,L|396:104,1,53.8999983551026,0|0,1:0|1:0,0:0:0:0:
352,268,162114,2,0,L|404:224,1,53.8999983551026,0|0,1:0|0:0,0:0:0:0:
464,96,162306,2,0,P|424:44|376:36,1,107.799996710205,8|0,0:1|0:0,0:0:0:0:
312,48,162594,1,0,1:0:0:0:
352,268,162787,6,0,B|400:196|372:156|372:156|400:100,1,161.699995065308,8|0,0:1|0:0,0:0:0:0:
464,96,163171,2,0,P|424:44|376:36,1,107.799996710205,0|0,1:0|0:0,0:0:0:0:
340,40,163460,1,0,1:0:0:0:
312,48,163556,1,0,1:0:0:0:
284,56,163652,1,0,1:0:0:0:
256,40,163748,1,8,0:1:0:0:
248,48,163844,1,8,0:1:0:0:
240,56,163940,1,8,0:1:0:0:
232,64,164037,6,0,P|156:76|116:52,1,107.799996710205,12|0,0:1|0:0,0:0:0:0:
76,12,164325,2,0,P|56:88|100:128,1,107.799996710205,0|0,1:0|0:0,0:0:0:0:
116,168,164614,2,0,P|136:228|96:280,1,107.799996710205,8|0,0:1|0:0,0:0:0:0:
72,324,164902,1,0,1:0:0:0:
308,348,165094,6,0,L|104:328,1,161.699995065308,8|8,0:1|0:1,0:0:0:0:
72,324,165479,1,0,1:0:0:0:
116,168,165671,1,0,0:0:0:0:
116,168,165767,2,0,P|136:228|96:280,1,107.799996710205,8|0,0:1|0:0,0:0:0:0:
147,332,166056,2,0,L|256:344,1,107.799996710205,0|0,1:0|0:0,0:0:0:0:
424,352,166344,6,0,P|448:320|452:236,1,107.799996710205,8|0,0:1|0:0,0:0:0:0:
380,252,166633,2,0,P|368:184|396:140,1,107.799996710205,0|0,1:0|0:0,0:0:0:0:
472,100,166921,2,0,L|360:64,1,107.799996710205,8|0,0:1|0:0,0:0:0:0:
296,44,167210,1,0,1:0:0:0:
440,204,167402,2,0,L|272:148,1,161.699995065308,8|0,0:1|0:0,0:0:0:0:
256,116,167787,5,0,1:0:0:0:
240,148,167883,1,0,1:0:0:0:
228,176,167979,1,0,1:0:0:0:
184,156,168075,5,8,0:3:0:0:
180,180,168171,1,8,0:3:0:0:
176,200,168267,1,8,0:3:0:0:
152,224,168364,5,4,0:3:0:0:
168,236,168460,1,4,0:3:0:0:
184,248,168556,1,4,0:3:0:0:
208,260,168652,6,0,P|264:276|296:272,1,77,8|2,0:1|0:0,0:0:0:0:
400,200,169229,2,0,P|360:184|316:180,1,77,0|2,0:0|0:0,0:0:0:0:
412,312,169710,6,0,P|464:276|468:252,1,77,8|0,0:1|0:0,0:0:0:0:
476,196,170094,1,2,0:0:0:0:
444,84,170287,2,0,L|364:76,1,77,2|8,0:0|0:1,0:0:0:0:
328,20,170671,6,0,P|280:64|192:40,1,154.000005874634,4|0,0:0|0:0,0:0:0:0:
140,96,170960,5,0,1:0:0:0:
298,294,171152,1,0,1:0:0:0:
390,55,171344,1,0,1:0:0:0:
161,240,171537,1,0,1:0:0:0:
253,2,171729,1,0,1:0:0:0:
414,200,171921,1,0,1:0:0:0:
140,96,172114,6,4,P|124:143|28:184,2,161.699995065308,4|4|4,1:0|1:0|1:0,0:0:0:0:
414,200,173267,5,12,0:1:0:0:
420,244,173364,1,0,0:0:0:0:
412,288,173460,1,0,0:0:0:0:
388,324,173556,1,2,0:0:0:0:
356,352,173652,1,0,0:0:0:0:
312,360,173748,1,0,0:0:0:0:
268,360,173844,5,8,0:1:0:0:
228,340,173940,1,0,0:0:0:0:
204,304,174037,1,0,0:0:0:0:
192,264,174133,1,2,0:0:0:0:
192,220,174229,1,0,0:0:0:0:
212,180,174325,1,0,0:0:0:0:
248,144,174421,6,0,L|288:88,2,53.8999983551026,2|0|2,0:0|0:0|0:0,0:0:0:0:
288,204,174710,2,0,L|312:280,2,53.8999983551026,2|0|2,0:0|0:0|0:0,0:0:0:0:
320,144,174998,2,0,L|348:96,2,53.8999983551026,2|0|2,0:0|0:0|0:0,0:0:0:0:
356,200,175287,2,0,L|380:276,2,53.8999983551026,2|0|2,0:0|0:0|0:0,0:0:0:0:
376,160,175575,5,12,0:1:0:0:
400,124,175671,1,0,0:0:0:0:
396,80,175767,1,0,0:0:0:0:
372,44,175864,1,2,0:0:0:0:
332,32,175960,1,0,0:0:0:0:
288,36,176056,1,0,0:0:0:0:
252,60,176152,5,8,0:1:0:0:
244,100,176248,1,0,0:0:0:0:
248,144,176344,1,0,0:0:0:0:
228,180,176440,1,2,0:0:0:0:
188,192,176537,1,0,0:0:0:0:
148,176,176633,1,2,0:0:0:0:
120,144,176729,6,0,L|60:160,2,53.8999983551026,2|0|2,0:0|0:0|0:0,0:0:0:0:
104,208,177017,2,0,L|52:224,2,53.8999983551026,2|0|2,0:0|0:0|0:0,0:0:0:0:
96,272,177306,2,0,L|44:288,2,53.8999983551026,2|0|2,0:0|0:0|0:0,0:0:0:0:
88,332,177594,2,0,L|36:348,2,53.8999983551026,2|0|2,0:0|0:0|0:0,0:0:0:0:
132,332,177883,6,0,P|196:352|248:320,1,107.799996710205,6|0,2:1|0:0,0:0:0:0:
271,267,178171,2,0,P|323:251|387:279,1,107.799996710205,2|0,0:0|0:0,0:0:0:0:
464,332,178460,2,0,P|448:260|476:224,1,107.799996710205,2|0,0:0|0:0,0:0:0:0:
488,164,178748,2,0,P|507:115|482:70,1,107.799996710205,2|0,0:0|0:0,0:0:0:0:
436,12,179037,6,0,P|376:0|320:16,1,107.799996710205,2|0,0:0|0:0,0:0:0:0:
272,56,179325,1,2,0:0:0:0:
408,244,179517,2,0,B|416:180|416:180|384:132|384:132|388:76,1,161.699995065308,2|0,0:0|0:0,0:0:0:0:
436,12,179902,2,0,P|376:0|320:16,1,107.799996710205,2|2,0:0|0:0,0:0:0:0:
272,56,180190,6,0,L|144:88,1,107.799996710205,2|0,1:2|0:0,0:0:0:0:
260,132,180479,2,0,L|132:164,1,107.799996710205,2|0,1:2|0:0,0:0:0:0:
252,208,180767,1,2,1:2:0:0:
217,216,180863,1,0,1:0:0:0:
182,225,180959,1,8,0:3:0:0:
147,234,181055,1,8,0:3:0:0:
147,234,181248,6,0,P|148:316|76:356,1,161.699995065308,8|0,0:1|0:0,0:0:0:0:
8,336,181633,2,0,L|40:288,1,48.7666653644562,2|2,0:0|0:0,0:0:0:0:
56,264,181825,1,2,0:0:0:0:
80,224,181921,6,0,L|64:172,1,43.6333341655731,2|2,0:0|0:0,0:0:0:0:
56,152,182114,1,2,0:0:0:0:
48,116,182210,6,0,L|72:80,2,38.5000014686585,2|2|2,0:0|0:0|0:0,0:0:0:0:
100,48,182498,5,12,0:1:0:0:
144,48,182594,1,0,0:0:0:0:
184,60,182690,1,0,0:0:0:0:
224,80,182787,1,2,0:0:0:0:
252,112,182883,1,0,0:0:0:0:
264,152,182979,1,0,0:0:0:0:
248,192,183075,5,8,0:1:0:0:
280,164,183171,1,0,0:0:0:0:
320,152,183267,1,0,0:0:0:0:
364,152,183364,1,2,0:0:0:0:
404,168,183460,1,0,0:0:0:0:
432,200,183556,1,0,0:0:0:0:
444,252,183652,6,0,L|428:320,2,53.8999983551026,2|0|2,0:0|0:0|0:0,0:0:0:0:
376,272,183940,2,0,L|360:340,2,53.8999983551026,2|0|2,0:0|0:0|0:0,0:0:0:0:
316,292,184229,2,0,L|300:360,2,53.8999983551026,2|0|2,0:0|0:0|0:0,0:0:0:0:
256,304,184517,2,0,L|240:372,2,53.8999983551026,2|0|2,0:0|0:0|0:0,0:0:0:0:
216,288,184806,5,12,0:1:0:0:
180,264,184902,1,0,0:0:0:0:
164,224,184998,1,0,0:0:0:0:
168,180,185094,1,2,0:0:0:0:
196,148,185190,1,0,0:0:0:0:
240,136,185287,1,0,0:0:0:0:
280,148,185383,5,8,0:1:0:0:
320,164,185479,1,0,0:0:0:0:
364,160,185575,1,0,0:0:0:0:
400,140,185671,1,2,0:0:0:0:
428,108,185767,1,0,0:0:0:0:
428,64,185864,1,0,0:0:0:0:
404,28,185960,5,2,0:0:0:0:
398,31,186056,1,2,0:0:0:0:
392,35,186152,1,2,0:0:0:0:
386,38,186248,1,2,0:0:0:0:
381,42,186344,1,2,0:0:0:0:
375,45,186440,1,2,0:0:0:0:
368,52,186537,6,0,L|304:54,1,53.8999983551026,0|2,0:0|0:0,0:0:0:0:
240,88,186729,2,0,L|180:88,1,53.8999983551026,0|2,0:0|0:0,0:0:0:0:
76,156,186921,2,0,L|140:156,1,53.8999983551026
172,160,187114,5,12,0:1:0:0:
196,124,187210,1,0,0:0:0:0:
239,122,187306,1,0,0:0:0:0:
268,154,187402,1,2,0:0:0:0:
261,196,187498,1,0,0:0:0:0:
223,217,187594,1,0,0:0:0:0:
184,201,187690,2,0,L|120:200,2,53.8999983551026,2|2|0,0:0|0:0|0:0,0:0:0:0:
248,284,187979,2,0,L|194:284,2,53.8999983551026,2|0|0,0:0|0:0|0:0,0:0:0:0:
284,264,188267,5,12,0:1:0:0:
323,245,188363,1,0,0:0:0:0:
361,265,188459,1,0,0:0:0:0:
369,308,188555,1,2,0:0:0:0:
341,340,188651,1,0,0:0:0:0:
298,339,188747,1,0,0:0:0:0:
272,304,188844,2,0,L|240:352,2,53.8999983551026,2|2|0,0:0|0:0|0:0,0:0:0:0:
224,240,189133,2,0,L|184:296,2,53.8999983551026,2|0|0,0:0|0:0|0:0,0:0:0:0:
220,160,189421,6,0,P|192:112|208:60,1,107.799996710205,2|0,1:2|0:0,0:0:0:0:
299,178,189710,2,0,P|271:226|218:238,1,107.799996710205,2|0,1:2|0:0,0:0:0:0:
276,100,189998,2,0,P|331:99|368:139,1,107.799996710205,2|0,1:2|0:0,0:0:0:0:
384,208,190287,1,8,0:1:0:0:
256,192,190479,12,0,191440,0:0:0:0:
120,80,191729,6,0,P|128:160|92:196,1,107.799996710205,12|0,0:1|0:0,0:0:0:0:
60,232,192017,1,0,0:0:0:0:
352,340,192210,1,0,0:0:0:0:
352,340,192306,2,0,P|272:340|236:316,1,107.799996710205,0|0,1:0|1:0,1:0:0:0:
200,272,192594,1,8,0:1:0:0:
428,364,192787,2,0,P|428:312|328:264,1,161.699995065308,8|0,0:1|0:0,0:0:0:0:
352,340,193171,1,0,1:0:0:0:
440,80,193364,5,0,0:0:0:0:
408,104,193460,1,0,1:0:0:0:
376,132,193556,1,0,1:0:0:0:
344,160,193652,1,0,1:0:0:0:
304,148,193748,1,8,0:3:0:0:
312,176,193844,1,4,0:3:0:0:
320,200,193940,1,8,0:1:0:0:
328,228,194037,6,0,P|292:272|176:248,1,161.699995065308,12|0,0:1|0:0,0:0:0:0:
144,56,194517,1,0,0:0:0:0:
144,56,194614,2,0,P|152:120|116:176,1,107.799996710205,0|8,1:0|0:1,0:0:0:0:
72,200,194902,1,8,0:1:0:0:
112,0,195094,2,0,L|292:24,1,161.699995065308,8|0,0:1|0:0,0:0:0:0:
348,8,195479,1,0,1:0:0:0:
443,193,195671,5,0,1:0:0:0:
424,212,195767,1,0,1:0:0:0:
400,236,195864,1,0,1:0:0:0:
376,256,195960,1,0,0:0:0:0:
344,244,196056,1,0,1:0:0:0:
320,268,196153,1,0,1:0:0:0:
296,288,196249,1,0,1:0:0:0:
272,312,196344,6,0,P|220:328|160:304,1,107.799996710205,12|0,0:1|0:0,0:0:0:0:
112,256,196633,2,0,P|114:195|88:140,1,107.799996710205,0|0,1:0|0:0,0:0:0:0:
16,140,196921,2,0,P|68:76|128:88,1,107.799996710205,8|8,0:1|0:1,0:0:0:0:
168,72,197210,1,0,1:0:0:0:
184,304,197402,6,0,P|136:336|40:300,1,161.699995065308,8|0,0:1|0:0,0:0:0:0:
112,256,197787,1,0,1:0:0:0:
11,95,197979,1,0,0:0:0:0:
11,95,198075,2,0,P|51:171|115:187,1,107.799996710205,8|0,0:1|0:0,0:0:0:0:
112,256,198364,2,0,L|64:356,1,107.799996710205,0|0,1:0|0:0,0:0:0:0:
68,180,198652,6,0,P|124:168|180:212,1,107.799996710205,4|0,1:0|0:0,0:0:0:0:
192,352,198940,2,0,P|244:296|244:232,1,107.799996710205,0|0,1:0|0:0,0:0:0:0:
240,184,199229,2,0,P|212:116|228:72,1,107.799996710205,0|0,1:0|0:0,0:0:0:0:
264,24,199517,1,0,1:0:0:0:
464,144,199710,2,0,B|400:144|400:144|352:124|352:124|304:124,1,161.699995065308,0|0,1:0|0:0,0:0:0:0:
320,156,200094,5,0,1:0:0:0:
340,192,200190,1,0,1:0:0:0:
360,224,200287,1,0,1:0:0:0:
392,220,200383,5,8,0:3:0:0:
376,252,200479,1,8,0:3:0:0:
364,280,200575,1,8,0:3:0:0:
340,284,200671,5,4,0:3:0:0:
352,308,200767,1,4,0:3:0:0:
360,332,200864,1,4,0:3:0:0:
368,360,200960,6,0,P|308:380|220:356,1,154,12|2,0:1|0:0,0:0:0:0:
104,112,201825,1,0,0:0:0:0:
44,72,202017,2,0,P|56:144|36:232,1,154,12|0,0:1|1:0,0:0:0:0:
16,236,202690,5,0,1:0:0:0:
40,252,202787,1,0,1:0:0:0:
64,268,202883,1,0,1:0:0:0:
88,280,202979,1,8,0:3:0:0:
112,296,203075,1,4,0:3:0:0:
136,312,203171,1,4,0:3:0:0:
164,328,203267,6,8,P|160:240|200:188,1,154,12|2,0:1|0:0,0:1:0:0:
360,72,204133,1,0,0:0:0:0:
456,64,204325,6,0,P|436:128|420:148,1,77,4|0,1:1|0:0,0:0:0:0:
352,172,204710,2,0,P|324:212|316:248,1,71.8666644734701,2|0,1:2|0:0,0:0:0:0:
356,304,204998,2,0,L|248:296,1,92.3999971801759,0|0,1:0|0:0,0:0:0:0:
198,347,205287,2,0,L|94:339,1,92.3999971801759,0|0,1:0|0:0,0:0:0:0:
48,276,205575,6,0,P|72:196|56:144,1,107.799996710205,12|0,0:1|0:0,0:0:0:0:
8,128,205864,2,0,P|-4:72|16:28,1,107.799996710205,0|0,1:0|0:0,0:0:0:0:
92,0,206152,2,0,P|152:-8|204:4,1,107.799996710205,8|8,0:1|0:1,0:0:0:0:
264,36,206440,1,0,1:0:0:0:
128,240,206633,6,0,B|120:164|120:164|140:124|140:124|140:72,1,161.699995065308,8|0,0:1|0:0,0:0:0:0:
200,36,207017,1,0,1:0:0:0:
56,288,207210,1,0,0:0:0:0:
56,288,207306,2,0,P|128:328|160:320,1,107.799996710205,8|8,0:1|0:1,0:0:0:0:
212,280,207594,1,0,1:0:0:0:
480,328,207787,6,0,P|420:320|400:232,1,161.699995065308,4|0,1:0|0:0,0:0:0:0:
468,200,208171,2,0,P|412:156|344:176,1,107.799996710205,0|0,1:0|0:0,0:0:0:0:
328,208,208460,1,0,1:0:0:0:
312,192,208556,1,0,1:0:0:0:
300,176,208652,1,0,1:0:0:0:
288,160,208748,1,0,1:0:0:0:
380,280,208940,5,0,1:0:0:0:
380,280,209517,5,6,0:0:0:0:
120,320,210190,5,0,0:0:0:0:
64,140,210383,1,2,0:0:0:0:
92,152,210479,6,0,L|200:116,1,107.799996710205,2|0,0:0|0:0,0:0:0:0:
116,164,210767,2,0,L|212:128,1,87.2666683311463,2|0,0:0|0:0,0:0:0:0:
136,176,211056,2,0,L|220:144,1,77.000002937317,2|0,0:0|0:0,0:0:0:0:
164,188,211344,6,0,P|168:236|156:280,1,77.000002937317,2|0,0:0|0:0,0:0:0:0:
120,320,211633,2,0,P|176:336|208:316,1,77.000002937317,2|0,0:1|0:0,0:0:0:0:
340,352,211921,2,0,P|304:316|296:272,1,77.000002937317,2|0,0:0|0:0,0:0:0:0:
308,220,212210,1,2,0:1:0:0:
264,36,212402,6,0,P|264:104|240:168,1,115.500004405976,2|0,0:0|0:0,0:0:0:0:
192,200,212787,2,0,P|104:200|100:196,1,77.000002937317,2|0,0:1|0:0,0:0:0:0:
40,232,213075,2,0,P|48:172|72:144,1,77.000002937317,2|0,0:0|0:0,0:0:0:0:
148,140,213364,2,0,P|152:88|136:56,1,77.000002937317,2|0,0:1|0:0,0:0:0:0:
88,20,213652,5,2,0:0:0:0:
320,84,213844,1,0,0:0:0:0:
320,84,213940,1,2,0:1:0:0:
72,96,214133,1,0,0:0:0:0:
72,96,214229,2,0,P|68:144|100:196,1,77.000002937317,2|0,0:0|0:0,0:0:0:0:
136,216,214517,1,2,0:1:0:0:
136,376,214710,6,0,P|176:316|164:252,1,115.500004405976,2|0,0:0|0:0,0:0:0:0:
260,300,215094,2,0,L|340:320,1,77.000002937317,2|0,0:1|0:0,0:0:0:0:
296,232,215383,2,0,L|376:252,1,77.000002937317,2|0,0:0|0:0,0:0:0:0:
432,216,215671,1,2,0:1:0:0:
288,80,215864,5,2,0:1:0:0:
288,80,215960,2,0,P|260:124|260:172,1,77.000002937317,2|0,0:0|0:0,0:0:0:0:
368,56,216248,2,0,P|336:12|308:0,1,77.000002937317,2|0,0:1|0:0,0:0:0:0:
352,136,216537,2,0,P|412:124|448:64,1,115.500004405976,2|2,0:0|0:1,0:0:0:0:
160,128,217017,6,0,P|100:140|64:200,1,115.500004405976,2|0,0:0|0:0,0:0:0:0:
232,164,217402,2,0,P|236:104|220:72,1,77.000002937317,2|0,0:1|0:0,0:0:0:0:
148,208,217690,2,0,P|196:248|256:248,1,115.500004405976,2|2,0:0|0:1,0:0:0:0:
160,128,218267,6,0,P|100:140|64:200,1,115.500004405976,2|2,0:0|0:1,0:0:0:0:
232,164,218844,2,0,P|236:104|220:72,1,77.000002937317,2|0,0:0|0:0,0:0:0:0:
188,32,219133,1,2,0:1:0:0:
148,208,219325,6,0,P|196:248|256:248,1,115.500004405976,12|0,0:1|1:0,0:0:0:0:
276,244,219710,5,0,1:0:0:0:
296,236,219806,1,0,1:0:0:0:
316,228,219902,1,0,1:0:0:0:
344,248,219998,5,8,0:3:0:0:
352,216,220094,1,8,0:3:0:0:
360,184,220190,1,8,0:1:0:0:
400,200,220287,5,0,1:0:0:0:
392,156,220383,1,0,1:0:0:0:
384,112,220479,1,0,1:0:0:0:
376,68,220575,6,0,P|312:60|280:24,1,107.799996710205,12|0,0:1|0:0,0:0:0:0:
208,36,220864,2,0,L|96:68,1,107.799996710205,0|0,1:0|0:0,0:0:0:0:
52,120,221152,2,0,P|28:172|52:236,1,107.799996710205,8|8,0:1|0:1,0:0:0:0:
108,248,221440,1,0,1:0:0:0:
260,116,221633,6,0,B|192:132|192:132|160:164|160:164|80:180,1,161.699995065308,8|0,0:1|0:0,0:0:0:0:
108,248,222017,1,0,1:0:0:0:
332,152,222210,1,0,0:0:0:0:
332,152,222306,2,0,P|340:104|304:48,1,107.799996710205,8|0,0:1|0:0,0:0:0:0:
260,116,222594,2,0,P|260:188|292:224,1,107.799996710205,0|0,1:0|0:0,0:0:0:0:
352,236,222883,6,0,L|460:248,1,107.799996710205,8|0,0:1|0:0,0:0:0:0:
420,312,223171,2,0,L|292:312,1,107.799996710205,0|0,1:0|0:0,0:0:0:0:
232,352,223460,2,0,P|272:284|264:240,1,107.799996710205,8|8,0:1|0:1,0:0:0:0:
212,208,223748,1,0,1:0:0:0:
156,16,223940,6,0,P|124:88|160:164,1,161.699995065308,8|0,0:1|0:0,0:0:0:0:
212,208,224325,2,0,L|344:228,1,107.799996710205,0|8,1:0|0:1,0:0:0:0:
336,192,224614,5,0,1:0:0:0:
352,160,224710,1,0,1:0:0:0:
368,128,224806,1,0,1:0:0:0:
380,104,224902,1,0,1:0:0:0:
396,72,224998,1,0,1:0:0:0:
412,40,225094,1,0,1:0:0:0:
440,24,225190,6,0,P|376:44|320:32,1,107.799996710205,12|0,0:1|0:0,0:0:0:0:
260,12,225479,2,0,L|204:116,1,107.799996710205,0|0,1:0|0:0,0:0:0:0:
140,64,225767,2,0,P|88:52|36:72,1,107.799996710205,8|0,0:1|0:0,0:0:0:0:
12,136,226056,1,0,1:0:0:0:
148,276,226248,6,0,B|132:208|132:208|100:176|100:176|92:124,1,161.699995065308,8|0,0:1|0:0,0:0:0:0:
140,64,226633,1,0,1:0:0:0:
72,304,226825,1,0,0:0:0:0:
72,304,226921,2,0,P|128:352|160:352,1,107.799996710205,8|0,0:1|0:0,0:0:0:0:
236,344,227210,2,0,P|296:312|320:248,1,107.799996710205,0|0,1:0|0:0,0:0:0:0:
324,200,227498,6,0,L|432:176,1,107.799996710205,0|0,1:0|0:0,0:0:0:0:
348,120,227787,2,0,L|456:96,1,107.799996710205,0|0,1:0|0:1,0:0:0:0:
469,16,228075,1,0,1:0:0:0:
434,24,228171,1,0,1:0:0:0:
399,32,228267,1,0,1:0:0:0:
364,40,228363,1,0,0:0:0:0:
364,40,228556,6,0,P|288:84|216:56,1,161.699995065308,8|0,0:1|0:0,0:0:0:0:
200,48,228940,1,0,1:0:0:0:
185,41,229037,1,8,0:3:0:0:
169,33,229133,1,4,0:3:0:0:
164,72,229229,5,0,1:0:0:0:
148,112,229325,1,0,1:0:0:0:
132,152,229421,1,0,1:0:0:0:
116,192,229517,1,0,1:0:0:0:
100,232,229614,1,0,1:0:0:0:
84,272,229710,1,0,1:0:0:0:
68,316,229806,6,0,P|128:344|176:328,1,118.06666891861,12|0,0:1|0:0,0:0:0:0:
252,284,230094,2,0,L|372:316,1,118.06666891861,0|0,1:0|0:0,0:0:0:0:
432,264,230383,2,0,P|456:200|432:144,1,118.06666891861,8|0,0:1|0:0,0:0:0:0:
388,84,230671,1,8,1:0:0:0:
176,220,230864,6,0,B|264:204|264:204|316:212|316:212|400:196|400:196,1,177.100003377915,8|0,0:1|0:0,0:0:0:0:
440,155,231248,1,0,1:0:0:0:
192,88,231440,1,0,0:0:0:0:
204,104,231537,2,0,P|280:104|312:72,1,118.06666891861,8|0,0:1|0:0,0:0:0:0:
208,0,231825,2,0,P|148:8|108:52,1,118.06666891861,0|0,1:0|0:0,0:0:0:0:
48,112,232114,6,0,L|80:236,1,118.06666891861,8|0,0:1|0:0,0:0:0:0:
136,144,232402,2,0,L|168:268,1,118.06666891861,0|0,1:0|0:0,0:0:0:0:
88,312,232690,2,0,P|180:352|232:320,1,118.06666891861,8|8,0:1|0:1,0:0:0:0:
244,276,232979,1,0,1:3:0:0:
488,344,233171,5,8,0:1:0:0:
488,344,233267,2,0,P|440:292|436:248,1,118.06666891861,0|8,0:0|0:1,0:0:0:0:
480,168,233556,2,0,L|352:140,1,118.06666891861,2|0,1:1|0:0,0:0:0:0:
336,172,233844,1,0,1:0:0:0:
304,196,233940,1,0,1:0:0:0:
272,220,234037,1,8,0:3:0:0:
240,244,234133,1,8,0:3:0:0:
240,268,234229,1,8,0:3:0:0:
240,292,234325,1,4,0:3:0:0:
240,316,234421,6,0,P|160:328|120:316,1,118.06666891861,12|0,0:1|0:0,0:0:0:0:
60,256,234710,2,0,P|80:176|52:128,1,118.06666891861,0|0,1:0|0:0,0:0:0:0:
32,64,234998,2,0,P|96:72|152:48,1,118.06666891861,8|8,0:1|0:1,0:0:0:0:
220,8,235287,1,0,1:0:0:0:
448,128,235479,6,0,P|352:96|268:124,1,177.100003377915,8|8,0:1|0:1,0:0:0:0:
161,212,235864,2,0,P|241:232|277:216,1,118.06666891861,0|0,1:0|0:0,0:0:0:0:
356,196,236152,2,0,P|376:268|348:320,1,118.06666891861,8|0,0:1|0:0,0:0:0:0:
296,368,236440,1,0,1:0:0:0:
224,136,236633,5,0,0:0:0:0:
224,136,236729,2,0,L|100:148,1,118.06666891861,0|8,1:1|0:1,0:0:0:0:
204,208,237017,2,0,L|80:220,1,118.06666891861,0|8,1:0|0:1,0:0:0:0:
192,280,237306,1,0,1:0:0:0:
152,283,237402,1,0,1:0:0:0:
113,287,237498,1,0,1:0:0:0:
74,291,237594,1,0,1:0:0:0:
192,280,237787,6,0,P|288:320|360:264,1,177.100003377915,0|8,1:0|0:1,0:0:0:0:
368,216,238171,2,0,L|432:232,2,59.0333344593048,0|8|4,1:1|0:3|0:3,0:0:0:0:
360,180,238460,1,0,1:0:0:0:
352,144,238556,1,0,1:0:0:0:
344,108,238652,1,8,0:1:0:0:
320,120,238748,1,0,1:1:0:0:
288,140,238844,1,0,1:1:0:0:
252,160,238940,1,0,1:1:0:0:
216,180,239037,6,0,P|228:232|204:308,1,118.06666891861,12|0,0:1|0:0,0:0:0:0:
136,340,239325,2,0,P|76:316|40:256,1,118.06666891861,0|0,1:0|0:0,0:0:0:0:
66,191,239614,2,0,P|86:119|54:71,1,118.06666891861,8|8,0:1|0:1,0:0:0:0:
21,16,239902,1,0,1:0:0:0:
144,216,240094,6,0,P|208:256|308:216,1,177.100003377915,8|8,0:1|0:1,0:0:0:0:
372,172,240479,1,0,1:0:0:0:
232,32,240671,1,0,0:0:0:0:
232,32,240767,2,0,P|208:100|248:180,1,118.06666891861,8|0,0:1|0:0,0:0:0:0:
272,264,241056,2,0,P|296:196|256:116,1,118.06666891861,0|0,1:0|0:0,0:0:0:0:
180,280,241344,6,0,P|216:336|312:336,1,118.06666891861,8|0,0:1|0:0,0:0:0:0:
344,312,241632,1,0,1:0:0:0:
408,124,241825,1,0,0:0:0:0:
408,124,241921,2,0,L|392:252,1,118.06666891861,8|8,0:1|0:1,0:0:0:0:
344,312,242210,1,0,1:0:0:0:
484,128,242402,6,0,P|448:56|352:72,1,177.100003377915,0|0,1:0|1:0,1:0:0:0:
300,128,242787,2,0,L|228:112,2,59.0333344593048,0|0|0,1:0|0:0|1:0,0:0:0:0:
336,208,243075,1,8,0:1:0:0:
301,199,243171,1,0,1:0:0:0:
267,191,243267,1,0,1:0:0:0:
232,182,243363,1,0,1:0:0:0:
198,174,243459,1,0,1:0:0:0:
163,165,243555,1,0,1:0:0:0:
128,156,243652,6,0,P|128:216|88:264,1,118.06666891861,12|0,0:1|0:0,0:0:0:0:
24,312,243940,2,0,P|100:344|152:316,1,118.06666891861,0|0,1:0|0:0,0:0:0:0:
220,332,244229,2,0,L|360:348,1,118.06666891861,8|0,0:1|0:0,0:0:0:0:
408,384,244517,1,0,1:0:0:0:
408,128,244710,6,0,P|384:228|432:272,1,177.100003377915,8|8,0:1|0:1,0:0:0:0:
468,192,245094,1,0,1:0:0:0:
160,80,245383,5,0,1:0:0:0:
188,72,245479,1,0,1:0:0:0:
220,64,245575,1,8,0:1:0:0:
208,160,245671,5,0,1:0:0:0:
164,152,245767,1,8,0:3:0:0:
120,144,245864,1,4,0:3:0:0:
184,228,245960,6,0,L|312:192,1,118.06666891861,4|8,1:0|1:1,1:0:0:0:
228,296,246248,2,0,L|72:268,1,118.06666891861,4|8,1:0|1:1,0:0:0:0:
52,208,246537,5,4,1:0:0:0:
56,252,246633,1,0,1:0:0:0:
60,296,246729,1,0,1:0:0:0:
64,344,246825,1,0,1:0:0:0:
64,344,247017,6,0,P|140:380|236:336,1,177.100003377915,4|8,1:1|0:1,0:0:0:0:
300,268,247402,1,0,1:0:0:0:
308,296,247498,1,8,0:3:0:0:
316,324,247594,1,4,0:3:0:0:
324,352,247690,2,0,P|380:332|416:308,1,87.2666683311463,0|0,1:0|0:0,0:0:0:0:
456,376,247979,6,0,P|480:292|356:256,1,231.000008811951,4|0,1:1|1:0,0:0:0:0:
