osu file format v14

[General]
AudioFilename: eclipse parade.mp3
AudioLeadIn: 0
PreviewTime: 60190
Countdown: 0
SampleSet: Normal
StackLeniency: 0.7
Mode: 0
LetterboxInBreaks: 0
WidescreenStoryboard: 1

[Editor]
DistanceSpacing: 0.7
BeatDivisor: 3
GridSize: 4
TimelineZoom: 2.999999

[Metadata]
Title:Eclipse Parade
TitleUnicode:Eclipse Parade
Artist:Hatsuki Yura
ArtistUnicode:葉月ゆら
Creator:Vert
Version:FreeSongs' Parade
Source:
Tags:Newspaper Cup gxytcgxytc Mei Tsukuyomi baldrace Lyric FreeSongs Zero__wind drop 清風明月 seifuu meigetsu
BeatmapID:952010
BeatmapSetID:430339

[Difficulty]
HPDrainRate:6
CircleSize:4
OverallDifficulty:8.6
ApproachRate:9.5
SliderMultiplier:2
SliderTickRate:1

[Events]
//Background and Video events
0,0,"FS.jpg",0,0
//Break Periods
2,78652,96589
//Storyboard Layer 0 (Background)
//Storyboard Layer 1 (Fail)
//Storyboard Layer 2 (Pass)
//Storyboard Layer 3 (Foreground)
//Storyboard Sound Samples

[TimingPoints]
191,288.461538461538,4,2,11,30,1,0
191,-200,4,2,11,30,0,0
767,-133.333333333333,4,2,11,30,0,0
1056,-200,4,2,11,30,0,0
1921,-133.333333333333,4,2,11,30,0,0
2210,-200,4,2,11,30,0,0
3075,-133.333333333333,4,2,11,30,0,0
3364,-200,4,2,11,30,0,0
4229,-133.333333333333,4,2,11,30,0,0
4517,-200,4,2,11,30,0,0
5383,-133.333333333333,4,2,11,30,0,0
5671,-200,4,2,11,30,0,0
6537,-133.333333333333,4,2,11,30,0,0
6825,-200,4,2,11,30,0,0
7690,-133.333333333333,4,2,11,30,0,0
7979,-200,4,2,11,30,0,0
8267,-133.333333333333,4,1,12,50,0,0
9710,-100,4,1,12,50,0,0
9998,-133.333333333333,4,1,12,50,0,0
10287,-100,4,1,12,50,0,0
10575,-133.333333333333,4,1,12,50,0,0
12017,-100,4,1,12,50,0,0
12306,-133.333333333333,4,1,12,50,0,0
12594,-100,4,1,12,50,0,0
12883,-133.333333333333,4,1,12,50,0,0
13171,-100,4,1,12,50,0,0
13460,-133.333333333333,4,1,12,50,0,0
13748,-100,4,1,12,50,0,0
14037,-133.333333333333,4,1,12,50,0,0
14325,-100,4,1,12,50,0,0
14614,-133.333333333333,4,1,12,50,0,0
14902,-100,4,1,12,50,0,0
15190,-133.333333333333,4,1,12,50,0,0
15671,-117.647058823529,4,1,12,50,0,0
16056,-100,4,1,12,50,0,0
18652,-133.333333333333,4,1,13,40,0,0
22114,-142.857142857143,4,1,12,50,0,0
22594,-111.111111111111,4,1,12,50,0,0
23267,-166.666666666667,4,1,13,50,0,0
23844,-111.111111111111,4,1,13,50,0,0
24421,-166.666666666667,4,1,13,50,0,0
24998,-111.111111111111,4,1,13,50,0,0
25575,-166.666666666667,4,1,13,50,0,0
26152,-111.111111111111,4,1,13,50,0,0
26729,-166.666666666667,4,1,13,50,0,0
27306,-111.111111111111,4,1,13,50,0,0
27883,-166.666666666667,4,1,13,50,0,0
28460,-111.111111111111,4,1,13,50,0,0
28748,-166.666666666667,4,1,13,50,0,0
29614,-111.111111111111,4,1,13,50,0,0
29902,-166.666666666667,4,1,13,50,0,0
30767,-111.111111111111,4,1,13,50,0,0
31344,-133.333333333333,4,1,13,50,0,0
31921,-100,4,1,13,50,0,0
32210,-133.333333333333,4,1,13,50,0,0
32498,-166.666666666667,4,1,13,50,0,0
33075,-111.111111111111,4,1,13,50,0,0
33652,-166.666666666667,4,1,13,50,0,0
34229,-111.111111111111,4,1,13,50,0,0
34806,-166.666666666667,4,1,13,50,0,0
35383,-111.111111111111,4,1,13,50,0,0
35671,-166.666666666667,4,1,13,50,0,0
36537,-111.111111111111,4,1,13,50,0,0
37114,-166.666666666667,4,1,13,50,0,0
37690,-111.111111111111,4,1,13,50,0,0
38267,-166.666666666667,4,1,13,50,0,0
38844,-111.111111111111,4,1,13,50,0,0
39421,-166.666666666667,4,1,13,50,0,0
39998,-111.111111111111,4,1,13,50,0,0
40479,-111.111111111111,4,1,12,50,0,0
42017,-90.9090909090909,4,1,12,50,0,0
42306,-111.111111111111,4,1,12,50,0,0
42594,-90.9090909090909,4,1,12,50,0,0
42787,-111.111111111111,4,1,12,50,0,0
43171,-90.9090909090909,4,1,12,50,0,0
43364,-111.111111111111,4,1,12,50,0,0
43652,-90.9090909090909,4,1,12,50,0,0
44037,-111.111111111111,4,1,12,50,0,0
44325,-90.9090909090909,4,1,12,50,0,0
44614,-111.111111111111,4,1,12,50,0,0
44902,-90.9090909090909,4,1,12,50,0,0
45094,-111.111111111111,4,1,12,50,0,0
45479,-90.9090909090909,4,1,12,50,0,0
45671,-111.111111111111,4,1,12,50,0,0
46056,-90.9090909090909,4,1,12,50,0,0
46344,-111.111111111111,4,1,12,50,0,0
48652,-90.9090909090909,4,1,12,50,0,0
49517,-76.9230769230769,4,1,12,50,0,0
49710,-90.9090909090909,4,1,12,50,0,0
54998,-125,4,1,12,50,0,0
55287,-90.9090909090909,4,1,12,50,0,0
55575,-111.111111111111,4,1,12,50,0,0
55864,-90.9090909090909,4,1,12,50,0,0
56152,-111.111111111111,4,1,12,50,0,0
56440,-90.9090909090909,4,1,12,50,0,0
56633,-111.111111111111,4,1,12,50,0,0
57017,-90.9090909090909,4,1,12,50,0,0
57306,-111.111111111111,4,1,12,50,0,0
57594,-90.9090909090909,4,1,12,50,0,0
60190,-111.111111111111,4,1,12,60,0,1
60479,-83.3333333333333,4,1,12,60,0,1
60767,-111.111111111111,4,1,12,60,0,1
61633,-83.3333333333333,4,1,12,60,0,1
61921,-111.111111111111,4,1,12,60,0,1
62210,-83.3333333333333,4,1,12,60,0,1
63075,-95.2380952380952,4,1,12,60,0,1
63364,-83.3333333333333,4,1,12,60,0,1
63556,-111.111111111111,4,1,12,60,0,1
63940,-83.3333333333333,4,1,12,60,0,1
64229,-111.111111111111,4,1,12,60,0,1
64517,-83.3333333333333,4,1,12,60,0,1
65383,-111.111111111111,4,1,12,60,0,1
65671,-83.3333333333333,4,1,12,60,0,1
65864,-111.111111111111,4,1,12,60,0,1
66248,-83.3333333333333,4,1,12,60,0,1
66537,-111.111111111111,4,1,12,60,0,1
66825,-83.3333333333333,4,1,12,60,0,1
67114,-76.9230769230769,4,1,12,60,0,1
69421,-111.111111111111,4,1,12,60,0,1
69710,-83.3333333333333,4,1,12,60,0,1
69998,-111.111111111111,4,1,12,60,0,1
70287,-83.3333333333333,4,1,12,60,0,1
70479,-111.111111111111,4,1,12,60,0,1
70864,-83.3333333333333,4,1,12,60,0,1
71152,-111.111111111111,4,1,12,60,0,1
71440,-83.3333333333333,4,1,12,60,0,1
72306,-95.2380952380952,4,1,12,60,0,1
72594,-83.3333333333333,4,1,12,60,0,1
72787,-111.111111111111,4,1,12,60,0,1
73171,-83.3333333333333,4,1,12,60,0,1
73460,-111.111111111111,4,1,12,60,0,1
73748,-83.3333333333333,4,1,12,60,0,1
74037,-111.111111111111,4,1,12,60,0,1
74325,-83.3333333333333,4,1,12,60,0,1
74614,-111.111111111111,4,1,12,60,0,1
74902,-83.3333333333333,4,1,12,60,0,1
75094,-111.111111111111,4,1,12,60,0,1
75479,-83.3333333333333,4,1,12,60,0,1
75767,-111.111111111111,4,1,12,60,0,1
76056,-83.3333333333333,4,1,12,60,0,1
76344,-76.9230769230769,4,1,12,60,0,1
78652,-166.666666666667,4,1,12,50,0,0
99421,-166.666666666667,4,1,13,50,0,0
108364,-133.333333333333,4,1,12,50,0,0
108652,-166.666666666667,4,1,13,50,0,0
109229,-111.111111111111,4,1,13,50,0,0
109517,-166.666666666667,4,1,13,50,0,0
110383,-111.111111111111,4,1,13,50,0,0
110671,-166.666666666667,4,1,13,50,0,0
111537,-111.111111111111,4,1,13,50,0,0
111825,-166.666666666667,4,1,13,50,0,0
112690,-111.111111111111,4,1,13,50,0,0
112979,-166.666666666667,4,1,13,50,0,0
113844,-111.111111111111,4,1,13,50,0,0
114133,-166.666666666667,4,1,13,50,0,0
114998,-111.111111111111,4,1,13,50,0,0
115287,-166.666666666667,4,1,13,50,0,0
116152,-111.111111111111,4,1,13,50,0,0
116633,-111.111111111111,4,1,12,50,0,0
118171,-90.9090909090909,4,1,12,50,0,0
118460,-111.111111111111,4,1,12,50,0,0
118748,-90.9090909090909,4,1,12,50,0,0
118940,-111.111111111111,4,1,12,50,0,0
119325,-90.9090909090909,4,1,12,50,0,0
119517,-111.111111111111,4,1,12,50,0,0
119806,-90.9090909090909,4,1,12,50,0,0
120190,-111.111111111111,4,1,12,50,0,0
120479,-90.9090909090909,4,1,12,50,0,0
120767,-111.111111111111,4,1,12,50,0,0
121056,-90.9090909090909,4,1,12,50,0,0
121248,-111.111111111111,4,1,12,50,0,0
121633,-90.9090909090909,4,1,12,50,0,0
121825,-111.111111111111,4,1,12,50,0,0
122210,-90.9090909090909,4,1,12,50,0,0
122498,-111.111111111111,4,1,12,50,0,0
124806,-90.9090909090909,4,1,12,50,0,0
125671,-76.9230769230769,4,1,12,50,0,0
125864,-90.9090909090909,4,1,12,50,0,0
127114,-125,4,1,12,50,0,0
131440,-90.9090909090909,4,1,12,50,0,0
131729,-111.111111111111,4,1,12,50,0,0
132017,-90.9090909090909,4,1,12,50,0,0
132306,-111.111111111111,4,1,12,50,0,0
132594,-90.9090909090909,4,1,12,50,0,0
132787,-111.111111111111,4,1,12,50,0,0
133171,-90.9090909090909,4,1,12,50,0,0
133460,-111.111111111111,4,1,12,50,0,0
133748,-90.9090909090909,4,1,12,50,0,0
136344,-111.111111111111,4,1,12,60,0,1
136633,-83.3333333333333,4,1,12,60,0,1
136921,-111.111111111111,4,1,12,60,0,1
137210,-83.3333333333333,4,1,12,60,0,1
137402,-111.111111111111,4,1,12,60,0,1
137787,-83.3333333333333,4,1,12,60,0,1
138075,-111.111111111111,4,1,12,60,0,1
138364,-83.3333333333333,4,1,12,60,0,1
138652,-111.111111111111,4,1,12,60,0,1
138940,-83.3333333333333,4,1,12,60,0,1
139229,-95.2380952380952,4,1,12,60,0,1
139517,-83.3333333333333,4,1,12,60,0,1
139710,-111.111111111111,4,1,12,60,0,1
140094,-83.3333333333333,4,1,12,60,0,1
140383,-111.111111111111,4,1,12,60,0,1
140671,-83.3333333333333,4,1,12,60,0,1
140960,-111.111111111111,4,1,12,60,0,1
141248,-83.3333333333333,4,1,12,60,0,1
141537,-111.111111111111,4,1,12,60,0,1
141825,-83.3333333333333,4,1,12,60,0,1
142017,-111.111111111111,4,1,12,60,0,1
142402,-83.3333333333333,4,1,12,60,0,1
142690,-111.111111111111,4,1,12,60,0,1
142979,-83.3333333333333,4,1,12,60,0,1
143267,-76.9230769230769,4,1,12,60,0,1
145575,-111.111111111111,4,1,12,60,0,1
145864,-83.3333333333333,4,1,12,60,0,1
146152,-111.111111111111,4,1,12,60,0,1
146440,-83.3333333333333,4,1,12,60,0,1
146633,-111.111111111111,4,1,12,60,0,1
147017,-83.3333333333333,4,1,12,60,0,1
147306,-111.111111111111,4,1,12,60,0,1
147594,-83.3333333333333,4,1,12,60,0,1
147883,-111.111111111111,4,1,12,60,0,1
148171,-83.3333333333333,4,1,12,60,0,1
148460,-111.111111111111,4,1,12,60,0,1
148748,-83.3333333333333,4,1,12,60,0,1
148940,-111.111111111111,4,1,12,60,0,1
150479,-83.3333333333333,4,1,12,60,0,1
150767,-111.111111111111,4,1,12,60,0,1
151056,-83.3333333333333,4,1,12,60,0,1
151248,-111.111111111111,4,1,12,60,0,1
151633,-83.3333333333333,4,1,12,60,0,1
151921,-111.111111111111,4,1,12,60,0,1
152210,-83.3333333333333,4,1,12,60,0,1
152498,-76.9230769230769,4,1,12,60,0,1
153556,-111.111111111111,4,1,12,60,0,1
153940,-83.3333333333333,4,1,12,60,0,1
154229,-111.111111111111,4,1,12,60,0,1
154517,-83.3333333333333,4,1,12,50,0,0
154806,-95.2380952380952,4,1,12,60,0,1
155864,-133.333333333333,4,1,12,60,0,1
156248,-95.2380952380952,4,1,12,60,0,1
157114,-111.111111111111,4,1,12,60,0,1
157402,-83.3333333333333,4,1,12,60,0,1
157690,-111.111111111111,4,1,12,60,0,1
158171,-95.2380952380952,4,1,12,60,0,1
158556,-83.3333333333333,4,1,12,60,0,1
158748,-95.2380952380952,4,1,12,60,0,1
159421,-111.111111111111,4,1,12,60,0,1
159710,-83.3333333333333,4,1,12,60,0,1
159998,-111.111111111111,4,1,12,60,0,1
160479,-95.2380952380952,4,1,12,60,0,1
160864,-83.3333333333333,4,1,12,60,0,1
161152,-111.111111111111,4,1,12,60,0,1
161440,-83.3333333333333,4,1,12,60,0,1
162306,-95.2380952380952,4,1,12,60,0,1
163171,-83.3333333333333,4,1,12,60,0,1
165094,-125,4,1,12,60,0,1
165479,-83.3333333333333,4,1,12,60,0,1
166344,-111.111111111111,4,1,12,60,0,1
166633,-83.3333333333333,4,1,12,60,0,1
166921,-111.111111111111,4,1,12,60,0,1
167402,-95.2380952380952,4,1,12,60,0,1
170671,-58.8235294117647,4,1,12,60,0,1
170912,-58.8235294117647,4,1,12,5,0,1
170960,-76.9230769230769,4,1,12,60,0,1
176729,-125,4,1,12,50,0,0
178171,-90.9090909090909,4,1,12,50,0,0
179037,-125,4,1,12,50,0,0
179325,-100,4,1,12,50,0,0
180190,-83.3333333333333,4,1,12,50,0,0
181248,-95.2380952380952,4,1,12,50,0,0
182498,-133.333333333333,4,1,12,50,0,0
187114,-125,4,1,12,50,0,0
189421,-83.3333333333333,4,1,12,50,0,0
190479,-153.846153846154,4,1,12,50,0,0
191440,-83.3333333333333,4,1,12,50,0,0
191729,-125,4,1,12,50,0,0
192306,-95.2380952380952,4,1,12,50,0,0
192787,-111.111111111111,4,1,12,50,0,0
193171,-95.2380952380952,4,1,12,50,0,0
194037,-125,4,1,12,50,0,0
194614,-95.2380952380952,4,1,12,50,0,0
195094,-111.111111111111,4,1,12,50,0,0
198940,-90.9090909090909,4,1,12,50,0,0
199229,-111.111111111111,4,1,12,50,0,0
199710,-100,4,1,12,50,0,0
200960,-166.666666666667,4,1,12,50,0,0
204998,-125,4,1,12,50,0,0
205287,-76.9230769230769,4,1,12,50,0,0
205575,-111.111111111111,4,1,12,50,0,0
205864,-90.9090909090909,4,1,12,50,0,0
206152,-111.111111111111,4,1,12,50,0,0
206440,-90.9090909090909,4,1,12,50,0,0
206633,-111.111111111111,4,1,12,50,0,0
207017,-90.9090909090909,4,1,12,50,0,0
207306,-111.111111111111,4,1,12,50,0,0
207594,-90.9090909090909,4,1,12,50,0,0
207787,-83.3333333333333,4,1,12,50,0,0
209517,-117.647058823529,4,1,12,50,0,0
210767,-117.647058823529,4,1,12,40,0,0
211344,-153.846153846154,4,1,14,30,0,0
216537,-133.333333333333,4,1,14,30,0,0
217017,-153.846153846154,4,1,14,30,0,0
217402,-133.333333333333,4,1,14,30,0,0
219325,-90.9090909090909,4,1,12,50,0,0
220575,-111.111111111111,4,1,12,60,0,1
220864,-83.3333333333333,4,1,12,60,0,1
221152,-111.111111111111,4,1,12,60,0,1
222017,-83.3333333333333,4,1,12,60,0,1
222306,-111.111111111111,4,1,12,60,0,1
222594,-83.3333333333333,4,1,12,60,0,1
222883,-111.111111111111,4,1,12,60,0,1
223171,-83.3333333333333,4,1,12,60,0,1
223460,-111.111111111111,4,1,12,60,0,1
223940,-83.3333333333333,4,1,12,60,0,1
225190,-111.111111111111,4,1,12,60,0,1
225479,-83.3333333333333,4,1,12,60,0,1
225767,-111.111111111111,4,1,12,60,0,1
226248,-95.2380952380952,4,1,12,60,0,1
226633,-83.3333333333333,4,1,12,60,0,1
226921,-111.111111111111,4,1,12,60,0,1
227210,-83.3333333333333,4,1,12,60,0,1
227498,-76.9230769230769,4,1,12,60,0,1
229229,-58.8235294117647,4,1,12,50,0,0
229806,-100,4,1,12,65,0,1
230094,-74.0740740740741,4,1,12,65,0,1
230383,-100,4,1,12,65,0,1
231248,-74.0740740740741,4,1,12,65,0,1
231537,-100,4,1,12,65,0,1
231825,-74.0740740740741,4,1,12,65,0,1
232114,-100,4,1,12,65,0,1
232402,-74.0740740740741,4,1,12,65,0,1
232690,-90.9090909090909,4,1,12,65,0,1
232979,-74.0740740740741,4,1,12,65,0,1
233171,-100,4,1,12,65,0,1
233556,-74.0740740740741,4,1,12,65,0,1
234421,-100,4,1,12,65,0,1
234710,-74.0740740740741,4,1,12,65,0,1
234998,-100,4,1,12,65,0,1
235287,-74.0740740740741,4,1,12,65,0,1
235479,-100,4,1,12,65,0,1
235864,-74.0740740740741,4,1,12,65,0,1
236152,-100,4,1,12,65,0,1
236440,-74.0740740740741,4,1,12,65,0,1
236729,-68.9655172413793,4,1,12,65,0,1
239037,-100,4,1,12,65,0,1
239325,-74.0740740740741,4,1,12,65,0,1
239614,-100,4,1,12,65,0,1
239902,-74.0740740740741,4,1,12,65,0,1
240094,-100,4,1,12,65,0,1
240479,-74.0740740740741,4,1,12,65,0,1
240767,-100,4,1,12,65,0,1
241056,-74.0740740740741,4,1,12,65,0,1
241344,-100,4,1,12,65,0,1
241633,-74.0740740740741,4,1,12,65,0,1
241921,-100,4,1,12,65,0,1
242210,-74.0740740740741,4,1,12,65,0,1
242402,-100,4,1,12,65,0,1
243940,-74.0740740740741,4,1,12,65,0,1
244229,-100,4,1,12,65,0,1
244517,-74.0740740740741,4,1,12,65,0,1
244710,-100,4,1,12,65,0,1
245094,-74.0740740740741,4,1,12,65,0,1
245671,-100,4,1,12,65,0,1
245960,-64.5161290322581,4,1,12,65,0,1
248267,-133.333333333333,4,1,12,50,0,0
248556,-100,4,1,12,50,0,0
248844,-133.333333333333,4,1,12,50,0,0
249133,-100,4,1,12,50,0,0
249421,-133.333333333333,4,1,12,50,0,0
249710,-100,4,1,12,50,0,0
249902,-117.647058823529,4,1,12,50,0,0
250575,-133.333333333333,4,1,12,50,0,0
250863,-100,4,1,12,50,0,0
251152,-133.333333333333,4,1,12,50,0,0
251440,-100,4,1,12,50,0,0
251729,-133.333333333333,4,1,12,50,0,0
252017,-100,4,1,12,50,0,0
252883,-133.333333333333,4,1,12,50,0,0
253171,-100,4,1,12,50,0,0
253460,-133.333333333333,4,1,12,50,0,0
253748,-100,4,1,12,50,0,0
254036,-133.333333333333,4,1,12,50,0,0
254517,-117.647058823529,4,1,12,50,0,0
254902,-100,4,1,12,50,0,0
257498,-133.333333333333,4,1,12,50,0,0
260960,-100,4,1,12,50,0,0
261440,-111.111111111111,4,1,12,50,0,0
262690,-166.666666666667,4,1,12,40,0,0
263267,-166.666666666667,4,1,12,30,0,0
263844,-166.666666666667,4,1,12,15,0,0
264421,-166.666666666667,4,1,12,5,0,0

[Colours]
Combo1 : 128,128,64
Combo2 : 0,0,160
Combo3 : 247,0,247
Combo4 : 236,236,0
Combo5 : 255,108,0
Combo6 : 0,255,255
Combo7 : 128,0,128
Combo8 : 255,0,0

[HitObjects]
144,100,191,118,0,P|132:140|136:188,1,66.6666666666667,0|0,0:3|0:0,0:0:0:0:
113,168,479,2,0,P|122:208|150:248,1,66.6666666666667
120,242,767,2,0,P|168:228|240:264,1,100.000003814697,2|0,0:3|0:0,0:0:0:0:
168,304,1056,2,0,P|208:316|256:312,1,66.6666666666667
380,219,1344,86,0,P|378:252|368:284,1,66.6666666666667,0|0,0:3|0:0,0:0:0:0:
377,153,1633,2,0,P|392:183|398:215,1,66.6666666666667
297,143,1921,2,0,P|344:155|391:141,1,100.000003814697,2|0,0:3|0:0,0:0:0:0:
344,76,2210,2,0,P|304:64|256:67,1,66.6666666666667
144,100,2498,22,0,P|132:144|112:168,1,66.6666666666667,0|0,0:3|0:0,0:0:0:0:
144,192,2787,2,0,P|111:224|82:234,1,66.6666666666667
100,272,3075,2,0,P|96:316|124:368,1,100.000003814697,2|0,0:3|0:3,0:3:0:0:
176,304,3364,2,0,P|212:300|256:308,1,66.6666666666667
316,340,3652,21,0,0:3:0:0:
312,220,3844,1,0,0:0:0:0:
312,220,3940,2,0,P|345:223|378:219,1,66.6666666666667
392,144,4229,2,0,P|336:136|260:164,1,100.000003814697,2|0,0:3|0:0,0:0:0:0:
232,192,4517,2,0,P|196:196|144:184,1,66.6666666666667
108,136,4806,86,0,L|100:64,1,66.6666666666667,0|0,0:3|0:0,0:0:0:0:
184,88,5094,2,0,L|213:21,1,66.6666666666667
272,80,5383,2,0,P|260:132|196:180,1,100.000003814697,2|0,0:3|0:0,0:0:0:0:
356,104,5671,2,0,L|448:108,1,66.6666666666667
456,232,5960,86,0,P|472:200|476:152,1,66.6666666666667,0|0,0:3|0:0,0:0:0:0:
360,256,6248,2,0,P|377:297|408:320,1,66.6666666666667
268,224,6537,2,0,L|144:244,1,100.000003814697,2|0,0:3|0:0,0:0:0:0:
228,132,6825,2,0,P|280:124|320:136,1,66.6666666666667
248,308,7114,22,0,L|232:392,1,66.6666666666667,0|0,0:3|0:0,0:0:0:0:
76,304,7402,2,0,L|63:238,1,66.6666666666667
200,224,7690,2,0,P|224:304|208:360,1,100.000003814697,2|0,0:3|0:0,0:0:0:0:
64,200,7979,2,0,L|76:134,1,66.6666666666667
260,80,8267,102,0,L|128:88,1,100.000003814697,12|0,0:0|0:0,0:0:0:0:
92,44,8556,1,0,0:0:0:0:
316,16,8748,2,0,P|296:80|324:172,1,150.000005722046,12|0,0:0|0:0,0:0:0:0:
368,232,9133,1,8,0:0:0:0:
384,216,9229,1,8,0:3:0:0:
400,200,9325,1,4,0:3:0:0:
432,296,9421,70,0,P|388:324|308:304,1,100.000003814697,6|0,0:0|0:0,0:0:0:0:
196,316,9710,2,0,L|332:304,1,133.333333333333,8|0,0:0|0:0,0:0:0:0:
140,384,9998,2,0,P|112:340|132:260,1,100.000003814697,2|0,0:0|0:0,0:0:0:0:
120,148,10287,2,0,L|131:280,1,133.333333333333,8|0,0:0|0:0,0:0:0:0:
52,88,10575,6,0,P|92:64|160:68,1,100.000003814697,2|0,0:0|0:0,0:0:0:0:
212,132,10864,1,8,0:0:0:0:
456,12,11056,2,0,P|368:56|364:132,1,150.000005722046,2|0,0:0|0:0,0:0:0:0:
460,148,11440,2,0,L|444:88,2,50.0000019073487,8|0|0,0:0|0:0|0:0,0:0:0:0:
424,232,11729,86,0,B|376:240|376:240|280:224,1,100.000003814697,2|0,0:0|0:0,0:0:0:0:
212,124,12017,2,0,P|272:144|296:240,1,133.333333333333,8|0,0:0|0:0,0:0:0:0:
212,212,12306,2,0,B|164:204|164:204|80:220,1,100.000003814697,2|0,0:0|0:0,0:0:0:0:
0,320,12594,2,0,P|60:300|84:204,1,133.333333333333,8|0,0:0|0:0,0:0:0:0:
40,76,12883,102,0,B|28:128|28:128|52:196,1,100.000003814697,2|0,0:0|0:0,0:0:0:0:
188,48,13171,2,0,L|108:40,1,66.6666666666667,8|0,0:0|0:0,0:0:0:0:
176,240,13364,2,0,P|244:220|216:80,1,200,2|0,0:0|0:0,0:0:0:0:
188,48,13748,2,0,L|108:40,2,66.6666666666667,8|8|4,0:0|0:3|0:3,0:0:0:0:
276,108,14037,22,0,P|336:116|416:92,1,100.000003814697,6|0,0:0|0:0,0:0:0:0:
452,8,14325,2,0,P|396:80|420:172,1,133.333333333333,8|0,0:0|0:0,0:0:0:0:
512,304,14614,2,0,P|488:248|428:190,1,100.000003814697,2|0,0:0|0:0,0:0:0:0:
337,201,14902,2,0,P|427:213|495:146,1,133.333333333333,8|0,0:0|0:0,0:0:0:0:
276,108,15190,6,0,L|300:208,1,100.000003814697,2|0,0:0|0:0,0:0:0:0:
264,288,15479,1,8,0:0:0:0:
176,48,15671,2,0,L|216:240,1,170.000003242493,2|0,0:0|0:0,0:0:0:0:
176,308,16056,2,0,P|196:224|256:200,1,133.333333333333,8|0,0:0|0:0,0:0:0:0:
284,328,16344,22,0,L|140:340,1,133.333333333333,14|0,0:0|0:0,0:0:0:0:
392,208,16633,2,0,L|248:196,1,133.333333333333,8|0,0:0|0:0,0:0:0:0:
419,59,16921,2,0,P|437:123|419:186,1,133.333333333333,10|0,0:0|0:0,0:0:0:0:
228,184,17210,2,0,P|210:120|228:57,1,133.333333333333,8|0,0:0|0:0,0:0:0:0:
488,228,17498,54,0,L|344:216,1,133.333333333333,14|0,0:0|0:0,0:0:0:0:
244,200,17787,1,8,0:0:0:0:
448,320,17979,2,0,P|432:241|292:193,1,200,14|8,0:0|0:0,0:0:0:0:
244,200,18364,1,8,0:3:0:0:
236,220,18460,1,8,0:3:0:0:
228,240,18556,1,4,0:3:0:0:
220,260,18652,70,0,B|168:264|168:264|124:244|124:244|64:248,1,150.000005722046,2|0,0:0|0:0,0:0:0:0:
292,124,19229,2,0,B|344:120|344:120|388:140|388:140|448:136,1,150.000005722046,8|0,0:0|0:0,0:0:0:0:
256,300,19806,2,0,P|248:236|264:180,1,100.000003814697,2|0,0:0|0:0,0:0:0:0:
280,160,20094,2,0,P|288:96|272:40,1,100.000003814697
188,108,20383,2,0,B|68:112|68:112|124:128,1,150.000005722046,8|0,0:0|0:0,0:0:0:0:
336,336,20960,86,0,P|388:320|400:208,1,150.000005722046,2|0,0:0|0:0,0:0:0:0:
176,336,21537,2,0,P|124:320|112:208,1,150.000005722046,8|0,0:0|0:0,0:0:0:0:
324,152,22114,2,0,P|312:208|324:260,1,93.3333304850261,2|0,0:0|0:0,0:0:0:0:
336,336,22402,1,0,0:0:0:0:
468,240,22594,2,0,P|368:240|300:152,1,179.999994506836,6|0,0:0|0:0,0:0:0:0:
324,152,22979,2,0,B|334:104|334:104|328:80|328:80|340:32,1,119.999996337891
432,64,23267,22,0,L|296:56,1,119.999996337891,2|0,0:0|0:0,0:0:0:0:
180,92,23748,1,0,0:0:0:0:
176,112,23844,2,0,P|256:116|300:28,1,179.999994506836,8|0,0:0|0:0,0:0:0:0:
100,64,24325,1,0,0:0:0:0:
96,84,24421,2,0,L|88:220,1,119.999996337891,2|0,0:0|0:0,0:0:0:0:
124,336,24902,1,0,0:0:0:0:
144,340,24998,2,0,P|148:260|60:216,1,179.999994506836,8|0,0:0|0:0,0:0:0:0:
240,308,25479,1,0,0:0:0:0:
264,316,25575,6,0,L|368:320,1,79.9999975585938,2|0,0:0|0:0,0:0:0:0:
304,240,25864,2,0,L|408:244,1,79.9999975585938
428,320,26152,2,0,P|380:264|400:160,1,179.999994506836,8|0,0:0|0:0,0:0:0:0:
400,8,26633,1,0,0:0:0:0:
408,24,26729,2,0,P|416:84|400:128,1,79.9999975585938,2|0,0:0|0:0,0:0:0:0:
332,144,27017,2,0,P|324:84|340:40,1,79.9999975585938
412,188,27306,2,0,L|196:184,1,179.999994506836,8|0,0:0|0:0,0:0:0:0:
76,40,27883,70,0,P|88:76|76:152,1,79.9999975585938,2|0,0:0|0:0,0:0:0:0:
28,176,28171,1,0,0:0:0:0:
144,296,28364,1,0,0:0:0:0:
176,304,28460,2,0,P|152:236|72:212,1,119.999996337891,8|0,0:0|0:0,0:0:0:0:
184,124,28748,2,0,L|296:116,1,79.9999975585938
336,224,29037,2,0,P|300:188|300:116,1,119.999996337891,2|0,0:0|0:0,0:0:0:0:
428,40,29517,1,0,0:0:0:0:
444,72,29614,2,0,P|424:124|348:152,1,119.999996337891,8|0,0:0|0:0,0:0:0:0:
288,43,29902,2,0,P|327:49|361:69,1,79.9999975585938
412,152,30190,38,0,L|404:268,1,79.9999975585938,2|0,0:0|0:0,0:0:0:0:
248,248,30479,2,0,P|288:224|356:232,1,79.9999975585938
384,324,30767,2,0,P|344:352|244:356,1,119.999996337891,8|0,0:0|0:0,0:0:0:0:
188,328,31056,1,0,0:0:0:0:
320,124,31248,1,0,0:0:0:0:
336,140,31344,2,0,B|288:148|288:148|212:132,1,100.000003814697,2|0,0:0|0:0,0:0:0:0:
124,56,31633,2,0,B|172:48|172:48|248:64,1,100.000003814697
96,200,31921,2,0,P|80:136|100:73,1,133.333333333333,8|0,0:0|0:0,0:0:0:0:
216,228,32210,2,0,B|168:236|168:236|92:220,1,100.000003814697
4,316,32498,102,0,P|72:304|144:332,1,119.999996337891,2|0,0:0|0:0,0:0:0:0:
284,276,32979,1,0,0:0:0:0:
303,301,33075,2,0,B|243:309|243:309|175:285|175:285|83:293,1,179.999994506836,8|0,0:0|0:0,0:0:0:0:
348,84,33556,1,0,0:0:0:0:
376,80,33652,2,0,P|388:148|360:220,1,119.999996337891,2|0,0:0|0:0,0:0:0:0:
416,360,34133,1,0,0:0:0:0:
391,379,34229,2,0,B|383:319|383:319|407:251|407:251|399:159,1,179.999994506836,8|0,0:0|0:0,0:0:0:0:
252,96,34710,1,0,0:0:0:0:
268,76,34806,6,0,L|360:80,1,79.9999975585938,2|0,0:0|0:0,0:0:0:0:
172,92,35094,2,0,L|264:96,1,79.9999975585938
124,164,35383,2,0,P|88:100|124:16,1,119.999996337891,8|0,0:0|0:0,0:0:0:0:
212,176,35671,2,0,P|184:232|140:256,1,79.9999975585938
87,277,35960,2,0,L|8:280,1,79.9999975585938,2|0,0:0|0:0,0:0:0:0:
162,328,36248,1,0,0:0:0:0:
300,228,36440,1,0,0:0:0:0:
268,216,36537,2,0,P|188:244|168:348,1,179.999994506836,8|0,0:0|0:0,0:0:0:0:
476,184,37114,70,0,L|392:172,1,79.9999975585938,2|0,0:0|0:0,0:0:0:0:
356,264,37402,2,0,P|316:312|316:352,1,79.9999975585938
256,124,37690,2,0,P|337:153|359:236,1,179.999994506836,8|0,0:0|0:0,0:0:0:0:
240,348,38171,1,0,0:0:0:0:
224,332,38267,2,0,L|212:248,1,79.9999975585938,2|0,0:0|0:0,0:0:0:0:
304,212,38556,2,0,P|352:172|392:172,1,79.9999975585938
164,112,38844,2,0,P|193:193|256:216,1,119.999996337891,8|0,0:0|0:0,0:0:0:0:
256,124,39133,1,0,0:0:0:0:
84,144,39325,1,0,0:0:0:0:
80,176,39421,38,0,L|64:276,1,79.9999975585938,2|0,0:0|0:0,0:0:0:0:
220,288,39710,2,0,P|192:252|140:232,1,79.9999975585938
128,340,39998,2,0,P|212:324|292:344,1,119.999996337891,8|0,0:0|0:0,0:0:0:0:
344,356,40287,1,0,0:0:0:0:
366,185,40479,86,0,B|346:244|346:244|364:304|364:304|343:355,1,179.999994506836,6|2,0:0|0:0,0:0:0:0:
276,168,40864,2,0,P|312:108|360:92,1,119.999996337891,8|2,0:0|0:0,0:0:0:0:
460,200,41152,2,0,P|424:260|376:276,1,119.999996337891,8|0,0:0|0:0,0:0:0:0:
200,208,41440,1,2,0:3:0:0:
196,176,41537,1,8,0:3:0:0:
192,140,41633,1,8,0:3:0:0:
120,112,41729,70,0,P|116:156|168:216,1,119.999996337891,6|0,0:0|0:0,0:0:0:0:
215,353,42017,2,0,L|199:205,1,146.666671142578,8|0,0:0|0:0,0:0:0:0:
452,100,42306,2,0,P|365:88|324:120,1,119.999996337891,2|0,0:0|0:0,0:0:0:0:
192,140,42594,2,0,L|308:128,1,73.3333355712891,8|0,0:0|0:0,0:0:0:0:
360,244,42787,6,0,P|356:156|248:116,1,179.999994506836,2|0,0:0|0:0,0:0:0:0:
233,220,43171,2,0,L|117:208,1,73.3333355712891,8|0,0:0|0:0,0:0:0:0:
97,273,43364,2,0,P|80:189|143:130,1,179.999994506836,2|0,0:0|0:0,0:0:0:0:
305,227,43748,2,0,L|156:212,1,146.666671142578,8|0,0:0|0:0,0:0:0:0:
176,24,44037,70,0,P|176:88|128:140,1,119.999996337891,2|0,0:0|0:0,0:0:0:0:
28,56,44325,2,0,L|232:40,1,146.666671142578,8|0,0:0|0:0,0:0:0:0:
364,196,44614,2,0,P|308:228|239:212,1,119.999996337891,2|0,0:0|0:0,0:0:0:0:
264,84,44902,2,0,L|302:158,1,73.3333355712891,8|0,0:0|0:0,0:0:0:0:
240,356,45094,6,0,P|200:261|285:193,1,179.999994506836,2|0,0:0|0:0,0:0:0:0:
436,204,45479,2,0,L|336:192,1,73.3333355712891,8|0,0:0|0:0,0:0:0:0:
240,0,45671,2,0,P|336:36|328:144,1,179.999994506836,2|0,0:0|0:0,0:0:0:0:
168,208,46056,2,0,B|176:160|176:160|168:112|168:112|180:48,1,146.666671142578,8|0,0:0|0:0,0:0:0:0:
256,256,46344,6,0,L|336:272,2,59.9999981689454,6|0|0,0:0|0:0|0:0,0:0:0:0:
200,336,46633,2,0,L|120:352,2,59.9999981689454,8|0|0,0:0|0:0|0:0,0:0:0:0:
68,328,46921,1,2,0:0:0:0:
60,296,47017,1,0,0:0:0:0:
64,264,47114,1,0,0:0:0:0:
100,196,47210,1,8,0:0:0:0:
108,164,47306,1,0,0:0:0:0:
104,132,47403,1,0,0:0:0:0:
60,64,47498,5,2,0:0:0:0:
96,52,47594,1,0,0:0:0:0:
136,60,47690,1,0,0:0:0:0:
200,108,47787,1,8,0:0:0:0:
236,120,47883,1,0,0:0:0:0:
276,112,47979,1,2,0:0:0:0:
344,72,48075,2,0,L|360:4,2,59.9999981689454,2|0|0,0:0|0:0|0:0,0:0:0:0:
424,152,48364,2,0,L|468:100,2,59.9999981689454,8|0|0,0:0|0:0|0:0,0:0:0:0:
432,260,48652,22,0,B|360:248|360:248|240:268,1,146.666671142578,14|0,0:0|0:0,0:0:0:0:
168,288,48940,2,0,B|240:300|240:300|360:280,1,146.666671142578,8|0,0:0|0:0,0:0:0:0:
424,152,49229,2,0,P|404:76|320:52,1,146.666671142578,10|0,0:0|0:0,0:0:0:0:
244,68,49517,2,0,L|140:76,1,86.6666626993817,8|0,0:0|0:0,0:0:0:0:
80,144,49710,54,0,P|152:176|256:48,1,220.000006713867,12|0,0:0|0:0,0:0:0:0:
424,152,50094,1,4,0:3:0:0:
384,148,50190,1,4,0:3:0:0:
344,144,50287,1,4,0:3:0:0:
320,232,50383,1,4,0:3:0:0:
360,228,50479,1,4,0:3:0:0:
400,224,50576,1,4,0:3:0:0:
440,144,50671,1,4,0:3:0:0:
400,140,50767,1,4,0:3:0:0:
360,136,50864,1,4,0:3:0:0:
304,240,50960,5,6,0:0:0:0:
104,44,52017,69,4,0:0:0:0:
120,68,52979,85,8,0:3:0:0:
116,108,53075,1,8,0:3:0:0:
112,148,53171,1,8,0:3:0:0:
144,232,53267,85,4,0:0:0:0:
464,88,54325,5,4,0:0:0:0:
220,80,54902,53,0,0:0:0:0:
220,80,54998,2,0,L|96:92,1,106.666666666667,8|0,0:0|0:0,0:0:0:0:
256,176,55287,2,0,P|296:152|316:44,1,146.666671142578,6|0,0:0|0:0,0:0:0:0:
172,160,55575,22,0,L|32:172,1,119.999996337891,2|0,0:0|0:0,0:0:0:0:
72,304,55864,2,0,P|100:224|192:192,1,146.666671142578,8|0,0:0|0:0,0:0:0:0:
316,260,56152,2,0,L|304:120,1,119.999996337891,2|0,0:0|0:0,0:0:0:0:
172,160,56441,2,0,P|252:188|272:228,1,73.3333355712891,8|0,0:0|0:0,0:0:0:0:
316,352,56633,6,0,P|388:316|368:180,1,179.999994506836,2|0,0:0|0:0,0:0:0:0:
404,60,57017,2,0,B|400:140|400:140|432:212,1,146.666671142578,8|0,0:0|0:0,0:0:0:0:
316,260,57306,2,0,P|280:188|212:176,1,119.999996337891,2|0,0:0|0:0,0:0:0:0:
152,240,57594,2,0,L|16:248,1,73.3333355712891,8|0,0:0|0:0,0:0:0:0:
108,60,57787,22,0,P|180:84|164:220,1,220.000006713867,14|2,0:0|0:0,0:0:0:0:
404,60,58171,2,0,P|332:84|336:192,1,146.666671142578,8|0,0:0|0:0,0:0:0:0:
464,208,58460,1,8,0:0:0:0:
428,212,58556,1,10,0:3:0:0:
392,216,58652,1,10,0:3:0:0:
356,220,58748,1,2,0:0:0:0:
256,24,58940,1,12,0:0:0:0:
304,36,60190,70,0,P|272:92|220:108,1,119.999996337891,6|0,0:0|0:0,0:0:0:0:
44,92,60479,2,0,P|132:84|204:168,1,159.999995117188,8|0,0:0|0:0,0:0:0:0:
288,227,60767,2,0,P|270:172|219:143,1,119.999996337891,2|0,0:0|0:0,0:0:0:0:
96,180,61056,1,8,0:0:0:0:
216,316,61248,6,0,B|264:292|308:332|308:332|360:340|400:296,1,179.999994506836,2|0,0:0|0:0,0:0:0:0:
124,340,61633,2,0,P|144:256|236:228,1,159.999995117188,8|0,0:0|0:0,0:0:0:0:
372,108,61921,2,0,B|382:169|382:169|370:225,1,119.999996337891,2|0,0:0|0:0,0:0:0:0:
464,98,62210,2,0,P|425:30|349:16,1,159.999995117188,8|0,0:0|0:0,0:0:0:0:
284,80,62498,69,2,0:0:0:0:
80,88,62690,1,0,0:0:0:0:
100,124,62787,2,0,L|88:288,1,159.999995117188,8|0,0:0|0:0,0:0:0:0:
16,336,63075,2,0,P|92:308|184:344,1,139.999995727539,2|0,0:0|0:0,0:0:0:0:
204,252,63364,2,0,P|244:260|300:248,1,79.9999975585938,8|0,0:0|0:0,0:0:0:0:
384,116,63556,6,0,P|324:120|304:244,1,179.999994506836,2|0,0:0|0:0,0:0:0:0:
356,344,63940,2,0,P|375:267|359:189,1,159.999995117188,8|0,0:0|0:0,0:0:0:0:
292,92,64229,2,0,B|232:100|232:100|172:92,1,119.999996337891,2|0,0:0|0:0,0:0:0:0:
36,56,64517,2,0,L|212:76,1,159.999995117188,8|0,0:0|0:0,0:0:0:0:
288,16,64806,5,6,0:0:0:0:
208,204,64998,1,0,0:0:0:0:
192,168,65094,2,0,P|116:140|32:196,1,159.999995117188,8|0,0:0|0:0,0:0:0:0:
0,372,65383,2,0,B|8:324|8:324|0:296|0:296|8:220,1,119.999996337891,2|0,0:0|0:0,0:0:0:0:
160,272,65671,2,0,P|132:280|68:264,1,79.9999975585938,8|0,0:0|0:0,0:0:0:0:
112,140,65864,6,0,P|180:88|264:128,1,179.999994506836,2|0,0:0|0:0,0:0:0:0:
384,16,66248,2,0,B|252:24|252:24|292:44,1,159.999995117188,8|0,0:0|0:0,0:0:0:0:
152,232,66537,2,0,P|216:240|264:196,1,119.999996337891,2|0,0:0|0:0,0:0:0:0:
404,108,66825,2,0,B|272:116|272:116|312:136,1,159.999995117188,8|0,0:0|0:0,0:0:0:0:
288,312,67114,70,0,P|360:256|348:156,1,173.333325398763,8|0,0:0|0:0,0:0:0:0:
158,244,67402,2,0,P|163:160|232:112,1,173.333325398763,8|0,0:0|0:0,0:0:0:0:
352,22,67690,1,8,0:0:0:0:
334,62,67786,1,4,0:3:0:0:
316,101,67882,1,4,0:3:0:0:
298,140,67978,1,4,0:3:0:0:
66,121,68171,70,0,B|123:140|166:99|166:99|214:145|214:145|270:121|326:153,1,259.999988098145,4|0,0:0|0:0,0:0:0:0:
416,196,68556,1,0,0:0:0:0:
376,208,68652,1,8,0:3:0:0:
344,236,68748,1,8,0:3:0:0:
296,304,68844,1,2,0:0:0:0:
256,320,68940,1,4,0:3:0:0:
216,304,69037,1,4,0:3:0:0:
164,240,69133,1,8,0:0:0:0:
132,212,69229,1,4,0:3:0:0:
92,200,69325,1,4,0:3:0:0:
96,288,69421,70,0,P|160:324|220:300,1,119.999996337891,6|0,0:0|0:0,0:0:0:0:
245,125,69710,2,0,P|178:163|164:240,1,159.999995117188,8|0,0:0|0:0,0:0:0:0:
420,368,69998,2,0,P|456:304|432:244,1,119.999996337891,2|0,0:0|0:0,0:0:0:0:
268,220,70287,2,0,P|306:287|364:302,1,79.9999975585938,8|0,0:0|0:0,0:0:0:0:
512,180,70479,6,0,P|428:160|348:220,1,179.999994506836,2|0,0:0|0:0,0:0:0:0:
272,336,70864,2,0,L|264:160,1,159.999995117188,8|0,0:0|0:0,0:0:0:0:
164,72,71152,2,0,P|224:64|288:120,1,119.999996337891,2|0,0:0|0:0,0:0:0:0:
80,40,71440,2,0,L|256:32,1,159.999995117188,8|0,0:0|0:0,0:0:0:0:
44,120,71729,69,2,0:0:0:0:
312,104,71921,1,0,0:0:0:0:
340,128,72017,2,0,P|356:208|276:280,1,159.999995117188,8|0,0:0|0:0,0:0:0:0:
136,184,72306,2,0,B|208:168|208:168|272:184,1,139.999995727539,2|0,0:0|0:0,0:0:0:0:
384,228,72594,2,0,P|423:232|463:228,1,79.9999975585938,8|0,0:0|0:0,0:0:0:0:
296,296,72787,6,0,B|208:276|208:276|100:300,1,179.999994506836,6|0,0:0|0:0,0:0:0:0:
56,364,73171,2,0,P|28:288|64:220,1,159.999995117188,8|0,0:0|0:0,0:0:0:0:
16,136,73460,2,0,L|144:128,1,119.999996337891,2|0,0:0|0:0,0:0:0:0:
336,36,73748,1,8,0:0:0:0:
328,76,73844,1,4,0:3:0:0:
320,116,73940,1,4,0:3:0:0:
248,180,74037,6,0,P|224:116|252:52,1,119.999996337891,2|0,0:0|0:0,0:0:0:0:
420,64,74325,2,0,P|428:148|360:232,1,159.999995117188,8|0,0:0|0:0,0:0:0:0:
208,264,74614,2,0,P|276:252|360:288,1,119.999996337891,2|0,0:0|0:0,0:0:0:0:
420,304,74902,2,0,P|380:308|296:288,1,79.9999975585938,8|0,0:0|0:0,0:0:0:0:
164,336,75094,6,0,L|172:124,1,179.999994506836,6|0,0:0|0:0,0:0:0:0:
80,72,75479,2,0,P|48:144|76:236,1,159.999995117188,8|0,0:0|0:0,0:0:0:0:
256,120,75767,2,0,P|228:84|136:68,1,119.999996337891,2|0,0:0|0:0,0:0:0:0:
136,264,76056,2,0,P|214:255|280:185,1,159.999995117188,8|0,0:0|0:0,0:0:0:0:
424,24,76344,22,0,P|412:132|448:236,1,173.333325398763,12|0,0:0|0:0,0:0:0:0:
268,320,76633,2,0,P|280:212|244:108,1,173.333325398763,8|0,0:0|0:0,0:0:0:0:
52,60,76921,1,8,0:0:0:0:
100,56,77017,1,4,0:3:0:0:
148,52,77114,1,4,0:3:0:0:
196,48,77210,1,4,0:3:0:0:
376,264,77402,54,0,P|328:220|152:268,1,259.999988098145,12|0,0:0|0:0,0:0:0:0:
268,320,77787,2,0,B|276:236|276:236|256:140|256:140|268:44,1,259.999988098145,2|2,0:0|0:0,0:0:0:0:
500,296,78364,1,4,0:0:0:0:
256,192,97114,12,2,98844,0:0:0:0:
316,252,99421,70,0,P|256:272|204:252,1,119.999996337891,6|0,0:0|0:0,0:0:0:0:
392,64,99902,1,0,0:0:0:0:
392,64,99998,1,8,0:0:0:0:
372,160,100287,1,0,0:0:0:0:
316,252,100575,6,0,P|256:232|204:252,1,119.999996337891,2|0,0:0|0:0,0:0:0:0:
382,54,101056,1,0,0:0:0:0:
382,54,101152,1,8,0:0:0:0:
372,160,101440,1,0,0:0:0:0:
112,212,101633,69,0,0:0:0:0:
109,183,101729,2,0,L|101:103,1,79.9999975585938,2|0,0:0|0:0,0:0:0:0:
205,251,102017,2,0,L|213:167,1,79.9999975585938
373,44,102306,1,8,0:0:0:0:
312,184,102594,1,0,0:0:0:0:
133,174,102883,38,0,P|181:166|241:182,1,79.9999975585938,2|0,0:0|0:0,0:0:0:0:
312,184,103171,2,0,P|351:191|390:187,1,79.9999975585938
364,34,103460,1,8,0:0:0:0:
312,184,103748,1,0,0:0:0:0:
133,174,104037,102,0,P|181:166|241:182,1,79.9999975585938,2|0,0:0|0:0,0:0:0:0:
390,187,104325,2,0,P|351:191|312:184,1,79.9999975585938
355,25,104614,1,8,0:0:0:0:
312,184,104806,1,0,0:0:0:0:
280,180,104902,1,0,0:0:0:0:
452,140,105094,1,0,0:0:0:0:
472,164,105190,6,0,B|480:208|480:208|468:272,1,79.9999975585938,2|0,0:0|0:0,0:0:0:0:
280,180,105479,2,0,B|236:172|236:172|172:184,1,79.9999975585938
352,20,105767,1,8,0:0:0:0:
473,242,106056,1,0,0:0:0:0:
280,268,106248,69,0,0:0:0:0:
308,260,106344,2,0,B|352:252|352:252|416:264,1,79.9999975585938,2|0,0:0|0:0,0:0:0:0:
201,178,106633,2,0,B|245:186|245:186|309:174,1,79.9999975585938
337,5,106921,1,8,0:0:0:0:
337,5,107210,37,0,0:0:0:0:
386,258,107402,1,6,0:0:0:0:
128,296,108364,70,8,L|84:296,4,25.0000009536744,8|8|8|8|8,0:3|0:3|0:3|0:3|0:3,0:3:0:0:
212,344,108652,22,0,P|276:332|316:344,1,79.9999975585938,6|0,0:0|0:0,0:0:0:0:
372,368,108940,2,0,P|380:303|404:269,1,79.9999975585938
448,228,109229,2,0,P|392:204|328:224,1,119.999996337891,8|0,0:0|0:0,0:0:0:0:
332,114,109517,2,0,P|287:161|247:175,1,79.9999975585938
188,192,109806,6,0,P|219:249|220:290,1,79.9999975585938,2|0,0:0|0:0,0:0:0:0:
88,168,110094,2,0,P|121:112|157:90,1,79.9999975585938
120,268,110383,2,0,P|40:260|-8:200,1,119.999996337891,8|0,0:0|0:0,0:0:0:0:
196,168,110671,2,0,P|261:169|297:189,1,79.9999975585938
468,168,110960,102,0,P|402:169|366:189,1,79.9999975585938,2|0,0:0|0:0,0:0:0:0:
332,240,111248,1,0,0:0:0:0:
412,44,111440,1,0,0:0:0:0:
432,68,111537,2,0,P|352:76|292:40,1,119.999996337891,8|0,0:0|0:0,0:0:0:0:
292,140,111825,2,0,P|226:141|190:161,1,79.9999975585938
152,216,112114,5,2,0:0:0:0:
88,88,112306,1,0,0:0:0:0:
56,72,112402,2,0,L|48:184,1,79.9999975585938
24,240,112690,2,0,P|112:228|160:260,1,119.999996337891,8|0,0:0|0:0,0:0:0:0:
180,336,112979,2,0,P|136:344|88:332,1,79.9999975585938
252,260,113267,70,0,L|260:172,1,79.9999975585938,2|0,0:0|0:0,0:0:0:0:
340,44,113556,2,0,L|332:123,1,79.9999975585938
168,148,113844,2,0,P|240:84|304:96,1,119.999996337891,8|0,0:0|0:0,0:0:0:0:
332,201,114133,2,0,P|276:193|244:161,1,79.9999975585938
432,172,114421,37,2,0:0:0:0:
484,296,114614,1,0,0:0:0:0:
464,324,114710,1,0,0:0:0:0:
312,272,114902,1,0,0:0:0:0:
304,240,114998,2,0,L|320:104,1,119.999996337891,8|0,0:0|0:0,0:0:0:0:
396,280,115287,2,0,P|368:336|336:356,1,79.9999975585938
193,278,115575,102,0,B|233:271|233:271|273:278|273:278|317:270,1,119.999996337891,2|0,0:0|0:0,0:0:0:0:
124,236,116056,1,0,0:0:0:0:
96,220,116152,2,0,P|80:284|120:372,1,119.999996337891,8|0,0:0|0:0,0:0:0:0:
184,380,116440,1,0,0:0:0:0:
176,160,116633,102,0,P|96:128|4:192,1,179.999994506836,6|0,0:0|0:0,0:0:0:0:
292,88,117017,2,0,P|232:88|180:44,1,119.999996337891,8|0,0:0|0:0,0:0:0:0:
300,228,117306,2,0,P|240:228|188:272,1,119.999996337891,2|0,0:0|0:0,0:0:0:0:
376,160,117594,2,0,L|464:160,2,59.9999981689454,8|0|2,0:0|0:0|0:0,0:0:0:0:
312,56,117883,70,0,L|176:68,1,119.999996337891,6|0,0:0|0:0,0:0:0:0:
60,48,118171,2,0,P|156:64|188:140,1,146.666671142578,8|0,0:0|0:0,0:0:0:0:
256,320,118460,2,0,L|244:184,1,119.999996337891,2|0,0:0|0:0,0:0:0:0:
247,70,118748,2,0,P|191:98|163:98,1,73.3333355712891,8|0,0:0|0:0,0:0:0:0:
44,88,118940,6,0,P|112:88|172:196,1,179.999994506836,2|0,0:0|0:0,0:0:0:0:
256,320,119325,2,0,P|259:257|273:233,1,73.3333355712891,8|0,0:0|0:0,0:0:0:0:
341,135,119517,2,0,P|307:193|183:191,1,179.999994506836,2|0,0:0|0:0,0:0:0:0:
96,324,119902,2,0,P|92:288|200:204,1,146.666671142578,8|0,0:0|0:0,0:0:0:0:
424,104,120190,70,0,L|412:256,1,119.999996337891,2|0,0:0|0:0,0:0:0:0:
252,120,120479,2,0,P|304:56|396:64,1,146.666671142578,8|0,0:0|0:0,0:0:0:0:
269,292,120767,2,0,L|143:205,1,119.999996337891,2|0,0:0|0:0,0:0:0:0:
341,135,121056,2,0,P|370:212|348:260,1,73.3333355712891,8|0,0:0|0:0,0:0:0:0:
288,360,121248,6,0,P|268:288|356:212,1,179.999994506836,2|0,0:0|0:0,0:0:0:0:
492,208,121633,2,0,P|410:194|380:151,1,73.3333355712891,8|0,0:0|0:0,0:0:0:0:
323,49,121825,2,0,P|395:67|417:181,1,179.999994506836,2|0,0:0|0:0,0:0:0:0:
252,120,122210,2,0,B|204:116|204:116|160:136|160:136|64:132,1,146.666671142578,8|0,0:0|0:0,0:0:0:0:
56,64,122498,6,0,P|108:44|160:52,2,59.9999981689454,6|0|0,0:0|0:0|0:0,0:0:0:0:
56,204,122787,2,0,P|100:220|156:212,2,59.9999981689454,8|0|0,0:0|0:0|0:0,0:0:0:0:
104,136,123075,1,2,0:0:0:0:
140,128,123171,1,0,0:0:0:0:
176,132,123267,1,0,0:0:0:0:
252,160,123364,1,8,0:0:0:0:
288,164,123460,1,0,0:0:0:0:
324,156,123556,1,0,0:0:0:0:
380,96,123652,5,2,0:0:0:0:
400,128,123748,1,0,0:0:0:0:
404,164,123844,1,0,0:0:0:0:
484,188,123940,1,8,0:0:0:0:
466,221,124036,1,0,0:0:0:0:
437,242,124132,1,0,0:0:0:0:
356,232,124229,2,0,L|260:240,2,59.9999981689454,2|0|0,0:0|0:0|0:0,0:0:0:0:
288,332,124517,2,0,L|228:327,2,59.9999981689454,8|0|0,0:0|0:0|0:0,0:0:0:0:
100,360,124806,22,0,P|148:308|140:228,1,146.666671142578,8|0,0:0|0:0,0:0:0:0:
4,192,125094,2,0,L|184:200,1,146.666671142578,8|0,0:0|0:0,0:0:0:0:
272,120,125383,1,8,0:0:0:0:
236,112,125479,1,8,0:3:0:0:
200,104,125575,1,8,0:3:0:0:
164,96,125671,1,8,0:3:0:0:
424,80,125864,38,0,P|384:76|312:220,1,220.000006713867,6|0,0:0|0:0,0:0:0:0:
436,236,126248,1,8,0:0:0:0:
416,204,126344,1,8,0:3:0:0:
396,172,126440,1,8,0:3:0:0:
332,240,126537,1,8,0:0:0:0:
352,272,126633,1,4,0:3:0:0:
372,304,126729,1,4,0:3:0:0:
272,300,126825,2,0,P|248:244|300:160,1,146.666671142578,10|0,0:0|0:0,0:0:0:0:
456,264,127114,5,6,0:0:0:0:
104,152,128171,5,6,0:0:0:0:
96,136,129133,37,4,0:3:0:0:
84,176,129229,1,4,0:3:0:0:
72,216,129325,1,4,0:3:0:0:
0,152,129421,69,6,0:0:0:0:
420,144,130479,5,6,0:0:0:0:
320,308,131056,69,2,0:0:0:0:
296,340,131152,2,0,L|140:344,1,106.666666666667,2|0,0:0|0:0,0:0:0:0:
96,360,131440,2,0,P|112:288|184:248,1,146.666671142578,12|0,0:0|0:0,0:0:0:0:
312,200,131729,22,0,B|276:224|276:224|168:228,1,119.999996337891,6|0,0:0|0:0,0:0:0:0:
101,151,132017,2,0,L|247:148,1,146.666671142578,8|0,0:0|0:0,0:0:0:0:
436,92,132306,2,0,B|359:94|359:94|323:118,1,119.999996337891,2|0,0:0|0:0,0:0:0:0:
376,252,132594,2,0,P|392:204|380:160,1,73.3333355712891,8|0,0:0|0:0,0:0:0:0:
264,62,132787,6,0,P|245:145|312:200,1,179.999994506836,6|0,0:0|0:0,0:0:0:0:
476,248,133171,2,0,B|376:252|376:252|320:300,1,146.666671142578,8|0,0:0|0:0,0:0:0:0:
144,296,133460,2,0,L|296:288,1,119.999996337891
376,180,133748,2,0,L|272:184,1,73.3333355712891,8|0,0:0|0:0,0:0:0:0:
60,136,133940,22,0,P|152:156|144:292,1,220.000006713867,12|0,0:0|0:0,0:0:0:0:
376,352,134325,1,8,0:0:0:0:
392,312,134421,1,8,0:3:0:0:
420,280,134517,1,8,0:3:0:0:
384,208,134614,1,8,0:0:0:0:
341,214,134710,1,4,0:3:0:0:
299,205,134806,1,4,0:3:0:0:
312,292,134902,37,8,0:0:0:0:
348,60,135094,1,12,0:0:0:0:
332,52,136344,22,0,L|208:48,1,119.999996337891,6|0,0:0|0:0,0:0:0:0:
184,20,136633,2,0,P|106:40|78:112,1,159.999995117188,8|0,0:0|0:0,0:0:0:0:
236,196,136921,2,0,P|217:140|168:108,1,119.999996337891,2|0,0:0|0:0,0:0:0:0:
128,224,137210,2,0,L|228:216,1,79.9999975585938,8|0,0:0|0:0,0:0:0:0:
370,265,137402,6,0,P|334:201|222:205,1,179.999994506836,2|0,0:0|0:0,0:0:0:0:
48,230,137787,2,0,L|207:217,1,159.999995117188,8|0,0:0|0:0,0:0:0:0:
357,355,138075,2,0,P|305:329|280:276,1,119.999996337891,2|0,0:0|0:0,0:0:0:0:
369,113,138364,2,0,B|395:195|395:195|363:283,1,159.999995117188,8|0,0:0|0:0,0:0:0:0:
276,136,138652,70,0,P|280:80|332:20,1,119.999996337891,2|0,0:0|0:0,0:0:0:0:
207,216,138940,2,0,P|194:140|130:95,1,159.999995117188,8|0,0:0|0:0,0:0:0:0:
5,132,139229,2,0,B|109:124|109:124|141:80,1,139.999995727539,2|0,0:0|0:0,0:0:0:0:
236,84,139517,2,0,P|192:12|128:-4,1,79.9999975585938,8|0,0:0|0:0,0:0:0:0:
100,224,139710,6,0,B|208:216|208:216|280:244,1,179.999994506836,2|0,0:0|0:0,0:0:0:0:
92,316,140094,2,0,P|24:276|16:188,1,159.999995117188,8|0,0:0|0:0,0:0:0:0:
148,104,140383,2,0,P|151:162|118:212,1,119.999996337891,2|0,0:0|0:0,0:0:0:0:
68,56,140671,2,0,B|116:72|116:72|188:56|188:56|280:80,1,159.999995117188,8|0,0:0|0:0,0:0:0:0:
376,40,140960,6,0,P|324:60|248:44,1,119.999996337891,6|0,0:0|0:0,0:0:0:0:
268,280,141248,2,0,L|364:152,1,159.999995117188,8|0,0:0|0:0,0:0:0:0:
472,113,141537,2,0,P|463:172|484:228,1,119.999996337891,2|0,0:0|0:0,0:0:0:0:
440,316,141825,2,0,P|400:312|320:332,1,79.9999975585938,8|0,0:0|0:0,0:0:0:0:
236,196,142017,6,0,P|300:196|360:296,1,179.999994506836,2|0,0:0|0:0,0:0:0:0:
152,256,142402,2,0,P|136:192|188:100,1,159.999995117188,8|0,0:0|0:0,0:0:0:0:
228,308,142690,2,0,P|164:348|96:328,1,119.999996337891,2|0,0:0|0:0,0:0:0:0:
55,153,142979,2,0,P|127:182|152:256,1,159.999995117188,8|0,0:0|0:0,0:0:0:0:
16,72,143267,22,0,L|252:64,1,173.333325398763,8|0,0:0|0:0,0:0:0:0:
436,160,143556,2,0,L|262:167,1,173.333325398763,8|0,0:0|0:0,0:0:0:0:
447,56,143844,1,8,0:0:0:0:
399,57,143940,1,8,0:3:0:0:
352,59,144036,1,8,0:3:0:0:
304,61,144132,1,8,0:0:0:0:
480,308,144325,38,0,P|452:172|284:184,1,259.999988098145,12|0,0:0|0:0,0:0:0:0:
256,224,144710,1,8,0:0:0:0:
300,216,144806,1,8,0:3:0:0:
344,224,144902,1,8,0:3:0:0:
300,296,144998,1,2,0:0:0:0:
256,304,145094,1,8,0:3:0:0:
212,296,145190,1,8,0:3:0:0:
168,224,145287,1,8,0:0:0:0:
212,216,145383,1,4,0:3:0:0:
256,224,145479,1,4,0:3:0:0:
212,296,145575,22,0,P|152:308|88:232,1,119.999996337891,6|0,0:0|0:0,0:0:0:0:
142,121,145864,2,0,B|174:101|174:101|166:261,1,159.999995117188,8|0,0:0|0:0,0:0:0:0:
264,96,146152,2,0,P|236:32|176:12,1,119.999996337891,2|0,0:0|0:0,0:0:0:0:
62,121,146440,2,0,L|142:121,1,79.9999975585938,8|0,0:0|0:0,0:0:0:0:
349,69,146633,6,0,P|334:154|256:192,1,179.999994506836,2|0,0:0|0:0,0:0:0:0:
88,192,147017,2,0,B|196:192|196:192|252:232,1,159.999995117188,8|0,0:0|0:0,0:0:0:0:
40,268,147306,2,0,P|0:200|28:128,1,119.999996337891,2|0,0:0|0:0,0:0:0:0:
308,164,147594,2,0,P|320:256|240:312,1,159.999995117188,8|0,0:0|0:0,0:0:0:0:
244,120,147883,70,0,L|388:112,1,119.999996337891,2|0,0:0|0:0,0:0:0:0:
484,208,148171,2,0,L|304:196,1,159.999995117188,8|0,0:0|0:0,0:0:0:0:
448,56,148460,2,0,P|464:104|440:184,1,119.999996337891,2|0,0:0|0:0,0:0:0:0:
396,316,148748,2,0,P|388:260|400:224,1,79.9999975585938,8|0,0:0|0:0,0:0:0:0:
219,218,148940,6,0,B|273:212|273:212|347:242|347:242|427:234,1,179.999994506836,6|0,0:0|0:0,0:0:0:0:
200,308,149325,1,8,0:0:0:0:
160,296,149421,1,8,0:3:0:0:
120,300,149517,1,8,0:3:0:0:
36,332,149614,1,2,0:0:0:0:
32,292,149710,1,4,0:3:0:0:
44,252,149806,1,4,0:3:0:0:
124,212,149902,1,8,0:0:0:0:
128,172,149998,1,4,0:3:0:0:
116,132,150094,1,4,0:3:0:0:
44,80,150190,6,0,L|220:72,1,119.999996337891,2|0,0:0|0:0,0:0:0:0:
284,40,150479,2,0,P|384:56|424:168,1,159.999995117188,8|0,0:0|0:0,0:0:0:0:
264,244,150767,2,0,B|284:164|284:164|356:120,1,119.999996337891,2|0,0:0|0:0,0:0:0:0:
417,97,151056,2,0,P|428:136|423:175,1,79.9999975585938,8|0,0:0|0:0,0:0:0:0:
344,296,151248,6,0,P|248:280|144:304,1,179.999994506836,6|0,0:0|0:0,0:0:0:0:
336,184,151633,2,0,P|252:204|160:172,1,159.999995117188,8|0,0:0|0:0,0:0:0:0:
316,92,151921,2,0,P|252:80|188:96,1,119.999996337891,2|0,0:0|0:0,0:0:0:0:
256,360,152210,2,0,L|256:192,1,159.999995117188,8|0,0:0|0:0,0:0:0:0:
208,79,152498,70,0,P|196:162|125:209,1,173.333325398763,12|0,0:0|0:0,0:0:0:0:
336,296,152787,2,0,P|260:258|176:296,1,173.333325398763,8|0,0:0|0:0,0:0:0:0:
306,70,153075,1,8,0:0:0:0:
301,127,153171,1,8,0:3:0:0:
328,178,153267,1,8,0:3:0:0:
377,207,153363,1,8,0:3:0:0:
475,59,153556,6,0,B|443:56|418:77|418:77|362:57|362:57|333:78|275:67,1,179.999994506836,6|0,0:0|0:0,0:0:0:0:
224,160,153940,2,0,P|192:84|208:28,1,79.9999975585938,8|0,0:0|0:0,0:0:0:0:
48,64,154133,1,0,0:0:0:0:
92,92,154229,2,0,P|104:196|76:236,1,119.999996337891,2|0,0:0|0:0,0:0:0:0:
12,260,154517,2,0,L|208:248,1,159.999995117188,12|0,0:0|0:0,0:0:0:0:
292,332,154806,102,0,P|276:272|308:192,1,139.999995727539,6|0,0:0|0:0,0:0:0:0:
480,324,155094,2,0,P|436:367|350:380,1,139.999995727539,2|0,0:0|0:0,0:0:0:0:
376,164,155383,2,0,P|435:180|489:247,1,139.999995727539,2|0,0:0|0:0,0:0:0:0:
384,276,155671,1,8,0:0:0:0:
360,30,155864,54,0,B|360:68|396:96|396:96|372:128|376:176,1,150.000005722046,2|0,0:0|0:0,0:0:0:0:
176,84,156248,2,0,B|222:24|222:24|301:-2,1,139.999995727539,2|0,0:0|0:0,0:0:0:0:
312,216,156537,2,0,B|237:205|237:205|174:150,1,139.999995727539,2|0,0:0|0:0,0:0:0:0:
392,148,156825,2,0,P|416:224|392:288,1,139.999995727539,8|0,0:0|0:0,0:0:0:0:
224,284,157114,38,0,P|168:288|100:352,1,119.999996337891,2|0,0:0|0:0,0:0:0:0:
76,136,157402,2,0,P|84:208|220:228,1,159.999995117188,8|0,0:0|0:0,0:0:0:0:
235,80,157690,2,0,P|183:108|160:162,1,119.999996337891,2|0,0:0|0:0,0:0:0:0:
224,284,157979,1,8,0:0:0:0:
372,44,158171,54,0,L|148:32,1,209.999993591309,6|0,0:0|0:0,0:0:0:0:
76,136,158556,2,0,L|180:144,1,79.9999975585938,8|0,0:0|0:0,0:0:0:0:
364,156,158748,2,0,P|288:148|224:268,1,209.999993591309,2|0,0:0|0:0,0:0:0:0:
320,244,159133,1,8,0:0:0:0:
364,240,159229,1,8,0:3:0:0:
408,236,159325,1,8,0:3:0:0:
484,284,159421,70,0,P|408:328|336:296,1,119.999996337891,6|0,0:0|0:0,0:0:0:0:
476,112,159710,2,0,B|472:168|472:168|496:208|496:208|492:276,1,159.999995117188,8|0,0:0|0:0,0:0:0:0:
320,244,159998,2,0,P|268:188|276:116,1,119.999996337891,2|0,0:0|0:0,0:0:0:0:
316,72,160287,1,8,0:0:0:0:
368,316,160479,54,0,B|296:328|296:328|228:312|228:312|160:324,1,209.999993591309,2|0,0:0|0:0,0:0:0:0:
144,160,160864,2,0,P|188:228|160:320,1,159.999995117188,8|0,0:0|0:0,0:0:0:0:
56,200,161152,2,0,P|52:136|88:80,1,119.999996337891,0|2,0:0|0:0,0:0:0:0:
297,160,161440,2,0,P|220:180|144:160,1,159.999995117188,8|0,0:0|0:0,0:0:0:0:
364,68,161729,86,0,P|400:124|404:160,1,80,6|0,0:0|0:0,0:0:0:0:
441,247,161921,2,0,P|374:250|341:235,1,80,0|8,0:0|0:0,0:0:0:0:
258,227,162114,2,0,P|288:167|317:146,1,80
476,52,162306,2,0,L|288:44,1,139.999995727539,2|0,0:0|0:0,0:0:0:0:
240,40,162594,1,0,0:0:0:0:
155,273,162787,70,0,B|306:260|306:260|230:208,1,209.999993591309,2|0,0:0|0:0,0:0:0:0:
64,196,163171,2,0,P|36:272|72:360,1,159.999995117188,8|0,0:0|0:0,0:0:0:0:
160,164,163460,1,8,0:0:0:0:
136,128,163556,1,4,0:3:0:0:
100,104,163652,1,4,0:3:0:0:
120,24,163748,1,8,0:0:0:0:
163,22,163844,1,4,0:3:0:0:
202,3,163940,1,4,0:3:0:0:
276,48,164037,6,0,P|240:108|252:196,1,159.999995117188,6|0,0:0|0:0,0:0:0:0:
446,227,164325,2,0,P|413:166|332:128,1,159.999995117188,2|0,0:0|0:0,0:0:0:0:
201,292,164614,2,0,P|280:288|344:232,1,159.999995117188,2|0,0:0|0:0,0:0:0:0:
256,60,164902,1,8,0:0:0:0:
74,144,165094,54,0,B|115:271|115:271|159:216,1,160,2|0,0:0|0:0,0:0:0:0:
160,42,165479,2,0,B|31:19|31:19|49:82,1,159.999995117188,2|0,0:0|0:0,0:0:0:0:
201,167,165767,2,0,B|284:67|284:67|221:50,1,159.999995117188,2|0,0:0|0:0,0:0:0:0:
72,180,166056,2,0,P|128:276|224:300,1,159.999995117188,8|0,0:0|0:0,0:0:0:0:
356,348,166344,38,0,B|296:336|296:336|212:352,1,119.999996337891,6|0,0:0|0:0,0:0:0:0:
376,188,166633,2,0,B|296:204|296:204|219:189,1,159.999995117188,8|0,0:0|0:0,0:0:0:0:
388,108,166921,2,0,P|444:144|440:240,1,119.999996337891,2|0,0:0|0:0,0:0:0:0:
368,268,167210,1,8,0:0:0:0:
328,40,167402,38,0,B|500:40|500:40|436:76,1,209.999993591309,6|0,0:0|0:0,0:0:0:0:
312,124,167787,1,8,0:0:0:0:
272,132,167883,1,8,0:3:0:0:
232,124,167979,1,8,0:3:0:0:
168,70,168075,1,2,0:0:0:0:
128,62,168171,1,8,0:3:0:0:
88,70,168267,1,8,0:3:0:0:
88,178,168364,1,8,0:0:0:0:
128,186,168460,1,4,0:3:0:0:
168,178,168556,1,4,0:3:0:0:
232,124,168652,101,6,0:0:0:0:
352,328,169710,101,6,0:0:0:0:
100,204,170575,69,2,0:0:0:0:
120,216,170671,2,0,P|172:164|48:176,1,283.333338737488,6|0,0:0|0:0,0:0:0:0:
28,244,170960,69,12,0:0:0:0:
340,184,171152,1,8,0:0:0:0:
180,312,171344,1,8,0:0:0:0:
492,140,171537,37,8,0:0:0:0:
180,80,171729,1,8,0:0:0:0:
340,208,171921,1,8,0:0:0:0:
260,16,172114,38,0,B|324:144|168:164|296:320,1,259.999988098145,2|2,0:0|0:0,0:0:0:0:
80,40,172690,1,6,0:0:0:0:
64,60,173267,5,2,0:0:0:0:
52,98,173363,1,0,0:0:0:0:
52,137,173459,1,0,0:0:0:0:
64,175,173555,1,8,0:0:0:0:
87,208,173651,1,0,0:0:0:0:
119,231,173747,1,0,0:0:0:0:
157,244,173843,1,2,0:0:0:0:
197,245,173940,1,0,0:0:0:0:
235,234,174036,1,0,0:0:0:0:
268,212,174132,1,8,0:0:0:0:
293,181,174228,1,0,0:0:0:0:
307,143,174324,1,0,0:0:0:0:
320,60,174421,5,2,0:0:0:0:
280,63,174517,1,0,0:0:0:0:
247,84,174613,1,0,0:0:0:0:
227,119,174709,1,8,0:0:0:0:
226,158,174805,1,0,0:0:0:0:
242,194,174901,1,0,0:0:0:0:
274,219,174997,1,2,0:0:0:0:
313,226,175094,1,0,0:0:0:0:
351,214,175190,1,0,0:0:0:0:
379,186,175286,1,8,0:0:0:0:
392,149,175382,1,0,0:0:0:0:
385,110,175478,1,0,0:0:0:0:
307,143,175575,5,2,0:0:0:0:
279,172,175671,1,0,0:0:0:0:
262,207,175767,1,0,0:0:0:0:
256,247,175863,1,8,0:0:0:0:
262,286,175959,1,0,0:0:0:0:
279,322,176055,1,0,0:0:0:0:
306,351,176151,1,2,0:0:0:0:
341,371,176248,1,0,0:0:0:0:
380,379,176344,1,0,0:0:0:0:
420,376,176440,1,8,0:0:0:0:
456,361,176536,1,0,0:0:0:0:
487,335,176632,1,0,0:0:0:0:
496,244,176729,22,0,L|412:220,1,53.3333333333333,2|0,0:0|0:0,0:0:0:0:
364,276,176921,1,8,0:0:0:0:
364,276,177017,2,0,L|303:213,1,53.3333333333333,8|0,0:0|0:0,0:0:0:0:
228,232,177210,1,2,0:0:0:0:
228,232,177306,2,8,L|206:147,1,53.3333333333333,0|0,0:0|0:0,0:0:0:0:
152,116,177498,1,8,0:0:0:0:
152,116,177594,2,0,L|176:32,2,53.3333333333333,8|0|0,0:0|0:0|0:0,0:0:0:0:
16,192,177883,22,0,P|112:188|156:224,1,106.666666666667,2|0,0:0|0:0,0:0:0:0:
168,292,178171,2,0,P|148:348|60:380,1,146.666671142578,8|0,0:0|0:0,0:0:0:0:
68,280,178460,1,2,0:0:0:0:
236,144,178652,1,0,0:0:0:0:
264,144,178748,2,0,P|320:124|348:36,1,146.666671142578,8|0,0:0|0:0,0:0:0:0:
152,116,179037,70,0,P|148:176|200:228,1,106.666666666667,2|0,0:0|0:0,0:0:0:0:
300,252,179325,1,8,0:0:0:0:
480,44,179517,2,0,P|392:44|292:152,1,200,2|0,0:0|0:0,0:0:0:0:
432,184,179902,2,0,B|432:276|432:276|380:360,1,133.333333333333,8|0,0:0|0:0,0:0:0:0:
192,252,180190,54,0,P|280:232|380:284,1,159.999995117188,12|0,0:0|0:0,0:0:0:0:
480,336,180479,2,0,P|392:356|292:304,1,159.999995117188,8|0,0:0|0:0,0:0:0:0:
228,92,180767,1,8,0:0:0:0:
223,141,180863,1,4,0:3:0:0:
219,190,180959,1,4,0:3:0:0:
214,239,181055,1,4,0:3:0:0:
208,0,181248,6,0,P|300:36|272:172,1,209.999993591309,6|0,0:0|0:0,0:0:0:0:
114,32,181633,2,0,P|132:62|160:84,2,69.9999978637696,8|8|8,0:0|0:3|0:3,0:0:0:0:
76,244,181921,2,0,P|111:243|144:230,2,69.9999978637696,2|8|8,0:0|0:3|0:3,0:0:0:0:
240,380,182210,2,0,P|256:349|261:314,2,69.9999978637696,2|4|4,0:0|0:3|0:3,0:0:0:0:
448,328,182498,5,6,0:0:0:0:
442,278,182594,1,0,0:0:0:0:
412,239,182690,1,0,0:0:0:0:
366,222,182787,2,0,L|311:233,2,50.0000019073487,8|0|0,0:0|0:0|0:0,0:0:0:0:
232,280,183075,1,2,0:0:0:0:
217,230,183171,1,0,0:0:0:0:
229,183,183267,1,0,0:0:0:0:
264,149,183364,2,0,L|319:137,2,50.0000019073487,8|0|0,0:0|0:0|0:0,0:0:0:0:
440,96,183652,6,0,L|372:84,1,50.0000019073487,2|0,0:0|0:0,0:0:0:0:
320,32,183844,1,0,0:0:0:0:
320,32,183940,2,0,L|255:55,1,50.0000019073487,8|0,0:0|0:0,0:0:0:0:
185,37,184132,1,0,0:0:0:0:
185,37,184229,2,0,L|140:89,1,50.0000019073487,2|0,0:0|0:0,0:0:0:0:
70,108,184421,1,0,0:0:0:0:
70,108,184517,2,0,L|58:176,2,50.0000019073487,8|0|0,0:0|0:0|0:0,0:0:0:0:
5,226,184806,5,6,0:0:0:0:
50,244,184902,1,0,0:0:0:0:
98,235,184998,1,0,0:0:0:0:
133,200,185094,2,0,L|148:120,2,50.0000019073487,8|0|0,0:0|0:0|0:0,0:0:0:0:
184,276,185383,1,2,0:0:0:0:
229,257,185479,1,0,0:0:0:0:
277,266,185575,1,0,0:0:0:0:
312,301,185671,2,0,L|326:381,1,50.0000019073487,8|0,0:0|0:0,0:0:0:0:
456,348,185864,5,0,0:0:0:0:
456,348,185960,2,0,L|447:298,1,50.0000019073487,6|0,0:0|0:0,0:0:0:0:
356,176,186152,1,8,0:0:0:0:
356,176,186248,2,0,L|364:225,1,50.0000019073487,8|0,0:0|0:0,0:0:0:0:
392,52,186440,70,0,L|383:2,2,50.0000019073487,6|0|0,0:0|0:0|0:0,0:0:0:0:
440,148,186729,1,8,0:0:0:0:
392,152,186825,1,8,0:0:0:0:
344,152,186921,1,4,0:3:0:0:
296,156,187017,1,4,0:3:0:0:
244,228,187114,5,2,0:0:0:0:
213,184,187210,1,0,0:0:0:0:
211,131,187306,1,0,0:0:0:0:
160,56,187402,21,8,0:0:0:0:
129,100,187498,1,0,0:0:0:0:
127,153,187594,1,0,0:0:0:0:
84,232,187690,70,0,L|-3:256,2,53.3333333333333,2|0|0,0:0|0:0|0:0,0:0:0:0:
292,328,187979,2,0,L|379:352,2,53.3333333333333,8|0|0,0:0|0:0|0:0,0:0:0:0:
347,171,188267,5,2,0:0:0:0:
296,156,188363,1,0,0:0:0:0:
244,166,188459,1,0,0:0:0:0:
191,251,188555,21,8,0:0:0:0:
243,265,188652,1,0,0:0:0:0:
295,254,188748,1,4,0:0:0:0:
347,171,188844,54,0,L|367:87,1,53.3333333333333,2|0,0:0|0:0,0:0:0:0:
339,35,189037,1,0,0:0:0:0:
443,59,189133,5,8,0:0:0:0:
461,109,189229,1,0,0:0:0:0:
453,161,189325,1,0,0:0:0:0:
368,208,189421,38,0,L|156:212,1,159.999995117188,12|0,0:0|0:0,0:0:0:0:
72,104,189710,2,0,L|284:100,1,159.999995117188,8|0,0:0|0:0,0:0:0:0:
192,308,189998,2,0,P|124:260|128:156,1,159.999995117188,8|2,0:0|0:0,0:0:0:0:
316,100,190287,1,2,0:0:0:0:
404,324,190479,38,0,B|421:302|421:302|449:303|449:303|457:274|457:274|483:264|483:264|482:233|482:233|502:212|502:212|489:186|489:186|501:160|501:160|481:142|481:142|481:115|481:115|455:101|455:101|445:72|445:72|416:72|416:72|397:52|397:52|368:54|368:54,1,389.999982147218,6|0,0:0|0:0,0:0:0:0:
328,0,191440,70,0,P|308:81|392:160,1,159.999995117188,6|0,0:0|0:0,0:0:0:0:
328,384,191729,22,0,P|308:303|392:224,1,159.999995117188,2|0,0:0|0:0,0:0:0:0:
488,176,192210,1,0,0:0:0:0:
504,192,192306,2,0,B|464:200|464:200|404:188|404:188|340:200,1,139.999995727539,8|8,0:0|0:3,0:0:0:0:
256,224,192594,1,4,0:3:0:0:
73,99,192787,6,0,P|157:79|224:134,1,179.999994506836,6|0,0:0|0:0,0:0:0:0:
256,224,193171,2,0,P|176:219|129:155,1,139.999995727539,8|0,0:0|0:0,0:0:0:0:
316,108,193460,1,2,0:0:0:0:
324,148,193556,1,8,0:3:0:0:
332,188,193652,1,8,0:3:0:0:
324,272,193748,1,8,0:0:0:0:
332,312,193844,1,4,0:3:0:0:
340,352,193940,1,4,0:3:0:0:
256,340,194037,54,0,B|157:329|157:329|92:356,1,160,6|0,0:0|0:0,0:0:0:0:
32,172,194517,1,0,0:0:0:0:
56,156,194614,2,0,P|112:192|124:292,1,139.999995727539,8|8,0:0|0:3,0:0:0:0:
28,256,194902,1,4,0:3:0:0:
16,80,195094,102,0,B|112:48|124:148|236:56,1,179.999994506836,6|0,0:0|0:0,0:0:0:0:
268,24,195479,1,8,0:0:0:0:
508,124,195671,1,8,0:3:0:0:
500,152,195767,1,2,0:0:0:0:
460,168,195864,1,8,0:3:0:0:
420,180,195960,1,8,0:3:0:0:
368,248,196056,1,8,0:0:0:0:
328,264,196153,1,4,0:3:0:0:
288,276,196249,1,4,0:3:0:0:
216,324,196344,38,0,P|204:280|212:240,2,59.9999981689454,6|0|0,0:0|0:0|0:0,0:0:0:0:
120,204,196633,2,0,P|152:171|190:158,2,59.9999981689454,8|0|0,0:0|0:0|0:0,0:0:0:0:
104,56,196921,1,2,0:0:0:0:
144,68,197017,1,0,0:0:0:0:
184,56,197114,1,0,0:0:0:0:
256,96,197210,1,8,0:0:0:0:
296,84,197306,1,0,0:0:0:0:
336,96,197403,1,0,0:0:0:0:
400,44,197498,5,2,0:0:0:0:
416,84,197594,1,0,0:0:0:0:
412,124,197690,1,0,0:0:0:0:
348,176,197787,1,8,0:0:0:0:
332,136,197883,1,0,0:0:0:0:
336,96,197979,1,0,0:0:0:0:
412,124,198075,69,2,0:0:0:0:
428,164,198171,1,0,0:0:0:0:
424,204,198267,1,0,0:0:0:0:
360,256,198364,1,8,0:0:0:0:
344,216,198460,1,0,0:0:0:0:
348,176,198556,1,0,0:0:0:0:
424,204,198652,54,0,P|440:280|384:336,1,119.999996337891,2|0,0:0|0:0,0:0:0:0:
222,284,198940,2,0,B|262:256|262:256|370:256,1,146.666671142578,8|0,0:0|0:0,0:0:0:0:
232,368,199229,2,0,P|158:343|137:267,1,119.999996337891,2|0,0:0|0:0,0:0:0:0:
266,150,199517,1,8,0:0:0:0:
64,360,199710,70,0,B|44:305|44:305|60:216|60:216|36:148,1,200,6|0,0:0|0:0,0:0:0:0:
124,32,200094,1,8,0:0:0:0:
164,56,200190,1,8,0:3:0:0:
188,96,200287,1,8,0:3:0:0:
101,120,200383,1,2,0:0:0:0:
101,73,200479,1,4,0:3:0:0:
124,32,200576,1,4,0:3:0:0:
188,96,200671,1,8,0:0:0:0:
147,119,200767,1,4,0:3:0:0:
100,120,200864,1,4,0:3:0:0:
256,32,200960,102,0,B|320:4|376:32|376:32|392:148|548:104|472:-20|416:80,1,359.999989013672,6|2,0:0|0:0,0:0:0:0:
376,155,202017,2,0,P|400:265|512:272,1,239.999992675781,6|0,0:0|0:0,0:0:0:0:
460,200,202690,1,8,0:0:0:0:
464,232,202787,1,8,0:3:0:0:
468,264,202883,1,8,0:3:0:0:
380,248,202979,1,4,0:0:0:0:
376,280,203076,1,4,0:3:0:0:
372,312,203172,1,4,0:3:0:0:
448,368,203267,38,0,B|388:336|332:352|332:352|132:324|220:416|336:368,1,359.999989013672,6|0,0:0|0:0,0:0:0:0:
290,262,204325,2,0,P|262:218|146:206,1,159.999995117188,6|0,0:0|0:0,0:0:0:0:
108,364,204902,1,0,0:0:0:0:
128,384,204998,2,0,L|124:236,1,106.666666666667,2|0,0:0|0:0,0:0:0:0:
108,268,205287,2,0,P|77:191|128:116,1,173.333325398763,8|0,0:0|0:0,0:0:0:0:
273,179,205575,38,0,B|237:199|237:199|202:182|161:198,1,119.999996337891,6|0,0:0|0:0,0:0:0:0:
328,104,205864,2,0,P|364:172|320:264,1,146.666671142578,8|0,0:0|0:0,0:0:0:0:
232,96,206152,2,0,P|248:48|328:8,1,119.999996337891,2|0,0:0|0:0,0:0:0:0:
273,179,206440,2,0,P|236:188|168:164,1,73.3333355712891,8|0,0:0|0:0,0:0:0:0:
52,104,206633,6,0,L|236:96,1,179.999994506836,6|0,0:0|0:0,0:0:0:0:
168,264,207017,2,0,P|116:196|172:96,1,146.666671142578,8|0,0:0|0:0,0:0:0:0:
256,68,207306,2,0,L|388:64,1,119.999996337891,2|0,0:0|0:0,0:0:0:0:
468,144,207594,2,0,L|392:148,1,73.3333355712891,8|0,0:0|0:0,0:0:0:0:
369,297,207787,22,0,P|317:241|157:277,1,239.999992675781,12|0,0:0|0:0,0:0:0:0:
384,384,208171,2,0,L|432:192,1,159.999995117188,8|0,0:0|0:0,0:0:0:0:
132,348,208460,1,8,0:0:0:0:
129,294,208556,1,8,0:3:0:0:
127,241,208652,1,8,0:3:0:0:
125,188,208748,1,8,0:3:0:0:
256,348,208940,1,6,0:0:0:0:
248,324,209517,102,0,B|244:308|252:276|252:276|304:224|324:132|264:92|176:64|192:96|200:144|308:200|204:248|176:244,1,396.666674232483,2|0,0:0|0:0,0:0:0:0:
140,160,210383,1,0,0:0:0:0:
148,180,210479,1,0,0:0:0:0:
252,184,210767,1,0,0:0:0:0:
356,188,211056,1,0,0:0:0:0:
460,192,211344,21,0,0:0:0:0:
507,102,211633,1,2,0:0:0:0:
406,271,211921,5,0,0:0:0:0:
500,275,212114,1,0,0:0:0:0:
512,284,212210,1,2,0:0:0:0:
314,245,212402,69,0,0:0:0:0:
460,192,212690,37,0,0:0:0:0:
473,192,212787,1,2,0:0:0:0:
337,330,212979,1,0,0:0:0:0:
332,342,213076,1,0,0:0:0:0:
310,149,213364,101,2,0:0:0:0:
224,179,213556,1,0,0:0:0:0:
211,184,213653,1,0,0:0:0:0:
401,116,213941,5,2,0:0:0:0:
330,44,214230,1,0,0:0:0:0:
380,192,214421,1,0,0:0:0:0:
385,203,214517,1,2,0:0:0:0:
236,84,214710,70,0,B|160:64|176:120|72:88,1,129.999994049073
40,144,215094,1,2,0:0:0:0:
128,12,215287,1,0,0:0:0:0:
140,4,215383,1,0,0:0:0:0:
208,164,215575,1,0,0:0:0:0:
196,172,215671,1,2,0:0:0:0:
74,174,215864,21,0,0:0:0:0:
90,173,215960,1,0,0:0:0:0:
130,269,216152,1,0,0:0:0:0:
139,255,216248,1,2,0:0:0:0:
241,287,216440,1,0,0:0:0:0:
236,272,216537,2,0,B|272:268|272:268|344:288|344:288|408:280,1,150.000005722046,0|2,0:0|0:0,0:0:0:0:
432,208,217017,6,0,P|468:256|456:336,1,129.999994049073
382,283,217402,1,2,0:0:0:0:
356,160,217594,1,0,0:0:0:0:
352,144,217690,1,0,0:0:0:0:
464,112,217979,2,0,P|448:72|392:36,1,100.000003814697,2|0,0:0|0:0,0:0:0:0:
288,72,218267,70,0,P|212:72|172:12,1,150.000005722046,0|2,0:0|0:0,0:0:0:0:
384,40,218748,1,0,0:0:0:0:
380,56,218844,1,0,0:0:0:0:
320,244,219037,1,0,0:0:0:0:
316,228,219133,1,0,0:0:0:0:
56,184,219325,6,0,B|103:154|103:154|148:176|212:156|212:156|288:204,1,220.000006713867,6|0,0:0|0:0,0:0:0:0:
192,252,219710,1,8,0:0:0:0:
176,284,219806,1,8,0:3:0:0:
180,320,219902,1,8,0:3:0:0:
260,300,219998,1,2,0:0:0:0:
279,329,220094,1,8,0:3:0:0:
312,344,220190,1,8,0:3:0:0:
336,264,220287,1,8,0:0:0:0:
370,262,220383,1,4,0:3:0:0:
400,240,220479,1,4,0:3:0:0:
344,184,220575,70,0,P|332:108|264:72,1,119.999996337891,6|0,0:0|0:0,0:0:0:0:
152,48,220864,2,0,L|340:44,1,159.999995117188,8|0,0:0|0:0,0:0:0:0:
104,128,221152,2,0,P|64:84|61:25,1,119.999996337891,2|0,0:0|0:0,0:0:0:0:
200,140,221440,1,8,0:0:0:0:
36,260,221633,6,0,B|92:252|92:252|164:272|164:272|236:260,1,179.999994506836,2|0,0:0|0:0,0:0:0:0:
360,236,222017,2,0,B|280:224|280:224|200:236,1,159.999995117188,8|0,0:0|0:0,0:0:0:0:
396,324,222306,2,0,P|440:280|432:184,1,119.999996337891,2|0,0:0|0:0,0:0:0:0:
362,88,222594,2,0,P|334:156|382:256,1,159.999995117188,8|0,0:0|0:0,0:0:0:0:
460,64,222883,70,0,P|396:76|320:48,1,119.999996337891,2|0,0:0|0:0,0:0:0:0:
136,36,223171,2,0,P|220:4|312:44,1,159.999995117188,12|0,0:0|0:0,0:0:0:0:
116,108,223460,2,0,P|61:132|2:131,1,119.999996337891,2|0,0:0|0:0,0:0:0:0:
40,24,223748,1,8,0:0:0:0:
208,184,223940,2,0,B|192:216|192:216|212:288|224:388|80:384|292:320,1,239.999992675781,6|0,0:0|0:0,0:0:0:0:
448,308,224325,2,0,P|376:284|272:332,1,159.999995117188,8|0,0:0|0:0,0:0:0:0:
120,324,224614,1,2,0:0:0:0:
132,287,224710,1,8,0:3:0:0:
127,248,224806,1,8,0:3:0:0:
80,180,224902,1,8,0:0:0:0:
75,141,224998,1,4,0:3:0:0:
87,104,225094,1,4,0:3:0:0:
140,44,225190,22,0,L|312:56,1,119.999996337891,6|0,0:0|0:0,0:0:0:0:
416,96,225479,2,0,L|200:84,1,159.999995117188,8|0,0:0|0:0,0:0:0:0:
500,44,225767,2,0,P|512:80|472:180,1,119.999996337891,2|0,0:0|0:0,0:0:0:0:
400,192,226056,1,8,0:0:0:0:
244,332,226248,2,0,B|416:312|416:312|344:360,1,209.999993591309,6|0,0:0|0:0,0:0:0:0:
144,308,226633,2,0,P|180:260|288:248,1,159.999995117188,8|0,0:0|0:0,0:0:0:0:
136,184,226921,2,0,L|216:52,1,119.999996337891,2|0,0:0|0:0,0:0:0:0:
24,228,227210,2,0,P|49:173|9:72,1,159.999995117188,8|0,0:0|0:0,0:0:0:0:
218,47,227498,38,0,L|448:64,1,173.333325398763,14|0,0:0|0:0,0:0:0:0:
338,283,227787,2,8,L|232:72,1,173.333325398763,10|0,0:0|0:0,0:0:0:0:
492,68,228075,1,8,0:0:0:0:
462,112,228171,1,4,0:3:0:0:
432,156,228267,1,4,0:3:0:0:
402,200,228363,1,4,0:3:0:0:
38,67,228556,2,0,B|96:38|152:62|152:62|268:110|290:3|162:67,1,259.999988098145,6|0,0:0|0:0,0:0:0:0:
80,240,228940,2,0,P|40:216|20:152,2,86.6666626993817,8|0|0,0:0|0:0|0:0,0:0:0:0:
228,160,229229,70,0,P|201:169|172:170,1,56.6666677474976,2|0,0:0|0:0,0:0:0:0:
210,131,229325,6,0,P|191:152|167:167,1,56.6666677474976,8|0,0:3|0:0,0:0:0:0:
182,113,229422,70,0,P|176:139|163:165,1,56.6666677474976,8|0,0:3|0:0,0:0:0:0:
148,114,229518,70,0,P|157:139|158:168,1,56.6666677474976,8|0,0:0|0:0,0:0:0:0:
121,126,229614,70,0,P|142:143|157:167,1,56.6666677474976,4|0,0:3|0:0,0:0:0:0:
100,152,229710,6,0,P|126:156|152:169,1,56.6666677474976,4|0,0:3|0:0,0:0:0:0:
100,256,229806,102,0,P|168:272|252:196,1,133.333333333333,6|0,0:0|0:0,0:0:0:0:
392,260,230094,2,0,P|304:276|256:376,1,180.000000686646,8|0,0:0|0:0,0:0:0:0:
484,288,230383,2,0,P|480:224|428:176,1,133.333333333333,2|0,0:0|0:0,0:0:0:0:
360,360,230671,1,8,0:0:0:0:
499,139,230864,6,0,L|300:132,1,200,2|0,0:0|0:0,0:0:0:0:
156,40,231248,2,0,L|336:48,1,180.000000686646,8|0,0:0|0:0,0:0:0:0:
32,136,231537,2,0,P|68:84|164:72,1,133.333333333333,2|0,0:0|0:0,0:0:0:0:
256,240,231825,2,0,P|208:168|108:160,1,180.000000686646,8|0,0:0|0:0,0:0:0:0:
216,384,232114,70,0,P|200:324|236:252,1,133.333333333333,6|0,0:0|0:0,0:0:0:0:
272,48,232402,2,0,P|308:128|236:256,1,180.000000686646,8|0,0:0|0:0,0:0:0:0:
17,284,232690,2,0,B|64:256|64:256|156:248,1,146.666671142578,2|0,0:0|0:0,0:0:0:0:
345,233,232979,2,0,L|241:241,1,90.0000003433228,8|0,0:0|0:0,0:0:0:0:
112,336,233171,6,0,P|60:264|124:152,1,200,6|0,0:0|0:0,0:0:0:0:
276,132,233556,2,0,B|224:140|224:140|156:124|156:124|92:132,1,180.000000686646,8|0,0:0|0:0,0:0:0:0:
226,66,233844,53,2,0:0:0:0:
272,48,233940,1,8,0:3:0:0:
319,61,234037,1,8,0:3:0:0:
326,199,234133,101,8,0:0:0:0:
280,217,234229,1,4,0:3:0:0:
233,204,234326,1,4,0:3:0:0:
276,132,234421,86,0,P|368:124|416:204,1,133.333333333333,6|0,0:0|0:0,0:0:0:0:
383,341,234710,2,0,P|318:285|326:199,1,180.000000686646,8|0,0:0|0:0,0:0:0:0:
496,175,234998,2,0,P|461:231|400:252,1,133.333333333333,2|0,0:0|0:0,0:0:0:0:
240,192,235287,2,0,L|352:180,1,90.0000003433228,8|0,0:0|0:0,0:0:0:0:
180,360,235479,6,0,B|164:320|164:320|188:268|188:268|148:236|136:180|180:128,1,200,6|0,0:0|0:0,0:0:0:0:
222,26,235864,2,0,B|204:56|205:103|205:103|240:132|248:164|239:191,1,180.000000686646,8|0,0:0|0:0,0:0:0:0:
84,118,236152,2,0,P|143:90|208:104,1,133.333333333333,2|0,0:0|0:0,0:0:0:0:
204,264,236440,2,0,P|104:264|56:160,1,180.000000686646,8|0,0:0|0:0,0:0:0:0:
424,24,236729,6,0,P|492:104|484:224,1,193.333339233399,12|0,0:0|0:0,0:0:0:0:
244,296,237017,2,0,P|176:216|184:96,1,193.333339233399,8|0,0:0|0:0,0:0:0:0:
468,260,237306,1,8,0:0:0:0:
428,304,237402,1,8,0:3:0:0:
375,328,237498,1,8,0:3:0:0:
316,328,237594,1,8,0:3:0:0:
176,116,237787,6,0,P|228:36|440:44,1,290.000008850098,6|0,0:0|0:0,0:0:0:0:
358,167,238171,69,8,0:0:0:0:
316,187,238267,1,8,0:3:0:0:
318,140,238364,1,8,0:3:0:0:
349,183,238460,5,2,0:0:0:0:
305,173,238556,1,8,0:3:0:0:
337,138,238653,1,8,0:3:0:0:
333,192,238748,69,8,0:0:0:0:
306,155,238844,1,4,0:3:0:0:
353,148,238941,1,4,0:3:0:0:
312,275,239037,22,0,P|260:251|224:135,1,133.333333333333,6|0,0:0|0:0,0:0:0:0:
64,120,239325,2,0,L|272:104,1,180.000000686646,8|0,0:0|0:0,0:0:0:0:
452,48,239614,2,0,L|319:58,1,133.333333333333,2|0,0:0|0:0,0:0:0:0:
128,36,239902,2,0,L|232:28,1,90.0000003433228,8|0,0:0|0:0,0:0:0:0:
442,171,240094,6,0,P|412:80|319:58,1,200,6|0,0:0|0:0,0:0:0:0:
232,248,240479,2,0,B|288:236|288:236|360:256|360:256|424:240,1,180.000000686646,8|0,0:0|0:0,0:0:0:0:
143,191,240767,2,0,P|127:255|152:316,1,133.333333333333,2|0,0:0|0:0,0:0:0:0:
200,104,241056,2,0,B|144:92|144:92|72:112|72:112|8:96,1,180.000000686646,8|0,0:0|0:0,0:0:0:0:
288,160,241344,70,0,P|364:168|428:96,1,133.333333333333,6|0,0:0|0:0,0:0:0:0:
332,72,241633,2,0,L|384:312,1,180.000000686646,8|0,0:0|0:0,0:0:0:0:
111,225,241921,2,0,P|187:217|251:289,1,133.333333333333,2|0,0:0|0:0,0:0:0:0:
155,313,242210,2,0,P|112:324|52:300,1,90.0000003433228,8|0,0:0|0:0,0:0:0:0:
26,80,242402,6,0,P|109:128|111:224,1,200,6|0,0:0|0:0,0:0:0:0:
248,300,242787,5,8,0:0:0:0:
236,248,242883,1,8,0:3:0:0:
224,196,242979,1,8,0:3:0:0:
312,260,243075,5,2,0:0:0:0:
324,208,243171,1,8,0:3:0:0:
336,156,243267,1,8,0:3:0:0:
216,228,243364,69,8,0:0:0:0:
204,176,243460,1,4,0:3:0:0:
192,124,243556,1,4,0:3:0:0:
308,184,243652,22,0,L|336:53,1,133.333333333333,6|0,0:0|0:0,0:0:0:0:
136,248,243940,2,0,L|180:56,1,180.000000686646,8|0,0:0|0:0,0:0:0:0:
440,264,244229,2,0,L|468:133,1,133.333333333333,2|0,0:0|0:0,0:0:0:0:
280,8,244517,2,0,L|300:128,1,90.0000003433228,8|0,0:0|0:0,0:0:0:0:
257,329,244710,6,0,P|153:305|17:357,1,200,6|0,0:0|0:0,0:0:0:0:
313,237,245094,2,0,L|173:65,1,180.000000686646,8|0,0:0|0:0,0:0:0:0:
425,197,245383,85,8,0:0:0:0:
400,128,245479,1,4,0:3:0:0:
423,58,245575,1,4,0:3:0:0:
481,14,245671,2,0,P|495:66|476:120,2,66.6666666666667,8|0|0,0:0|0:0|0:0,0:0:0:0:
68,80,245960,54,0,B|120:64|120:64|212:92|212:92|360:52,1,206.666668243408,12|0,0:0|0:0,0:0:0:0:
68,304,246248,2,0,B|120:320|120:320|212:292|212:292|266:306,1,206.666668243408,8|0,0:0|0:0,0:0:0:0:
368,92,246537,69,2,0:0:0:0:
387,157,246633,1,8,0:3:0:0:
386,226,246729,1,8,0:3:0:0:
365,291,246825,1,8,0:3:0:0:
0,192,247017,86,0,L|316:192,1,310.000002365112,6|0,0:0|0:0,0:0:0:0:
388,83,247402,69,4,0:3:0:0:
409,155,247498,1,4,0:3:0:0:
409,230,247594,1,4,0:3:0:0:
385,302,247690,1,4,0:3:0:0:
152,60,247979,101,6,0:0:0:0:
144,88,248267,22,0,L|32:96,1,100.000003814697,2|0,0:0|0:0,0:0:0:0:
240,136,248556,2,0,P|248:76|204:4,1,133.333333333333,8|0,0:0|0:0,0:0:0:0:
226,240,248844,2,0,L|338:232,1,100.000003814697,2|0,0:0|0:0,0:0:0:0:
121,261,249133,2,0,P|163:331|231:347,1,133.333333333333,8|0,0:0|0:0,0:0:0:0:
340,220,249421,6,0,L|241:228,1,100.000003814697,2|0,0:0|0:0,0:0:0:0:
400,296,249710,2,0,L|333:301,1,66.6666666666667,8|0,0:0|0:0,0:0:0:0:
284,144,249902,2,0,L|496:128,1,170.000003242493,2|0,0:0|0:0,0:0:0:0:
296,60,250287,1,8,0:0:0:0:
276,53,250383,1,0,0:0:0:0:
257,47,250479,1,0,0:0:0:0:
176,8,250575,102,0,P|169:67|192:112,1,100.000003814697,2|0,0:0|0:0,0:0:0:0:
164,300,250864,2,0,P|180:236|162:173,1,133.333333333333,8|0,0:0|0:0,0:0:0:0:
28,80,251152,2,0,P|76:115|126:118,1,100.000003814697,2|0,0:0|0:0,0:0:0:0:
272,234,251440,2,0,P|225:187|161:172,1,133.333333333333,8|0,0:0|0:0,0:0:0:0:
14,245,251729,86,0,P|68:220|96:179,1,100.000003814697,2|0,0:0|0:0,0:0:0:0:
272,109,252018,2,0,P|208:126|176:164,1,66.6666666666667,8|0,0:0|0:0,0:0:0:0:
164,300,252210,2,0,B|224:324|224:324|332:320|332:320|308:288,1,200,2|0,0:0|0:3,0:0:0:0:
284,168,252594,1,8,0:0:0:0:
280,148,252690,1,4,0:3:0:0:
276,128,252787,1,4,0:3:0:0:
328,48,252883,22,0,P|380:40|456:60,1,100.000003814697,6|0,0:0|0:0,0:0:0:0:
168,32,253171,2,0,P|240:48|324:20,1,133.333333333333,8|0,0:0|0:0,0:0:0:0:
100,152,253460,2,0,P|48:160|-28:140,1,100.000003814697,2|0,0:0|0:0,0:0:0:0:
260,168,253748,2,0,P|188:152|104:180,1,133.333333333333,8|0,0:0|0:0,0:0:0:0:
368,128,254037,6,0,L|384:268,1,100.000003814697,2|0,0:0|0:0,0:0:0:0:
392,328,254325,1,8,0:0:0:0:
180,96,254517,2,0,P|256:64|340:100,1,170.000003242493,2|0,0:0|0:0,0:0:0:0:
248,188,254902,1,8,0:0:0:0:
244,208,254998,1,8,0:3:0:0:
240,228,255094,1,2,0:3:0:0:
160,264,255190,86,0,L|-4:272,1,133.333333333333,12|0,0:0|0:0,0:0:0:0:
320,260,255479,2,0,L|453:253,1,133.333333333333,8|0,0:0|0:0,0:0:0:0:
132,180,255767,2,0,P|88:128|100:44,1,133.333333333333,12|0,0:0|0:0,0:0:0:0:
368,176,256056,2,0,P|412:228|400:312,1,133.333333333333,8|0,0:0|0:0,0:0:0:0:
180,96,256344,86,0,L|340:88,1,133.333333333333,12|0,0:0|0:0,0:0:0:0:
432,80,256633,1,8,0:0:0:0:
227,319,256825,2,0,P|151:287|163:139,1,200,6|8,0:0|0:0,0:0:0:0:
288,220,257210,1,8,0:3:0:0:
312,224,257306,1,4,0:3:0:0:
336,228,257402,1,4,0:3:0:0:
364,232,257498,38,0,B|376:108|376:108|352:144,1,150.000005722046,2|8,0:0|0:0,0:0:0:0:
148,232,258075,2,0,B|136:108|136:108|160:144,1,150.000005722046,2|8,0:0|0:0,0:0:0:0:
308,304,258652,2,0,P|368:324|420:304,1,100.000003814697,2|0,0:0|0:0,0:0:0:0:
456,248,258940,1,8,0:0:0:0:
204,304,259133,2,0,P|140:320|68:272,1,150.000005722046,2|0,0:0|0:0,0:0:0:0:
256,228,259517,1,8,0:0:0:0:
80,64,259806,102,0,L|164:80,2,50.0000019073487,6|0|0,0:0|0:0|0:0,0:0:0:0:
200,40,260094,2,0,L|264:95,2,50.0000019073487,8|0|0,0:0|0:0|0:0,0:0:0:0:
324,44,260383,2,0,L|352:124,2,50.0000019073487,2|0|0,0:0|0:0|0:0,0:0:0:0:
436,88,260671,2,0,L|420:172,2,50.0000019073487,8|0|0,0:0|0:0|0:0,0:0:0:0:
512,184,260960,22,0,P|456:232|372:220,1,133.333333333333,6|0,0:0|0:0,0:0:0:0:
336,156,261248,1,8,0:0:0:0:
256,288,261440,1,6,0:0:0:0:
180,272,261537,2,0,L|88:256,2,59.9999981689454,8|8|8,0:3|0:3|0:3,0:0:0:0:
332,272,261825,2,0,L|424:256,2,59.9999981689454,4|4|4,0:3|0:3|0:3,0:0:0:0:
256,128,262114,1,6,0:0:0:0:
256,192,262210,12,0,264421,0:0:0:0:
