osu file format v14

[General]
AudioFilename: audio.mp3
AudioLeadIn: 0
PreviewTime: 62315
Countdown: 0
SampleSet: None
StackLeniency: 0.4
Mode: 2
LetterboxInBreaks: 0
WidescreenStoryboard: 1

[Editor]
Bookmarks: 427,13853,33993,47420,62524,82664,96091,109517,122944,138049,158189,173294,188399,208538,223643
DistanceSpacing: 1
BeatDivisor: 4
GridSize: 4
TimelineZoom: 2.499999

[Metadata]
Title:Diabolikha
TitleUnicode:Diabolikha
Artist:Hatsuki Yura
ArtistUnicode:葉月ゆら
Creator:Riari
Version:Rain
Source:
Tags:Drop PLATINUM Eclipse Parade 清風明月 seifuu meigetsu C84 C86 Lan wings smau5
BeatmapID:1219318
BeatmapSetID:569786

[Difficulty]
HPDrainRate:6
CircleSize:4
OverallDifficulty:9.2
ApproachRate:9.2
SliderMultiplier:1.8
SliderTickRate:2

[Events]
//Background and Video events
0,0,"Aoinhatsu.full.412622.jpg",0,0
//Break Periods
//Storyboard Layer 0 (Background)
//Storyboard Layer 1 (Fail)
//Storyboard Layer 2 (Pass)
//Storyboard Layer 3 (Foreground)
//Storyboard Sound Samples

[TimingPoints]
427,209.79020979021,4,1,1,50,1,0

[Colours]
Combo1 : 138,242,244
Combo2 : 232,232,232
Combo3 : 255,147,201
Combo4 : 103,103,103

[HitObjects]
152,260,1685,5,0,0:0:0:0:
191,245,1737,1,0,0:0:0:0:
190,203,1789,1,0,0:0:0:0:
149,191,1842,1,0,0:0:0:0:
104,192,1895,1,0,0:0:0:0:
64,177,1947,1,0,0:0:0:0:
65,135,1999,1,0,0:0:0:0:
106,123,2052,1,0,0:0:0:0:
384,108,2105,6,0,B|480:108|480:108|480:220|312:220|312:220|312:308|312:308|456:308,1,540
316,224,2944,6,0,L|216:224,1,90
280,128,3154,2,0,L|180:128,1,90
72,128,3364,1,0,0:0:0:0:
316,224,3468,2,0,P|384:224|304:308,1,270
316,224,5042,5,0,0:0:0:0:
271,224,5094,1,0,0:0:0:0:
226,224,5146,1,0,0:0:0:0:
316,144,5252,1,0,0:0:0:0:
392,144,5357,1,0,0:0:0:0:
88,228,5461,2,0,B|32:228|32:228|16:208|16:208|8:184|8:184|16:160|16:160|36:144|36:144|60:132|60:132|88:132|88:132|88:276|88:276|178:275|178:275|180:376,1,540
320,152,6301,5,0,0:0:0:0:
358,130,6353,1,0,0:0:0:0:
368,88,6405,1,0,0:0:0:0:
343,51,6458,1,0,0:0:0:0:
268,256,6510,5,0,0:0:0:0:
229,234,6562,1,0,0:0:0:0:
219,192,6614,1,0,0:0:0:0:
244,155,6667,1,0,0:0:0:0:
440,224,6720,5,0,0:0:0:0:
478,202,6772,1,0,0:0:0:0:
488,160,6824,1,0,0:0:0:0:
463,123,6877,1,0,0:0:0:0:
388,328,6929,5,0,0:0:0:0:
349,306,6981,1,0,0:0:0:0:
339,264,7033,1,0,0:0:0:0:
364,227,7086,1,0,0:0:0:0:
88,64,7140,6,0,L|188:64,1,90
244,155,7350,1,0,0:0:0:0:
160,156,7454,1,0,0:0:0:0:
72,232,7559,2,0,L|172:232,1,90
228,323,7769,1,0,0:0:0:0:
144,324,7873,1,0,0:0:0:0:
456,56,7979,6,0,L|456:168,1,90
364,328,8189,2,0,L|364:216,1,90
456,328,8399,2,0,L|456:216,1,90
364,56,8609,2,0,L|364:168,1,90
84,76,8818,6,0,L|192:76,1,90
256,152,9028,1,0,0:0:0:0:
176,152,9133,1,0,0:0:0:0:
86,236,9238,2,0,L|176:236,1,90
84,316,9447,1,0,0:0:0:0:
176,320,9552,1,0,0:0:0:0:
456,40,9657,6,0,L|456:132,1,90
384,128,9867,2,0,L|384:248,1,90
312,224,10077,2,0,L|312:328,1,90
456,220,10287,2,0,L|456:130,1,90
98,58,10496,6,0,L|98:159,1,90
188,148,10706,2,0,L|92:148,2,90
280,148,11021,1,0,0:0:0:0:
32,236,11126,2,0,L|128:236,1,90
256,324,11336,6,0,L|256:216,1,90
166,234,11546,2,0,L|262:234,2,90
74,234,11861,1,0,0:0:0:0:
161,151,11966,2,0,L|65:151,1,90
339,49,12175,6,0,L|339:161,1,90
247,321,12385,2,0,L|247:209,1,90
339,321,12595,2,0,L|339:209,1,90
247,49,12805,2,0,L|247:161,1,90
156,132,13014,5,0,0:0:0:0:
118,152,13066,1,0,0:0:0:0:
117,195,13118,1,0,0:0:0:0:
154,217,13171,1,0,0:0:0:0:
228,220,13224,5,0,0:0:0:0:
271,224,13276,1,0,0:0:0:0:
296,259,13328,1,0,0:0:0:0:
286,301,13381,1,0,0:0:0:0:
247,321,13433,1,0,0:0:0:0:
440,68,13538,5,0,0:0:0:0:
