osu file format v14

[General]
AudioFilename: audio.mp3
AudioLeadIn: 0
PreviewTime: 135816
Countdown: 0
SampleSet: Normal
StackLeniency: 0.7
Mode: 1
LetterboxInBreaks: 0
WidescreenStoryboard: 1

[Editor]
Bookmarks: 14290,26758,39226,51596,56368,79745,93771,106239,118706,135849,159226,171693,199745,205979,212213,227797
DistanceSpacing: 1.1
BeatDivisor: 4
GridSize: 8
TimelineZoom: 3.199999

[Metadata]
Title:Black Princess
TitleUnicode:Black Princess
Artist:Hatsuki Yura
ArtistUnicode:葉月ゆら
Creator:Volta
Version:Ura Oni
Source:
Tags:electronic pop j-pop jpop gothic rock japanese jrock j-rock Drop doujin c93 Comiket93 z-25a White Princess
BeatmapID:3416780
BeatmapSetID:1671965

[Difficulty]
HPDrainRate:5.5
CircleSize:5
OverallDifficulty:6.1
ApproachRate:5
SliderMultiplier:1.4
SliderTickRate:1

[Events]
//Background and Video events
0,0,"94918062_p0.jpg",0,100
//Break Periods
//Storyboard Layer 0 (Background)
//Storyboard Layer 1 (Fail)
//Storyboard Layer 2 (Pass)
//Storyboard Layer 3 (Foreground)
//Storyboard Layer 4 (Overlay)
//Storyboard Sound Samples

[TimingPoints]
281,389.61038961039,4,1,0,75,1,0
14306,-100,4,1,0,60,0,0
26774,-100,4,1,0,70,0,0
39242,-100,4,1,0,80,0,0
56384,-100,4,1,0,90,0,1
79761,-100,4,1,0,75,0,0
92229,-100,4,1,0,68,0,0
93787,-100,4,1,0,60,0,0
106255,-100,4,1,0,70,0,0
118722,-100,4,1,0,80,0,0
135865,-100,4,1,0,90,0,1
159242,-100,4,1,0,80,0,0
171709,-100,4,1,0,80,0,1
199761,-100,4,1,0,70,0,0
212229,-100,4,1,0,90,0,1
227813,-100,4,1,0,80,0,0

[HitObjects]
346,218,281,5,4,0:0:0:0:
355,50,670,1,8,0:0:0:0:
211,34,865,1,0,0:0:0:0:
254,92,1060,1,8,0:0:0:0:
187,76,1255,1,0,0:0:0:0:
160,76,1352,1,0,0:0:0:0:
187,76,1449,1,8,0:0:0:0:
447,186,1644,1,0,0:0:0:0:
384,155,1839,1,0,0:0:0:0:
335,109,2034,1,8,0:0:0:0:
277,103,2131,1,0,0:0:0:0:
280,60,2229,1,8,0:0:0:0:
250,91,2326,1,8,0:0:0:0:
384,156,2423,1,0,0:0:0:0:
321,123,2618,1,8,0:0:0:0:
280,60,2813,1,0,0:0:0:0:
280,60,3008,1,8,0:0:0:0:
280,60,3203,1,8,0:0:0:0:
296,110,3397,1,0,0:0:0:0:
292,112,3787,1,8,0:0:0:0:
69,111,3982,1,0,0:0:0:0:
130,119,4177,1,8,0:0:0:0:
160,73,4274,1,0,0:0:0:0:
118,123,4371,1,8,0:0:0:0:
118,123,4566,1,8,0:0:0:0:
60,118,4761,1,0,0:0:0:0:
296,96,4956,1,0,0:0:0:0:
224,112,5151,1,8,0:0:0:0:
173,113,5248,1,0,0:0:0:0:
144,140,5345,1,8,0:0:0:0:
144,140,5443,1,8,0:0:0:0:
287,98,5540,1,0,0:0:0:0:
219,138,5735,1,8,0:0:0:0:
187,58,5930,1,0,0:0:0:0:
187,58,6027,1,0,0:0:0:0:
151,85,6125,1,8,0:0:0:0:
122,107,6222,1,8,0:0:0:0:
94,128,6319,1,8,0:0:0:0:
94,128,6417,1,8,0:0:0:0:
130,122,6514,1,0,0:0:0:0:
268,105,6904,1,8,0:0:0:0:
349,128,7099,1,0,0:0:0:0:
284,126,7293,1,8,0:0:0:0:
192,107,7488,1,0,0:0:0:0:
142,96,7586,1,0,0:0:0:0:
142,96,7683,1,8,0:0:0:0:
466,17,7878,1,0,0:0:0:0:
409,51,8073,1,0,0:0:0:0:
336,54,8268,1,8,0:0:0:0:
142,96,8365,1,0,0:0:0:0:
173,81,8462,1,8,0:0:0:0:
203,67,8560,1,8,0:0:0:0:
405,54,8657,1,0,0:0:0:0:
343,90,8852,1,8,0:0:0:0:
271,100,9047,1,0,0:0:0:0:
190,112,9242,1,8,0:0:0:0:
125,122,9436,1,8,0:0:0:0:
343,90,9631,5,0,0:0:0:0:
351,84,10021,1,8,0:0:0:0:
343,90,10216,1,0,0:0:0:0:
343,90,10410,1,8,0:0:0:0:
315,96,10508,1,0,0:0:0:0:
228,100,10605,1,8,0:0:0:0:
300,88,10800,5,8,0:0:0:0:
311,162,10995,5,0,0:0:0:0:
311,162,11092,1,0,0:0:0:0:
311,162,11190,1,0,0:0:0:0:
283,152,11287,1,8,0:0:0:0:
300,88,11384,1,8,0:0:0:0:
300,88,11482,1,0,0:0:0:0:
263,100,11579,1,0,0:0:0:0:
265,94,11677,1,8,0:0:0:0:
228,100,11774,1,0,0:0:0:0:
190,106,11871,1,8,0:0:0:0:
149,113,11969,1,8,0:0:0:0:
123,121,12066,1,8,0:0:0:0:
410,164,12164,5,0,0:0:0:0:
383,161,12261,1,8,0:0:0:0:
339,157,12358,1,8,0:0:0:0:
410,164,12456,1,0,0:0:0:0:
149,113,12553,1,8,0:0:0:0:
149,113,12651,1,8,0:0:0:0:
410,164,12748,1,0,0:0:0:0:
207,148,14306,5,0,0:0:0:0:
131,139,14501,1,0,0:0:0:0:
212,149,14696,1,0,0:0:0:0:
137,140,14891,1,0,0:0:0:0:
212,149,15086,1,8,0:0:0:0:
212,149,15475,1,8,0:0:0:0:
269,123,15670,1,8,0:0:0:0:
220,171,15865,1,0,0:0:0:0:
274,117,16060,1,0,0:0:0:0:
214,179,16255,1,8,0:0:0:0:
294,142,16449,1,0,0:0:0:0:
294,142,16644,1,8,0:0:0:0:
229,99,17034,1,8,0:0:0:0:
229,99,17229,1,8,0:0:0:0:
212,14,17423,1,0,0:0:0:0:
202,89,17618,1,0,0:0:0:0:
212,14,17813,1,8,0:0:0:0:
233,81,18008,1,0,0:0:0:0:
219,36,18203,1,8,0:0:0:0:
219,36,18397,1,8,0:0:0:0:
219,36,18592,1,0,0:0:0:0:
219,36,18787,1,0,0:0:0:0:
219,36,18982,1,8,0:0:0:0:
214,100,19177,1,0,0:0:0:0:
208,192,19371,1,8,0:0:0:0:
212,129,19566,1,8,0:0:0:0:
475,121,19761,1,0,0:0:0:0:
348,79,20151,1,8,0:0:0:0:
288,59,20345,1,8,0:0:0:0:
232,40,20540,1,0,0:0:0:0:
194,85,20735,1,0,0:0:0:0:
150,138,20930,1,8,0:0:0:0:
150,138,21125,1,0,0:0:0:0:
176,74,21319,1,8,0:0:0:0:
174,77,21709,1,8,0:0:0:0:
148,147,21904,1,0,0:0:0:0:
170,80,22099,1,8,0:0:0:0:
174,77,22293,1,0,0:0:0:0:
170,80,22488,1,8,0:0:0:0:
174,77,22683,1,8,0:0:0:0:
170,80,22878,1,0,0:0:0:0:
170,80,23268,1,0,0:0:0:0:
106,127,23462,1,8,0:0:0:0:
106,127,23657,1,0,0:0:0:0:
106,127,23852,1,8,0:0:0:0:
106,127,24047,1,8,0:0:0:0:
106,127,24242,1,0,0:0:0:0:
106,127,24436,1,8,0:0:0:0:
106,127,24631,1,0,0:0:0:0:
106,127,24826,1,0,0:0:0:0:
106,127,25021,1,8,0:0:0:0:
338,135,25216,5,0,0:0:0:0:
251,135,25410,1,8,0:0:0:0:
216,135,25508,1,8,0:0:0:0:
181,135,25605,1,0,0:0:0:0:
107,136,25800,1,8,0:0:0:0:
75,136,25897,1,8,0:0:0:0:
75,136,25995,1,0,0:0:0:0:
75,136,26190,1,8,0:0:0:0:
75,136,26287,1,0,0:0:0:0:
106,119,26384,1,8,0:0:0:0:
75,136,26579,1,8,0:0:0:0:
161,89,26774,5,4,0:0:0:0:
26,152,27164,1,8,0:0:0:0:
89,123,27358,1,8,0:0:0:0:
30,150,27553,1,0,0:0:0:0:
179,82,27943,1,0,0:0:0:0:
104,111,28138,1,8,0:0:0:0:
32,141,28332,1,0,0:0:0:0:
39,141,28527,1,0,0:0:0:0:
133,32,28722,1,8,0:0:0:0:
133,32,28917,1,8,0:0:0:0:
133,32,29112,1,0,0:0:0:0:
272,103,29501,1,8,0:0:0:0:
203,68,29696,1,0,0:0:0:0:
133,32,29891,1,0,0:0:0:0:
133,32,30281,1,8,0:0:0:0:
86,92,30475,1,0,0:0:0:0:
133,32,30670,1,8,0:0:0:0:
133,32,31060,1,0,0:0:0:0:
133,32,31449,1,0,0:0:0:0:
133,32,31644,1,0,0:0:0:0:
133,32,31839,1,8,0:0:0:0:
133,32,32034,1,0,0:0:0:0:
370,163,32229,1,8,0:0:0:0:
344,55,32423,1,8,0:0:0:0:
344,55,32521,1,8,0:0:0:0:
344,55,32618,1,0,0:0:0:0:
304,55,32716,1,8,0:0:0:0:
269,55,32813,1,0,0:0:0:0:
197,55,33008,1,0,0:0:0:0:
83,136,33397,1,8,0:0:0:0:
151,163,33592,1,8,0:0:0:0:
218,189,33787,1,0,0:0:0:0:
218,189,34177,1,0,0:0:0:0:
235,111,34371,1,8,0:0:0:0:
219,187,34566,1,8,0:0:0:0:
150,168,34761,1,0,0:0:0:0:
72,147,34956,1,8,0:0:0:0:
72,147,35151,1,8,0:0:0:0:
72,147,35345,1,0,0:0:0:0:
72,147,35735,5,0,0:0:0:0:
72,147,35930,1,8,0:0:0:0:
72,147,36125,1,0,0:0:0:0:
72,147,36319,1,8,0:0:0:0:
72,147,36514,1,8,0:0:0:0:
50,137,36709,1,0,0:0:0:0:
226,154,36904,5,8,0:0:0:0:
226,154,37293,1,0,0:0:0:0:
266,188,37683,5,0,0:0:0:0:
260,156,37781,1,8,0:0:0:0:
256,131,37878,1,8,0:0:0:0:
239,121,37975,1,0,0:0:0:0:
244,56,38073,1,8,0:0:0:0:
244,56,38170,1,8,0:0:0:0:
201,63,38268,1,0,0:0:0:0:
185,71,38365,1,0,0:0:0:0:
185,71,38462,1,8,0:0:0:0:
185,71,38560,1,8,0:0:0:0:
185,71,38657,1,0,0:0:0:0:
252,121,38852,5,12,0:0:0:0:
252,121,39242,1,4,0:0:0:0:
184,104,39436,1,8,0:0:0:0:
185,71,39534,1,8,0:0:0:0:
185,71,39826,1,0,0:0:0:0:
239,16,40021,1,8,0:0:0:0:
255,88,40216,1,0,0:0:0:0:
255,88,40410,1,8,0:0:0:0:
246,67,40508,1,0,0:0:0:0:
255,88,40605,1,8,0:0:0:0:
255,88,40800,1,0,0:0:0:0:
310,180,40995,1,8,0:0:0:0:
310,180,41092,1,0,0:0:0:0:
291,66,41384,1,0,0:0:0:0:
222,94,41579,1,8,0:0:0:0:
155,108,41774,1,0,0:0:0:0:
237,91,41969,1,8,0:0:0:0:
165,105,42164,1,8,0:0:0:0:
155,108,42261,1,8,0:0:0:0:
222,94,42358,1,0,0:0:0:0:
222,94,42553,1,8,0:0:0:0:
222,94,42651,1,8,0:0:0:0:
132,128,42943,1,0,0:0:0:0:
132,128,43138,1,8,0:0:0:0:
189,79,43332,1,0,0:0:0:0:
123,135,43527,1,8,0:0:0:0:
136,118,43625,1,0,0:0:0:0:
193,76,43722,1,8,0:0:0:0:
75,148,43917,1,0,0:0:0:0:
97,140,44014,1,0,0:0:0:0:
97,140,44112,1,8,0:0:0:0:
143,132,44209,1,0,0:0:0:0:
157,158,44306,1,0,0:0:0:0:
136,118,44404,1,8,0:0:0:0:
136,118,44501,1,0,0:0:0:0:
188,93,44599,1,0,0:0:0:0:
220,78,44696,1,8,0:0:0:0:
229,104,44793,1,8,0:0:0:0:
220,78,44891,1,8,0:0:0:0:
136,118,44988,1,8,0:0:0:0:
223,76,45086,1,0,0:0:0:0:
223,76,45183,1,0,0:0:0:0:
223,76,45281,1,0,0:0:0:0:
190,116,45475,1,12,0:0:0:0:
103,132,45670,1,0,0:0:0:0:
82,132,45768,1,8,0:0:0:0:
90,83,46060,1,8,0:0:0:0:
90,83,46157,1,8,0:0:0:0:
35,126,46255,1,0,0:0:0:0:
102,126,46449,1,0,0:0:0:0:
180,127,46644,1,8,0:0:0:0:
151,114,46742,1,0,0:0:0:0:
151,114,46839,1,8,0:0:0:0:
151,114,47034,1,0,0:0:0:0:
90,128,47229,1,8,0:0:0:0:
66,133,47326,1,0,0:0:0:0:
33,142,47521,5,8,0:0:0:0:
33,142,47618,1,0,0:0:0:0:
90,128,47813,1,8,0:0:0:0:
90,128,48008,1,0,0:0:0:0:
90,128,48105,1,8,0:0:0:0:
149,167,48300,1,0,0:0:0:0:
115,144,48397,1,8,0:0:0:0:
175,108,48592,5,4,0:0:0:0:
148,47,48787,1,8,0:0:0:0:
148,47,48982,1,8,0:0:0:0:
148,47,49177,1,8,0:0:0:0:
229,74,49371,1,0,0:0:0:0:
142,45,49566,1,8,0:0:0:0:
193,62,49761,1,8,0:0:0:0:
141,44,49956,1,0,0:0:0:0:
221,109,50151,5,8,0:0:0:0:
242,106,50248,1,8,0:0:0:0:
242,106,50345,1,8,0:0:0:0:
221,80,50443,1,0,0:0:0:0:
221,109,50540,1,8,0:0:0:0:
190,114,50638,1,0,0:0:0:0:
164,118,50735,1,0,0:0:0:0:
143,121,50832,1,0,0:0:0:0:
221,109,50930,1,8,0:0:0:0:
143,121,51125,1,0,0:0:0:0:
143,121,51222,1,0,0:0:0:0:
143,121,51319,1,8,0:0:0:0:
143,121,51417,1,0,0:0:0:0:
143,121,51514,1,8,0:0:0:0:
145,94,51612,1,8,0:0:0:0:
348,195,51709,5,0,0:0:0:0:
368,153,51839,1,0,0:0:0:0:
368,153,51969,1,8,0:0:0:0:
368,153,52099,1,0,0:0:0:0:
368,153,52229,1,8,0:0:0:0:
368,153,52358,1,8,0:0:0:0:
368,153,52488,1,0,0:0:0:0:
368,153,52618,1,8,0:0:0:0:
368,153,52748,1,0,0:0:0:0:
368,153,52878,1,8,0:0:0:0:
368,153,53008,1,0,0:0:0:0:
368,153,53138,1,0,0:0:0:0:
368,153,53268,1,12,0:0:0:0:
209,149,53657,1,4,0:0:0:0:
52,145,54047,1,12,0:0:0:0:
199,152,54436,1,12,0:0:0:0:
331,232,54826,1,0,0:0:0:0:
331,232,54923,1,8,0:0:0:0:
326,198,55021,1,0,0:0:0:0:
320,156,55118,1,8,0:0:0:0:
283,157,55216,1,8,0:0:0:0:
242,158,55313,1,0,0:0:0:0:
200,158,55410,1,8,0:0:0:0:
162,158,55508,1,0,0:0:0:0:
308,51,55605,1,8,0:0:0:0:
308,51,55703,1,8,0:0:0:0:
317,33,55800,1,0,0:0:0:0:
277,48,55897,1,0,0:0:0:0:
227,67,55995,1,8,0:0:0:0:
181,85,56092,1,0,0:0:0:0:
137,103,56190,1,8,0:0:0:0:
98,119,56384,1,4,0:0:0:0:
171,142,56579,1,0,0:0:0:0:
238,162,56774,1,8,0:0:0:0:
168,158,56969,1,8,0:0:0:0:
135,156,57066,1,8,0:0:0:0:
108,154,57164,1,0,0:0:0:0:
98,119,57261,1,0,0:0:0:0:
98,119,57358,1,8,0:0:0:0:
86,168,57456,1,0,0:0:0:0:
106,128,57553,1,8,0:0:0:0:
106,128,57748,1,8,0:0:0:0:
106,128,57943,1,0,0:0:0:0:
128,139,58040,1,8,0:0:0:0:
148,148,58138,1,0,0:0:0:0:
168,158,58235,1,0,0:0:0:0:
123,151,58332,1,8,0:0:0:0:
45,139,58527,1,0,0:0:0:0:
320,41,58722,1,0,0:0:0:0:
281,71,58819,1,8,0:0:0:0:
281,71,58917,1,8,0:0:0:0:
262,47,59014,1,0,0:0:0:0:
236,94,59112,1,8,0:0:0:0:
217,96,59209,1,0,0:0:0:0:
45,139,59306,1,8,0:0:0:0:
72,130,59404,1,8,0:0:0:0:
217,103,59501,1,0,0:0:0:0:
151,122,59696,1,0,0:0:0:0:
99,136,59891,1,8,0:0:0:0:
100,51,60086,1,8,0:0:0:0:
100,51,60183,1,8,0:0:0:0:
100,51,60281,1,0,0:0:0:0:
154,109,60475,1,0,0:0:0:0:
127,80,60670,1,8,0:0:0:0:
127,80,60768,1,0,0:0:0:0:
127,80,60865,1,0,0:0:0:0:
127,80,60962,1,0,0:0:0:0:
98,99,61060,1,8,0:0:0:0:
175,99,61255,1,8,0:0:0:0:
146,99,61352,1,8,0:0:0:0:
103,99,61449,1,0,0:0:0:0:
328,131,61644,1,8,0:0:0:0:
292,126,61742,1,0,0:0:0:0:
267,122,61839,1,8,0:0:0:0:
208,125,62034,1,0,0:0:0:0:
176,127,62131,1,0,0:0:0:0:
184,126,62229,1,8,0:0:0:0:
184,126,62326,1,8,0:0:0:0:
184,126,62423,1,8,0:0:0:0:
184,126,62521,1,8,0:0:0:0:
184,126,62618,1,0,0:0:0:0:
109,113,62813,1,8,0:0:0:0:
109,113,62910,1,0,0:0:0:0:
109,113,63008,1,8,0:0:0:0:
135,119,63203,1,0,0:0:0:0:
132,116,63397,1,8,0:0:0:0:
132,116,63592,1,0,0:0:0:0:
132,116,63690,1,8,0:0:0:0:
132,116,63884,1,0,0:0:0:0:
132,116,63982,1,8,0:0:0:0:
111,105,64079,1,8,0:0:0:0:
129,118,64177,1,0,0:0:0:0:
107,125,64371,1,0,0:0:0:0:
107,125,64469,1,0,0:0:0:0:
107,125,64566,1,8,0:0:0:0:
107,125,64761,1,0,0:0:0:0:
229,55,64956,1,0,0:0:0:0:
229,55,65053,1,8,0:0:0:0:
229,55,65151,1,0,0:0:0:0:
229,55,65248,1,0,0:0:0:0:
229,55,65345,1,8,0:0:0:0:
229,55,65443,1,0,0:0:0:0:
229,55,65540,1,8,0:0:0:0:
194,69,65735,1,0,0:0:0:0:
175,81,65832,1,0,0:0:0:0:
151,96,65930,1,0,0:0:0:0:
125,108,66027,1,8,0:0:0:0:
125,108,66222,1,0,0:0:0:0:
28,129,66319,1,8,0:0:0:0:
96,158,66514,1,0,0:0:0:0:
309,193,66709,1,8,0:0:0:0:
276,182,66806,1,0,0:0:0:0:
125,108,66904,1,8,0:0:0:0:
98,121,67001,1,0,0:0:0:0:
125,108,67099,1,0,0:0:0:0:
179,123,67293,1,8,0:0:0:0:
153,126,67391,1,8,0:0:0:0:
179,123,67488,1,0,0:0:0:0:
179,123,67586,1,8,0:0:0:0:
179,123,67781,1,0,0:0:0:0:
179,123,67878,1,8,0:0:0:0:
179,123,68073,1,8,0:0:0:0:
179,123,68170,1,8,0:0:0:0:
179,123,68268,1,0,0:0:0:0:
179,123,68365,1,0,0:0:0:0:
179,123,68462,1,8,0:0:0:0:
179,123,68560,1,0,0:0:0:0:
179,123,68657,1,8,0:0:0:0:
159,141,68852,5,4,0:0:0:0:
171,142,69047,1,0,0:0:0:0:
238,162,69242,1,8,0:0:0:0:
168,158,69436,1,0,0:0:0:0:
135,156,69534,1,8,0:0:0:0:
108,154,69631,1,0,0:0:0:0:
98,119,69729,1,0,0:0:0:0:
98,119,69826,1,8,0:0:0:0:
86,168,69923,1,0,0:0:0:0:
106,128,70021,1,8,0:0:0:0:
106,128,70216,1,8,0:0:0:0:
106,128,70410,1,0,0:0:0:0:
128,139,70508,1,0,0:0:0:0:
148,148,70605,1,8,0:0:0:0:
168,158,70703,1,8,0:0:0:0:
123,151,70800,1,0,0:0:0:0:
45,139,70995,1,0,0:0:0:0:
320,41,71190,1,8,0:0:0:0:
281,71,71287,1,0,0:0:0:0:
281,71,71384,1,8,0:0:0:0:
262,47,71482,1,8,0:0:0:0:
236,94,71579,1,8,0:0:0:0:
196,97,71677,1,0,0:0:0:0:
236,94,71774,1,8,0:0:0:0:
154,109,71871,1,8,0:0:0:0:
217,103,71969,1,0,0:0:0:0:
151,122,72164,1,0,0:0:0:0:
99,136,72358,1,8,0:0:0:0:
100,51,72553,1,0,0:0:0:0:
100,51,72651,1,8,0:0:0:0:
100,51,72748,1,0,0:0:0:0:
154,109,72943,1,0,0:0:0:0:
127,80,73138,1,8,0:0:0:0:
127,80,73235,1,8,0:0:0:0:
127,80,73332,1,8,0:0:0:0:
127,80,73430,1,0,0:0:0:0:
98,99,73527,1,8,0:0:0:0:
175,99,73722,1,0,0:0:0:0:
146,99,73819,1,0,0:0:0:0:
103,99,73917,1,8,0:0:0:0:
328,131,74112,1,8,0:0:0:0:
292,126,74209,1,8,0:0:0:0:
267,122,74306,1,0,0:0:0:0:
247,123,74404,1,8,0:0:0:0:
208,125,74501,1,0,0:0:0:0:
176,127,74599,1,0,0:0:0:0:
184,126,74696,1,8,0:0:0:0:
184,126,74793,1,8,0:0:0:0:
184,126,74891,1,8,0:0:0:0:
184,126,75086,1,4,0:0:0:0:
109,113,75281,1,8,0:0:0:0:
131,139,75378,1,0,0:0:0:0:
73,149,75475,1,0,0:0:0:0:
73,149,75670,1,0,0:0:0:0:
99,137,75865,1,8,0:0:0:0:
129,124,76060,1,0,0:0:0:0:
129,124,76157,1,8,0:0:0:0:
129,124,76255,1,8,0:0:0:0:
196,112,76449,1,0,0:0:0:0:
196,112,76644,1,8,0:0:0:0:
234,113,76742,1,8,0:0:0:0:
176,94,76839,1,0,0:0:0:0:
176,94,76936,1,0,0:0:0:0:
176,94,77034,1,8,0:0:0:0:
176,94,77229,1,0,0:0:0:0:
176,94,77326,1,8,0:0:0:0:
483,0,77423,1,0,0:0:0:0:
448,13,77521,1,0,0:0:0:0:
413,26,77618,1,8,0:0:0:0:
379,39,77716,1,0,0:0:0:0:
196,112,77813,1,8,0:0:0:0:
196,112,77910,1,8,0:0:0:0:
196,112,78008,1,0,0:0:0:0:
142,112,78203,5,4,0:0:0:0:
142,112,78495,1,4,0:0:0:0:
142,112,78787,1,4,0:0:0:0:
142,112,78982,1,12,0:0:0:0:
176,95,79761,1,4,0:0:0:0:
176,95,79956,1,8,0:0:0:0:
176,95,80151,1,8,0:0:0:0:
176,95,80345,1,0,0:0:0:0:
176,95,80540,1,8,0:0:0:0:
211,105,80638,1,0,0:0:0:0:
94,110,80735,1,8,0:0:0:0:
290,8,80930,1,0,0:0:0:0:
300,38,81027,1,0,0:0:0:0:
311,71,81125,1,8,0:0:0:0:
332,130,81319,1,8,0:0:0:0:
332,130,81417,1,8,0:0:0:0:
98,155,81514,1,0,0:0:0:0:
314,130,81612,1,0,0:0:0:0:
282,124,81709,1,8,0:0:0:0:
219,112,81904,1,8,0:0:0:0:
286,15,82099,1,0,0:0:0:0:
255,37,82196,1,0,0:0:0:0:
220,63,82293,1,8,0:0:0:0:
150,136,82488,1,0,0:0:0:0:
184,106,82586,1,0,0:0:0:0:
150,136,82683,1,8,0:0:0:0:
229,130,82878,1,0,0:0:0:0:
229,130,83073,1,8,0:0:0:0:
229,130,83268,1,8,0:0:0:0:
229,130,83462,1,0,0:0:0:0:
150,136,83657,1,8,0:0:0:0:
150,136,83755,1,8,0:0:0:0:
150,136,83852,1,0,0:0:0:0:
150,136,84047,1,8,0:0:0:0:
198,116,84144,1,0,0:0:0:0:
377,89,84242,1,8,0:0:0:0:
370,89,84436,1,8,0:0:0:0:
315,101,84631,1,0,0:0:0:0:
284,105,84729,1,0,0:0:0:0:
253,109,84826,1,8,0:0:0:0:
210,113,84923,1,8,0:0:0:0:
198,116,85021,1,0,0:0:0:0:
164,122,85216,1,8,0:0:0:0:
230,112,85313,1,0,0:0:0:0:
321,75,85410,1,8,0:0:0:0:
321,75,85508,1,8,0:0:0:0:
321,75,85605,1,8,0:0:0:0:
321,75,85703,1,0,0:0:0:0:
321,75,85800,1,8,0:0:0:0:
321,75,85897,1,8,0:0:0:0:
321,75,85995,1,0,0:0:0:0:
249,94,86190,1,8,0:0:0:0:
186,111,86384,1,8,0:0:0:0:
118,129,86579,1,0,0:0:0:0:
321,75,86774,1,8,0:0:0:0:
321,75,86871,1,0,0:0:0:0:
321,75,86969,1,8,0:0:0:0:
294,80,87164,1,0,0:0:0:0:
268,84,87261,1,0,0:0:0:0:
245,88,87358,1,8,0:0:0:0:
192,98,87553,1,8,0:0:0:0:
113,114,87651,1,8,0:0:0:0:
113,114,87748,1,0,0:0:0:0:
83,120,87845,1,0,0:0:0:0:
50,152,87943,5,8,0:0:0:0:
50,152,88138,1,0,0:0:0:0:
50,152,88332,1,8,0:0:0:0:
50,152,88430,1,0,0:0:0:0:
50,152,88527,1,0,0:0:0:0:
53,119,88722,1,8,0:0:0:0:
53,119,88819,1,0,0:0:0:0:
53,119,88917,1,8,0:0:0:0:
88,126,89014,1,8,0:0:0:0:
131,221,89112,5,0,0:0:0:0:
81,174,89306,1,8,0:0:0:0:
56,150,89501,1,8,0:0:0:0:
33,130,89696,1,0,0:0:0:0:
33,130,89891,1,0,0:0:0:0:
33,130,89988,1,0,0:0:0:0:
33,130,90086,1,8,0:0:0:0:
33,130,90281,1,8,0:0:0:0:
85,128,90378,1,0,0:0:0:0:
66,133,90475,1,8,0:0:0:0:
118,129,90670,1,8,0:0:0:0:
24,151,90768,1,8,0:0:0:0:
118,129,90865,1,8,0:0:0:0:
118,129,90962,1,0,0:0:0:0:
118,129,91060,1,8,0:0:0:0:
118,129,91157,1,0,0:0:0:0:
118,129,91255,1,0,0:0:0:0:
24,151,91352,1,0,0:0:0:0:
118,129,91449,5,8,0:0:0:0:
95,151,91547,1,0,0:0:0:0:
64,110,91644,1,8,0:0:0:0:
118,129,91742,1,0,0:0:0:0:
252,129,91839,1,8,0:0:0:0:
323,202,91936,1,8,0:0:0:0:
416,234,92034,5,0,0:0:0:0:
272,112,92423,5,8,0:0:0:0:
272,112,92521,1,0,0:0:0:0:
272,112,92618,1,8,0:0:0:0:
272,112,92813,1,8,0:0:0:0:
272,112,93008,1,0,0:0:0:0:
220,117,93203,1,0,0:0:0:0:
141,125,93397,1,8,0:0:0:0:
68,139,93592,1,0,0:0:0:0:
68,139,93787,1,8,0:0:0:0:
133,99,93982,1,8,0:0:0:0:
197,60,94177,1,8,0:0:0:0:
197,60,94371,1,8,0:0:0:0:
212,42,94566,1,0,0:0:0:0:
212,42,94956,1,0,0:0:0:0:
212,42,95151,1,0,0:0:0:0:
140,80,95345,1,8,0:0:0:0:
140,80,95540,1,0,0:0:0:0:
140,80,95735,1,8,0:0:0:0:
140,80,95930,1,8,0:0:0:0:
151,163,96125,1,0,0:0:0:0:
152,163,96514,1,0,0:0:0:0:
140,87,96709,1,0,0:0:0:0:
154,164,96904,1,8,0:0:0:0:
198,98,97099,1,8,0:0:0:0:
130,20,97293,1,0,0:0:0:0:
198,98,97488,1,0,0:0:0:0:
198,98,97683,1,8,0:0:0:0:
198,98,97878,1,0,0:0:0:0:
198,98,98073,1,8,0:0:0:0:
198,98,98268,1,8,0:0:0:0:
198,98,98462,1,0,0:0:0:0:
198,98,98657,1,8,0:0:0:0:
198,98,98852,1,8,0:0:0:0:
198,98,99047,1,8,0:0:0:0:
198,98,99242,1,0,0:0:0:0:
198,98,99631,1,0,0:0:0:0:
198,98,99826,1,0,0:0:0:0:
198,98,100021,1,8,0:0:0:0:
198,98,100216,1,8,0:0:0:0:
198,98,100410,1,8,0:0:0:0:
198,98,100605,1,0,0:0:0:0:
121,110,100800,1,8,0:0:0:0:
239,13,101190,1,0,0:0:0:0:
184,56,101384,1,8,0:0:0:0:
240,13,101579,1,0,0:0:0:0:
191,50,101774,1,0,0:0:0:0:
191,50,101969,1,8,0:0:0:0:
191,50,102164,1,8,0:0:0:0:
191,50,102358,1,0,0:0:0:0:
191,50,102748,1,0,0:0:0:0:
191,50,102943,1,0,0:0:0:0:
191,50,103138,1,8,0:0:0:0:
191,50,103332,1,0,0:0:0:0:
191,50,103527,1,8,0:0:0:0:
191,50,103722,1,8,0:0:0:0:
125,85,103917,1,0,0:0:0:0:
79,122,104112,1,8,0:0:0:0:
79,122,104306,1,8,0:0:0:0:
79,122,104501,1,0,0:0:0:0:
10,142,104696,1,8,0:0:0:0:
92,143,104891,1,0,0:0:0:0:
92,143,104988,1,8,0:0:0:0:
92,143,105086,1,0,0:0:0:0:
92,143,105281,1,8,0:0:0:0:
35,132,105378,1,8,0:0:0:0:
35,132,105475,1,0,0:0:0:0:
35,132,105670,1,8,0:0:0:0:
59,138,105768,1,0,0:0:0:0:
35,132,105865,1,8,0:0:0:0:
92,143,106060,1,8,0:0:0:0:
92,143,106255,1,4,0:0:0:0:
249,154,106644,1,8,0:0:0:0:
178,149,106839,1,0,0:0:0:0:
114,144,107034,1,8,0:0:0:0:
90,137,107423,1,8,0:0:0:0:
90,137,107618,1,0,0:0:0:0:
171,143,107813,1,0,0:0:0:0:
230,148,108008,1,8,0:0:0:0:
154,142,108203,1,8,0:0:0:0:
188,66,108397,1,0,0:0:0:0:
188,66,108592,1,8,0:0:0:0:
188,66,108982,1,8,0:0:0:0:
188,66,109177,1,0,0:0:0:0:
188,66,109371,1,0,0:0:0:0:
188,66,109761,1,8,0:0:0:0:
124,99,109956,1,0,0:0:0:0:
53,138,110151,1,8,0:0:0:0:
188,70,110540,1,0,0:0:0:0:
41,144,110930,1,0,0:0:0:0:
109,109,111125,1,8,0:0:0:0:
50,140,111319,1,0,0:0:0:0:
97,115,111514,1,8,0:0:0:0:
97,115,111709,1,8,0:0:0:0:
171,95,111904,1,0,0:0:0:0:
219,81,112001,1,8,0:0:0:0:
243,74,112099,1,0,0:0:0:0:
191,91,112196,1,0,0:0:0:0:
141,107,112293,1,8,0:0:0:0:
72,127,112488,1,0,0:0:0:0:
249,154,112878,1,8,0:0:0:0:
178,149,113073,1,0,0:0:0:0:
114,144,113268,1,8,0:0:0:0:
90,137,113657,1,8,0:0:0:0:
90,137,113852,1,0,0:0:0:0:
171,143,114047,1,0,0:0:0:0:
230,148,114242,1,8,0:0:0:0:
154,142,114436,1,8,0:0:0:0:
188,66,114631,1,8,0:0:0:0:
188,66,114826,1,0,0:0:0:0:
220,227,115216,1,0,0:0:0:0:
222,159,115410,1,8,0:0:0:0:
70,151,115605,1,0,0:0:0:0:
29,131,115800,1,8,0:0:0:0:
29,131,115995,1,8,0:0:0:0:
29,131,116190,1,0,0:0:0:0:
29,131,116384,1,8,0:0:0:0:
29,131,116774,1,0,0:0:0:0:
376,171,117164,5,0,0:0:0:0:
376,171,117261,1,8,0:0:0:0:
376,171,117358,1,8,0:0:0:0:
376,171,117456,1,0,0:0:0:0:
376,171,117553,1,8,0:0:0:0:
376,171,117651,1,8,0:0:0:0:
376,171,117748,1,0,0:0:0:0:
376,171,117845,1,0,0:0:0:0:
376,171,117943,1,8,0:0:0:0:
376,171,118040,1,8,0:0:0:0:
376,171,118138,1,0,0:0:0:0:
188,117,118332,5,12,0:0:0:0:
188,117,118722,1,4,0:0:0:0:
184,104,118917,1,8,0:0:0:0:
185,71,119014,1,8,0:0:0:0:
185,71,119306,1,0,0:0:0:0:
239,16,119501,1,8,0:0:0:0:
255,88,119696,1,0,0:0:0:0:
255,88,119891,1,8,0:0:0:0:
246,67,119988,1,0,0:0:0:0:
255,88,120086,1,8,0:0:0:0:
255,88,120281,1,0,0:0:0:0:
310,180,120475,1,8,0:0:0:0:
310,180,120573,1,0,0:0:0:0:
291,66,120865,1,0,0:0:0:0:
222,94,121060,1,8,0:0:0:0:
155,108,121255,1,0,0:0:0:0:
237,91,121449,1,8,0:0:0:0:
165,105,121644,1,8,0:0:0:0:
155,108,121742,1,8,0:0:0:0:
222,94,121839,1,0,0:0:0:0:
222,94,122034,1,8,0:0:0:0:
222,94,122131,1,8,0:0:0:0:
132,128,122423,1,0,0:0:0:0:
132,128,122618,1,8,0:0:0:0:
189,79,122813,1,0,0:0:0:0:
123,135,123008,1,8,0:0:0:0:
136,118,123105,1,0,0:0:0:0:
193,76,123203,1,8,0:0:0:0:
75,148,123397,1,8,0:0:0:0:
97,140,123495,1,0,0:0:0:0:
97,140,123592,1,0,0:0:0:0:
143,132,123690,1,8,0:0:0:0:
157,158,123787,1,0,0:0:0:0:
136,118,123884,1,0,0:0:0:0:
136,118,123982,1,8,0:0:0:0:
188,93,124079,1,0,0:0:0:0:
220,78,124177,1,8,0:0:0:0:
220,78,124274,1,8,0:0:0:0:
220,78,124371,1,8,0:0:0:0:
220,78,124469,1,8,0:0:0:0:
223,76,124566,1,0,0:0:0:0:
223,76,124664,1,0,0:0:0:0:
223,76,124761,1,0,0:0:0:0:
190,116,124956,1,12,0:0:0:0:
103,132,125151,1,0,0:0:0:0:
82,132,125248,1,8,0:0:0:0:
90,83,125540,1,8,0:0:0:0:
90,83,125638,1,8,0:0:0:0:
35,126,125735,1,0,0:0:0:0:
102,126,125930,1,0,0:0:0:0:
180,127,126125,1,8,0:0:0:0:
151,114,126222,1,0,0:0:0:0:
151,114,126319,1,8,0:0:0:0:
151,114,126514,1,0,0:0:0:0:
90,128,126709,1,8,0:0:0:0:
66,133,126806,1,0,0:0:0:0:
33,142,127001,5,8,0:0:0:0:
33,142,127099,1,0,0:0:0:0:
90,128,127293,1,8,0:0:0:0:
90,128,127488,1,0,0:0:0:0:
90,128,127586,1,8,0:0:0:0:
149,167,127781,1,0,0:0:0:0:
115,144,127878,1,8,0:0:0:0:
175,108,128073,5,4,0:0:0:0:
148,47,128268,1,8,0:0:0:0:
148,47,128462,1,8,0:0:0:0:
148,47,128657,1,8,0:0:0:0:
229,74,128852,1,0,0:0:0:0:
142,45,129047,1,0,0:0:0:0:
193,62,129242,1,8,0:0:0:0:
141,44,129436,1,0,0:0:0:0:
221,109,129631,5,8,0:0:0:0:
242,106,129729,1,8,0:0:0:0:
242,106,129826,1,8,0:0:0:0:
221,80,129923,1,0,0:0:0:0:
221,109,130021,1,8,0:0:0:0:
190,114,130118,1,0,0:0:0:0:
164,118,130216,1,0,0:0:0:0:
143,121,130313,1,0,0:0:0:0:
221,109,130410,1,8,0:0:0:0:
143,121,130605,1,0,0:0:0:0:
143,121,130703,1,0,0:0:0:0:
143,121,130800,1,8,0:0:0:0:
143,121,130897,1,0,0:0:0:0:
143,121,130995,1,8,0:0:0:0:
145,94,131092,1,8,0:0:0:0:
348,195,131190,5,0,0:0:0:0:
368,153,131319,1,0,0:0:0:0:
368,153,131449,1,0,0:0:0:0:
368,153,131579,1,8,0:0:0:0:
368,153,131709,1,8,0:0:0:0:
368,153,131839,1,8,0:0:0:0:
368,153,131969,1,0,0:0:0:0:
368,153,132099,1,8,0:0:0:0:
368,153,132229,1,8,0:0:0:0:
368,153,132358,1,0,0:0:0:0:
368,153,132488,1,0,0:0:0:0:
368,153,132618,1,0,0:0:0:0:
368,153,132748,1,12,0:0:0:0:
209,149,133138,1,4,0:0:0:0:
52,145,133527,1,12,0:0:0:0:
199,152,133917,1,12,0:0:0:0:
331,232,134306,1,0,0:0:0:0:
331,232,134404,1,8,0:0:0:0:
326,198,134501,1,0,0:0:0:0:
320,156,134599,1,8,0:0:0:0:
283,157,134696,1,8,0:0:0:0:
242,158,134793,1,0,0:0:0:0:
200,158,134891,1,8,0:0:0:0:
162,158,134988,1,0,0:0:0:0:
308,51,135086,1,8,0:0:0:0:
308,51,135183,1,8,0:0:0:0:
317,33,135281,1,0,0:0:0:0:
277,48,135378,1,0,0:0:0:0:
227,67,135475,1,8,0:0:0:0:
181,85,135573,1,0,0:0:0:0:
137,103,135670,1,8,0:0:0:0:
98,119,135865,1,4,0:0:0:0:
171,142,136060,1,0,0:0:0:0:
238,162,136255,1,8,0:0:0:0:
168,158,136449,1,8,0:0:0:0:
135,156,136547,1,8,0:0:0:0:
108,154,136644,1,0,0:0:0:0:
98,119,136742,1,0,0:0:0:0:
98,119,136839,1,8,0:0:0:0:
86,168,136936,1,0,0:0:0:0:
106,128,137034,1,8,0:0:0:0:
106,128,137229,1,8,0:0:0:0:
106,128,137423,1,0,0:0:0:0:
128,139,137521,1,8,0:0:0:0:
148,148,137618,1,0,0:0:0:0:
168,158,137716,1,0,0:0:0:0:
123,151,137813,1,8,0:0:0:0:
45,139,138008,1,0,0:0:0:0:
320,41,138203,1,0,0:0:0:0:
281,71,138300,1,8,0:0:0:0:
281,71,138397,1,8,0:0:0:0:
262,47,138495,1,0,0:0:0:0:
236,94,138592,1,8,0:0:0:0:
217,96,138690,1,0,0:0:0:0:
45,139,138787,1,8,0:0:0:0:
72,130,138884,1,8,0:0:0:0:
217,103,138982,1,0,0:0:0:0:
151,122,139177,1,0,0:0:0:0:
99,136,139371,1,8,0:0:0:0:
100,51,139566,1,8,0:0:0:0:
100,51,139664,1,8,0:0:0:0:
100,51,139761,1,0,0:0:0:0:
154,109,139956,1,0,0:0:0:0:
127,80,140151,1,8,0:0:0:0:
127,80,140248,1,0,0:0:0:0:
127,80,140345,1,0,0:0:0:0:
127,80,140443,1,0,0:0:0:0:
98,99,140540,1,8,0:0:0:0:
175,99,140735,1,8,0:0:0:0:
146,99,140832,1,8,0:0:0:0:
103,99,140930,1,0,0:0:0:0:
328,131,141125,1,8,0:0:0:0:
292,126,141222,1,0,0:0:0:0:
267,122,141319,1,8,0:0:0:0:
208,125,141514,1,0,0:0:0:0:
176,127,141612,1,0,0:0:0:0:
184,126,141709,1,8,0:0:0:0:
184,126,141806,1,8,0:0:0:0:
184,126,141904,1,8,0:0:0:0:
184,126,142001,1,8,0:0:0:0:
184,126,142099,1,0,0:0:0:0:
109,113,142293,1,8,0:0:0:0:
109,113,142391,1,0,0:0:0:0:
109,113,142488,1,8,0:0:0:0:
135,119,142683,1,0,0:0:0:0:
132,116,142878,1,8,0:0:0:0:
132,116,143073,1,0,0:0:0:0:
132,116,143170,1,8,0:0:0:0:
132,116,143365,1,0,0:0:0:0:
132,116,143462,1,8,0:0:0:0:
111,105,143560,1,8,0:0:0:0:
129,118,143657,1,0,0:0:0:0:
107,125,143852,1,0,0:0:0:0:
107,125,143949,1,0,0:0:0:0:
107,125,144047,1,8,0:0:0:0:
107,125,144242,1,0,0:0:0:0:
229,55,144436,1,0,0:0:0:0:
229,55,144534,1,8,0:0:0:0:
229,55,144631,1,0,0:0:0:0:
229,55,144729,1,0,0:0:0:0:
229,55,144826,1,8,0:0:0:0:
229,55,144923,1,0,0:0:0:0:
229,55,145021,1,8,0:0:0:0:
194,69,145216,1,0,0:0:0:0:
175,81,145313,1,0,0:0:0:0:
151,96,145410,1,0,0:0:0:0:
125,108,145508,1,8,0:0:0:0:
125,108,145703,1,0,0:0:0:0:
28,129,145800,1,8,0:0:0:0:
96,158,145995,1,0,0:0:0:0:
309,193,146190,1,8,0:0:0:0:
276,182,146287,1,0,0:0:0:0:
125,108,146384,1,8,0:0:0:0:
98,121,146482,1,0,0:0:0:0:
125,108,146579,1,0,0:0:0:0:
179,123,146774,1,8,0:0:0:0:
153,126,146871,1,8,0:0:0:0:
179,123,146969,1,0,0:0:0:0:
179,123,147066,1,8,0:0:0:0:
179,123,147261,1,0,0:0:0:0:
179,123,147358,1,8,0:0:0:0:
179,123,147553,1,8,0:0:0:0:
179,123,147651,1,8,0:0:0:0:
179,123,147748,1,0,0:0:0:0:
179,123,147845,1,0,0:0:0:0:
179,123,147943,1,8,0:0:0:0:
179,123,148040,1,0,0:0:0:0:
179,123,148138,1,8,0:0:0:0:
159,141,148332,5,4,0:0:0:0:
171,142,148527,1,0,0:0:0:0:
238,162,148722,1,8,0:0:0:0:
168,158,148917,1,0,0:0:0:0:
135,156,149014,1,8,0:0:0:0:
108,154,149112,1,0,0:0:0:0:
98,119,149209,1,0,0:0:0:0:
98,119,149306,1,8,0:0:0:0:
86,168,149404,1,0,0:0:0:0:
106,128,149501,1,8,0:0:0:0:
106,128,149696,1,8,0:0:0:0:
106,128,149891,1,0,0:0:0:0:
128,139,149988,1,0,0:0:0:0:
148,148,150086,1,8,0:0:0:0:
168,158,150183,1,8,0:0:0:0:
123,151,150281,1,0,0:0:0:0:
45,139,150475,1,0,0:0:0:0:
320,41,150670,1,8,0:0:0:0:
281,71,150768,1,0,0:0:0:0:
281,71,150865,1,8,0:0:0:0:
262,47,150962,1,8,0:0:0:0:
236,94,151060,1,8,0:0:0:0:
196,97,151157,1,0,0:0:0:0:
236,94,151255,1,8,0:0:0:0:
154,109,151352,1,8,0:0:0:0:
217,103,151449,1,0,0:0:0:0:
151,122,151644,1,0,0:0:0:0:
99,136,151839,1,8,0:0:0:0:
100,51,152034,1,0,0:0:0:0:
100,51,152131,1,8,0:0:0:0:
100,51,152229,1,0,0:0:0:0:
154,109,152423,1,0,0:0:0:0:
127,80,152618,1,8,0:0:0:0:
127,80,152716,1,8,0:0:0:0:
127,80,152813,1,8,0:0:0:0:
127,80,152910,1,0,0:0:0:0:
98,99,153008,1,8,0:0:0:0:
175,99,153203,1,0,0:0:0:0:
146,99,153300,1,0,0:0:0:0:
103,99,153397,1,8,0:0:0:0:
328,131,153592,1,8,0:0:0:0:
292,126,153690,1,8,0:0:0:0:
267,122,153787,1,0,0:0:0:0:
247,123,153884,1,8,0:0:0:0:
208,125,153982,1,0,0:0:0:0:
176,127,154079,1,0,0:0:0:0:
184,126,154177,1,8,0:0:0:0:
184,126,154274,1,8,0:0:0:0:
184,126,154371,1,8,0:0:0:0:
184,126,154566,1,4,0:0:0:0:
109,113,154761,1,8,0:0:0:0:
131,139,154858,1,0,0:0:0:0:
73,149,154956,1,0,0:0:0:0:
73,149,155151,1,0,0:0:0:0:
99,137,155345,1,8,0:0:0:0:
129,124,155540,1,0,0:0:0:0:
129,124,155638,1,8,0:0:0:0:
129,124,155735,1,8,0:0:0:0:
196,112,155930,1,0,0:0:0:0:
196,112,156125,1,8,0:0:0:0:
234,113,156222,1,8,0:0:0:0:
176,94,156319,1,0,0:0:0:0:
176,94,156417,1,0,0:0:0:0:
176,94,156514,1,8,0:0:0:0:
176,94,156709,1,0,0:0:0:0:
176,94,156806,1,8,0:0:0:0:
483,0,156904,1,0,0:0:0:0:
448,13,157001,1,0,0:0:0:0:
413,26,157099,1,8,0:0:0:0:
379,39,157196,1,0,0:0:0:0:
196,112,157293,1,8,0:0:0:0:
196,112,157391,1,8,0:0:0:0:
196,112,157488,1,0,0:0:0:0:
142,112,157683,5,4,0:0:0:0:
142,112,157975,1,4,0:0:0:0:
142,112,158268,1,4,0:0:0:0:
142,112,158462,1,12,0:0:0:0:
90,131,159242,5,4,0:0:0:0:
163,116,159436,1,0,0:0:0:0:
187,106,159534,1,8,0:0:0:0:
216,106,159631,1,0,0:0:0:0:
286,31,159826,1,8,0:0:0:0:
251,85,160021,1,0,0:0:0:0:
251,85,160118,1,0,0:0:0:0:
251,85,160216,1,0,0:0:0:0:
90,131,160410,1,8,0:0:0:0:
166,126,160605,1,8,0:0:0:0:
204,123,160703,1,8,0:0:0:0:
237,121,160800,1,0,0:0:0:0:
290,29,160995,1,8,0:0:0:0:
90,131,161190,1,0,0:0:0:0:
237,121,161384,1,0,0:0:0:0:
237,121,161482,1,0,0:0:0:0:
298,250,161579,1,0,0:0:0:0:
258,198,161774,1,8,0:0:0:0:
248,154,161871,1,0,0:0:0:0:
232,139,161969,1,8,0:0:0:0:
137,138,162066,1,8,0:0:0:0:
171,141,162164,1,0,0:0:0:0:
230,59,162358,1,8,0:0:0:0:
263,115,162553,1,0,0:0:0:0:
255,77,162651,1,8,0:0:0:0:
263,115,162748,1,0,0:0:0:0:
20,169,162943,1,8,0:0:0:0:
263,115,163138,1,0,0:0:0:0:
263,115,163235,1,0,0:0:0:0:
263,115,163332,1,0,0:0:0:0:
205,72,163527,1,8,0:0:0:0:
136,99,163722,1,8,0:0:0:0:
98,114,163819,1,8,0:0:0:0:
57,131,163917,1,0,0:0:0:0:
9,175,164112,1,8,0:0:0:0:
76,175,164306,1,0,0:0:0:0:
106,132,164404,1,0,0:0:0:0:
94,148,164501,1,0,0:0:0:0:
138,133,164599,1,0,0:0:0:0:
161,126,164696,1,8,0:0:0:0:
138,133,164891,1,0,0:0:0:0:
138,133,164988,1,8,0:0:0:0:
138,133,165183,1,0,0:0:0:0:
163,110,165281,1,8,0:0:0:0:
158,75,165378,1,8,0:0:0:0:
202,77,165475,1,0,0:0:0:0:
141,85,165670,1,0,0:0:0:0:
116,88,165768,1,8,0:0:0:0:
93,91,165865,1,0,0:0:0:0:
37,146,166060,1,8,0:0:0:0:
92,139,166255,1,0,0:0:0:0:
115,120,166352,1,0,0:0:0:0:
115,120,166449,1,0,0:0:0:0:
115,120,166644,1,8,0:0:0:0:
92,139,166839,1,8,0:0:0:0:
92,139,166936,1,8,0:0:0:0:
270,52,167034,1,0,0:0:0:0:
309,16,167229,5,8,0:0:0:0:
229,60,167423,1,0,0:0:0:0:
170,89,167618,1,0,0:0:0:0:
170,89,167716,1,0,0:0:0:0:
170,89,167813,1,0,0:0:0:0:
134,88,168008,5,8,0:0:0:0:
132,103,168105,1,8,0:0:0:0:
197,76,168203,1,8,0:0:0:0:
152,94,168300,1,0,0:0:0:0:
197,76,168397,1,0,0:0:0:0:
157,96,168495,1,0,0:0:0:0:
337,197,168592,5,8,0:0:0:0:
337,197,168787,1,8,0:0:0:0:
337,197,168884,1,8,0:0:0:0:
337,197,168982,1,0,0:0:0:0:
311,189,169079,1,0,0:0:0:0:
282,181,169177,1,8,0:0:0:0:
229,169,169371,1,8,0:0:0:0:
198,164,169469,1,8,0:0:0:0:
173,160,169566,1,8,0:0:0:0:
150,156,169664,1,0,0:0:0:0:
117,151,169761,1,8,0:0:0:0:
94,115,169956,1,8,0:0:0:0:
94,115,170053,1,0,0:0:0:0:
146,121,170151,5,8,0:0:0:0:
146,121,170248,1,8,0:0:0:0:
146,121,170345,1,0,0:0:0:0:
146,121,170443,1,0,0:0:0:0:
146,121,170540,1,8,0:0:0:0:
92,151,170638,1,8,0:0:0:0:
92,151,170735,1,8,0:0:0:0:
146,121,170832,1,0,0:0:0:0:
92,151,170930,5,8,0:0:0:0:
107,135,170995,1,0,0:0:0:0:
130,137,171060,1,0,0:0:0:0:
148,139,171125,1,8,0:0:0:0:
107,135,171222,1,0,0:0:0:0:
146,121,171319,1,8,0:0:0:0:
166,114,171384,1,8,0:0:0:0:
181,109,171449,1,8,0:0:0:0:
193,105,171514,1,0,0:0:0:0:
207,100,171612,1,0,0:0:0:0:
247,87,171709,1,8,0:0:0:0:
172,55,171904,1,8,0:0:0:0:
136,87,172001,1,0,0:0:0:0:
221,95,172196,1,8,0:0:0:0:
48,180,172293,1,8,0:0:0:0:
49,155,172391,1,0,0:0:0:0:
221,95,172488,1,8,0:0:0:0:
118,106,172586,1,8,0:0:0:0:
221,95,172781,1,0,0:0:0:0:
50,183,172878,1,8,0:0:0:0:
98,127,173073,1,8,0:0:0:0:
127,93,173170,1,0,0:0:0:0:
370,146,173268,5,8,0:0:0:0:
120,125,173365,1,0,0:0:0:0:
98,127,173462,1,0,0:0:0:0:
370,146,173560,1,8,0:0:0:0:
370,146,173657,1,8,0:0:0:0:
120,125,173755,1,0,0:0:0:0:
370,146,173852,1,8,0:0:0:0:
338,137,173949,1,0,0:0:0:0:
115,147,174047,5,8,0:0:0:0:
152,154,174144,1,8,0:0:0:0:
155,125,174242,1,8,0:0:0:0:
155,125,174339,1,0,0:0:0:0:
180,117,174436,1,8,0:0:0:0:
180,117,174534,1,8,0:0:0:0:
149,131,174631,1,0,0:0:0:0:
372,176,174826,5,8,0:0:0:0:
386,145,174923,1,0,0:0:0:0:
372,176,175021,1,8,0:0:0:0:
372,176,175118,1,8,0:0:0:0:
372,176,175216,1,8,0:0:0:0:
386,145,175313,1,0,0:0:0:0:
386,145,175410,1,0,0:0:0:0:
351,136,175508,1,0,0:0:0:0:
347,143,175605,5,8,0:0:0:0:
316,141,175703,1,8,0:0:0:0:
280,138,175800,1,0,0:0:0:0:
236,135,175897,1,8,0:0:0:0:
198,132,175995,1,8,0:0:0:0:
165,130,176092,1,8,0:0:0:0:
140,129,176190,1,0,0:0:0:0:
405,113,176384,1,8,0:0:0:0:
405,113,176514,1,8,0:0:0:0:
405,113,176644,1,0,0:0:0:0:
405,113,176774,1,8,0:0:0:0:
354,123,176904,1,8,0:0:0:0:
304,133,177034,1,8,0:0:0:0:
254,133,177164,1,0,0:0:0:0:
237,71,177261,1,8,0:0:0:0:
263,55,177358,1,0,0:0:0:0:
245,26,177456,1,8,0:0:0:0:
263,55,177553,1,0,0:0:0:0:
234,39,177651,1,8,0:0:0:0:
234,39,177748,1,8,0:0:0:0:
234,39,177845,1,8,0:0:0:0:
234,39,177943,1,4,0:0:0:0:
185,192,178332,1,8,0:0:0:0:
131,137,178527,1,8,0:0:0:0:
131,137,178625,1,0,0:0:0:0:
131,137,178722,1,8,0:0:0:0:
131,137,178917,1,0,0:0:0:0:
157,125,179014,1,8,0:0:0:0:
164,98,179209,1,0,0:0:0:0:
175,19,179306,1,8,0:0:0:0:
168,55,179404,1,8,0:0:0:0:
137,108,179501,1,0,0:0:0:0:
194,109,179696,1,8,0:0:0:0:
165,115,179793,1,8,0:0:0:0:
128,122,179988,1,0,0:0:0:0:
128,122,180086,1,8,0:0:0:0:
194,109,180183,1,0,0:0:0:0:
54,145,180281,1,0,0:0:0:0:
54,145,180475,1,0,0:0:0:0:
54,145,180573,1,8,0:0:0:0:
54,145,180670,1,8,0:0:0:0:
79,128,180768,1,0,0:0:0:0:
79,128,180865,1,8,0:0:0:0:
115,95,181060,1,4,0:0:0:0:
199,113,181255,1,0,0:0:0:0:
166,112,181352,1,8,0:0:0:0:
199,113,181547,1,0,0:0:0:0:
79,128,181644,1,8,0:0:0:0:
443,104,181839,1,4,0:0:0:0:
375,108,182034,1,8,0:0:0:0:
199,113,182131,1,0,0:0:0:0:
256,116,182326,1,8,0:0:0:0:
216,119,182423,1,0,0:0:0:0:
91,117,182618,1,12,0:0:0:0:
14,140,182813,1,0,0:0:0:0:
44,131,182910,1,8,0:0:0:0:
91,117,183105,1,8,0:0:0:0:
91,117,183203,1,0,0:0:0:0:
434,104,183397,1,12,0:0:0:0:
347,102,183592,1,0,0:0:0:0:
304,101,183690,1,8,0:0:0:0:
259,100,183787,1,8,0:0:0:0:
279,64,183884,1,8,0:0:0:0:
286,53,183982,1,0,0:0:0:0:
286,53,184047,1,0,0:0:0:0:
286,53,184112,1,0,0:0:0:0:
286,53,184177,1,8,0:0:0:0:
252,66,184274,1,8,0:0:0:0:
214,81,184371,1,0,0:0:0:0:
163,101,184469,1,8,0:0:0:0:
130,115,184566,1,8,0:0:0:0:
97,129,184664,1,0,0:0:0:0:
130,115,184858,1,0,0:0:0:0:
130,115,184956,1,8,0:0:0:0:
130,115,185053,1,8,0:0:0:0:
130,115,185151,1,0,0:0:0:0:
130,115,185248,1,0,0:0:0:0:
130,115,185345,1,8,0:0:0:0:
130,115,185443,1,0,0:0:0:0:
130,115,185540,1,0,0:0:0:0:
130,115,185735,1,0,0:0:0:0:
147,135,185832,1,0,0:0:0:0:
130,115,185930,1,8,0:0:0:0:
130,115,186027,1,0,0:0:0:0:
130,115,186125,1,8,0:0:0:0:
130,115,186222,1,0,0:0:0:0:
162,97,186319,1,0,0:0:0:0:
194,79,186417,1,8,0:0:0:0:
228,61,186514,1,8,0:0:0:0:
263,42,186612,1,0,0:0:0:0:
263,42,186709,1,8,0:0:0:0:
263,42,186806,1,0,0:0:0:0:
263,42,186904,1,8,0:0:0:0:
263,42,187001,1,8,0:0:0:0:
263,42,187099,1,0,0:0:0:0:
263,42,187293,1,8,0:0:0:0:
194,79,187391,1,0,0:0:0:0:
160,103,187586,1,8,0:0:0:0:
194,79,187683,1,0,0:0:0:0:
271,38,187878,1,8,0:0:0:0:
194,79,187975,1,0,0:0:0:0:
182,90,188073,1,8,0:0:0:0:
219,73,188170,1,8,0:0:0:0:
182,90,188365,1,8,0:0:0:0:
219,73,188462,1,0,0:0:0:0:
182,90,188657,1,8,0:0:0:0:
219,73,188755,1,0,0:0:0:0:
182,90,188852,1,8,0:0:0:0:
145,131,188949,1,8,0:0:0:0:
145,131,189047,1,8,0:0:0:0:
219,73,189144,1,8,0:0:0:0:
145,131,189242,1,8,0:0:0:0:
155,90,189339,1,8,0:0:0:0:
165,49,189436,1,0,0:0:0:0:
165,49,189534,1,0,0:0:0:0:
314,131,189631,1,8,0:0:0:0:
231,123,189826,1,0,0:0:0:0:
159,117,190021,1,8,0:0:0:0:
159,117,190118,1,8,0:0:0:0:
159,117,190216,1,8,0:0:0:0:
159,117,190313,1,8,0:0:0:0:
187,107,190410,1,0,0:0:0:0:
113,128,190508,1,8,0:0:0:0:
113,128,190605,1,0,0:0:0:0:
113,128,190800,1,8,0:0:0:0:
137,103,190897,1,0,0:0:0:0:
168,71,190995,1,8,0:0:0:0:
196,43,191092,1,8,0:0:0:0:
196,43,191190,1,0,0:0:0:0:
187,80,191384,1,0,0:0:0:0:
187,80,191482,1,8,0:0:0:0:
187,80,191579,1,8,0:0:0:0:
187,80,191677,1,0,0:0:0:0:
187,80,191774,1,8,0:0:0:0:
187,80,191871,1,0,0:0:0:0:
187,80,191969,1,0,0:0:0:0:
187,80,192066,1,8,0:0:0:0:
187,80,192164,1,0,0:0:0:0:
148,101,192261,1,8,0:0:0:0:
103,125,192358,1,8,0:0:0:0:
143,108,192456,1,8,0:0:0:0:
186,92,192553,1,0,0:0:0:0:
149,106,192651,1,0,0:0:0:0:
149,106,192748,1,8,0:0:0:0:
235,67,192943,1,0,0:0:0:0:
206,98,193040,1,8,0:0:0:0:
127,114,193235,1,0,0:0:0:0:
113,127,193332,1,8,0:0:0:0:
161,106,193430,1,0,0:0:0:0:
214,123,193527,1,8,0:0:0:0:
233,104,193625,1,8,0:0:0:0:
233,104,193722,1,8,0:0:0:0:
233,104,193819,1,0,0:0:0:0:
233,104,193917,1,8,0:0:0:0:
182,113,193982,1,0,0:0:0:0:
161,94,194047,1,0,0:0:0:0:
154,118,194112,1,8,0:0:0:0:
161,94,194209,1,0,0:0:0:0:
161,94,194306,1,8,0:0:0:0:
161,94,194404,1,8,0:0:0:0:
161,94,194501,1,8,0:0:0:0:
161,94,194599,1,8,0:0:0:0:
161,94,194696,1,8,0:0:0:0:
191,86,194793,1,8,0:0:0:0:
213,81,194891,1,0,0:0:0:0:
275,67,195086,1,8,0:0:0:0:
241,79,195183,1,8,0:0:0:0:
205,91,195281,1,0,0:0:0:0:
169,104,195378,1,8,0:0:0:0:
203,111,195475,1,8,0:0:0:0:
245,121,195573,1,0,0:0:0:0:
245,121,195670,1,8,0:0:0:0:
245,121,195768,1,0,0:0:0:0:
245,121,195865,1,8,0:0:0:0:
204,130,195962,1,0,0:0:0:0:
158,140,196060,1,8,0:0:0:0:
118,150,196157,1,8,0:0:0:0:
74,161,196255,1,8,0:0:0:0:
119,150,196352,1,0,0:0:0:0:
72,162,196449,1,8,0:0:0:0:
268,137,196644,1,4,0:0:0:0:
370,193,196936,1,4,0:0:0:0:
463,245,197229,1,4,0:0:0:0:
391,205,197423,1,12,0:0:0:0:
391,205,197716,1,12,0:0:0:0:
391,205,198008,1,12,0:0:0:0:
309,184,198203,1,4,0:0:0:0:
256,192,198397,12,0,199566,0:0:0:0:
274,84,199761,5,0,0:0:0:0:
274,84,200151,1,8,0:0:0:0:
274,84,200540,1,8,0:0:0:0:
204,82,200735,1,0,0:0:0:0:
274,84,200930,1,8,0:0:0:0:
204,82,201125,1,8,0:0:0:0:
97,108,201319,1,0,0:0:0:0:
282,83,201709,1,8,0:0:0:0:
215,106,201904,1,0,0:0:0:0:
98,108,202099,1,8,0:0:0:0:
287,82,202488,1,8,0:0:0:0:
91,109,202878,1,0,0:0:0:0:
277,84,203268,1,8,0:0:0:0:
214,103,203462,1,0,0:0:0:0:
199,99,203657,1,8,0:0:0:0:
270,85,204047,1,8,0:0:0:0:
89,109,204436,1,0,0:0:0:0:
271,85,204826,5,8,0:0:0:0:
203,106,205021,1,0,0:0:0:0:
181,113,205118,1,8,0:0:0:0:
155,158,205216,1,8,0:0:0:0:
181,113,205410,1,0,0:0:0:0:
269,85,205605,1,8,0:0:0:0:
181,113,205703,1,8,0:0:0:0:
181,113,205800,1,0,0:0:0:0:
231,76,205995,5,4,0:0:0:0:
135,111,206287,1,0,0:0:0:0:
147,87,206384,1,8,0:0:0:0:
186,86,206579,1,0,0:0:0:0:
186,86,206774,1,8,0:0:0:0:
181,113,207066,1,0,0:0:0:0:
186,86,207164,1,8,0:0:0:0:
92,142,207358,1,0,0:0:0:0:
92,142,207553,1,0,0:0:0:0:
114,119,207748,1,8,0:0:0:0:
181,113,207845,1,8,0:0:0:0:
152,106,207943,1,0,0:0:0:0:
152,106,208138,1,0,0:0:0:0:
152,106,208332,1,0,0:0:0:0:
152,106,208430,1,8,0:0:0:0:
152,106,208527,1,0,0:0:0:0:
152,106,208722,1,8,0:0:0:0:
152,106,208819,1,0,0:0:0:0:
317,148,208917,1,8,0:0:0:0:
161,91,209112,1,4,0:0:0:0:
161,91,209404,1,4,0:0:0:0:
174,75,209696,1,4,0:0:0:0:
174,75,209891,1,12,0:0:0:0:
106,108,210086,1,8,0:0:0:0:
76,123,210183,1,0,0:0:0:0:
46,138,210281,1,0,0:0:0:0:
46,138,210378,1,8,0:0:0:0:
46,138,210475,1,0,0:0:0:0:
135,376,210670,1,12,0:0:0:0:
150,256,210962,1,12,0:0:0:0:
165,141,211255,1,12,0:0:0:0:
240,168,211449,1,0,0:0:0:0:
294,187,211514,1,0,0:0:0:0:
270,176,211579,1,0,0:0:0:0:
321,197,211644,1,0,0:0:0:0:
225,64,211839,1,12,0:0:0:0:
159,141,212229,5,4,0:0:0:0:
171,142,212424,1,0,0:0:0:0:
238,162,212619,1,8,0:0:0:0:
168,158,212813,1,0,0:0:0:0:
135,156,212911,1,8,0:0:0:0:
108,154,213008,1,0,0:0:0:0:
98,119,213106,1,0,0:0:0:0:
98,119,213203,1,8,0:0:0:0:
86,168,213300,1,0,0:0:0:0:
106,128,213398,1,8,0:0:0:0:
106,128,213593,1,8,0:0:0:0:
106,128,213787,1,0,0:0:0:0:
128,139,213885,1,0,0:0:0:0:
148,148,213982,1,8,0:0:0:0:
168,158,214080,1,8,0:0:0:0:
123,151,214177,1,0,0:0:0:0:
45,139,214372,1,0,0:0:0:0:
320,41,214567,1,8,0:0:0:0:
281,71,214664,1,0,0:0:0:0:
281,71,214761,1,8,0:0:0:0:
262,47,214859,1,8,0:0:0:0:
236,94,214956,1,8,0:0:0:0:
196,97,215054,1,0,0:0:0:0:
236,94,215151,1,8,0:0:0:0:
154,109,215248,1,8,0:0:0:0:
217,103,215346,1,0,0:0:0:0:
151,122,215541,1,0,0:0:0:0:
99,136,215735,1,8,0:0:0:0:
100,51,215930,1,0,0:0:0:0:
100,51,216028,1,8,0:0:0:0:
100,51,216125,1,0,0:0:0:0:
154,109,216320,1,0,0:0:0:0:
127,80,216515,1,8,0:0:0:0:
127,80,216612,1,8,0:0:0:0:
127,80,216709,1,8,0:0:0:0:
127,80,216807,1,0,0:0:0:0:
98,99,216904,1,8,0:0:0:0:
175,99,217099,1,0,0:0:0:0:
146,99,217196,1,0,0:0:0:0:
103,99,217294,1,8,0:0:0:0:
328,131,217489,1,8,0:0:0:0:
292,126,217586,1,8,0:0:0:0:
267,122,217683,1,0,0:0:0:0:
247,123,217781,1,8,0:0:0:0:
208,125,217878,1,0,0:0:0:0:
176,127,217976,1,0,0:0:0:0:
184,126,218073,1,8,0:0:0:0:
184,126,218170,1,8,0:0:0:0:
184,126,218268,1,8,0:0:0:0:
184,126,218463,1,4,0:0:0:0:
109,113,218658,1,8,0:0:0:0:
131,139,218755,1,0,0:0:0:0:
73,149,218852,1,0,0:0:0:0:
73,149,219047,1,0,0:0:0:0:
99,137,219242,1,8,0:0:0:0:
129,124,219437,1,0,0:0:0:0:
129,124,219534,1,8,0:0:0:0:
129,124,219632,1,8,0:0:0:0:
196,112,219826,1,0,0:0:0:0:
196,112,220021,1,8,0:0:0:0:
234,113,220119,1,8,0:0:0:0:
176,94,220216,1,0,0:0:0:0:
176,94,220313,1,0,0:0:0:0:
176,94,220411,1,8,0:0:0:0:
176,94,220606,1,0,0:0:0:0:
176,94,220703,1,8,0:0:0:0:
483,0,220800,1,0,0:0:0:0:
448,13,220898,1,0,0:0:0:0:
413,26,220995,1,8,0:0:0:0:
379,39,221093,1,0,0:0:0:0:
196,112,221190,1,8,0:0:0:0:
196,112,221287,1,8,0:0:0:0:
196,112,221385,1,0,0:0:0:0:
142,112,221580,5,4,0:0:0:0:
142,112,221872,1,4,0:0:0:0:
142,112,222164,1,4,0:0:0:0:
142,112,222359,1,12,0:0:0:0:
151,111,222651,5,8,0:0:0:0:
257,90,222943,1,8,0:0:0:0:
224,81,223040,1,8,0:0:0:0:
224,81,223138,1,0,0:0:0:0:
224,81,223332,1,0,0:0:0:0:
183,93,223430,1,0,0:0:0:0:
224,81,223527,1,8,0:0:0:0:
224,81,223722,1,0,0:0:0:0:
224,81,223917,1,8,0:0:0:0:
214,96,224014,1,8,0:0:0:0:
224,81,224112,1,0,0:0:0:0:
257,90,224209,1,0,0:0:0:0:
214,96,224306,1,8,0:0:0:0:
214,96,224404,1,8,0:0:0:0:
214,96,224501,1,8,0:0:0:0:
243,155,224696,5,4,0:0:0:0:
243,155,224988,1,4,0:0:0:0:
243,155,225281,1,4,0:0:0:0:
243,155,225475,1,12,0:0:0:0:
256,192,225670,12,8,227229,0:0:0:0:
95,133,227423,5,12,0:0:0:0:
95,133,227813,1,4,0:0:0:0:
154,90,228008,1,8,0:0:0:0:
121,85,228105,1,0,0:0:0:0:
46,146,228203,1,8,0:0:0:0:
114,126,228397,1,8,0:0:0:0:
185,106,228592,1,0,0:0:0:0:
116,125,228787,1,0,0:0:0:0:
49,142,228884,1,8,0:0:0:0:
49,142,228982,1,8,0:0:0:0:
46,146,229079,1,0,0:0:0:0:
49,142,229177,1,8,0:0:0:0:
119,102,229371,1,0,0:0:0:0:
165,161,229566,1,0,0:0:0:0:
145,136,229664,1,8,0:0:0:0:
145,136,229761,1,0,0:0:0:0:
46,146,229956,1,0,0:0:0:0:
46,146,230151,1,8,0:0:0:0:
46,146,230248,1,0,0:0:0:0:
46,146,230345,1,8,0:0:0:0:
46,146,230443,1,8,0:0:0:0:
46,146,230540,1,0,0:0:0:0:
66,119,230638,1,8,0:0:0:0:
46,146,230735,1,0,0:0:0:0:
141,100,230930,1,0,0:0:0:0:
204,55,231125,1,8,0:0:0:0:
158,61,231222,1,0,0:0:0:0:
149,94,231319,1,8,0:0:0:0:
141,175,231514,1,8,0:0:0:0:
117,113,231709,1,0,0:0:0:0:
89,34,231904,1,0,0:0:0:0:
126,38,232001,1,8,0:0:0:0:
94,49,232099,1,0,0:0:0:0:
94,49,232196,1,0,0:0:0:0:
140,57,232293,1,8,0:0:0:0:
88,114,232488,1,0,0:0:0:0:
88,114,232683,1,0,0:0:0:0:
88,114,232781,1,8,0:0:0:0:
72,131,232878,1,8,0:0:0:0:
88,114,233073,1,0,0:0:0:0:
150,111,233268,1,8,0:0:0:0:
150,111,233462,1,0,0:0:0:0:
150,111,233560,1,0,0:0:0:0:
149,94,233657,1,8,0:0:0:0:
149,94,233755,1,8,0:0:0:0:
149,94,233852,1,8,0:0:0:0:
174,119,233949,1,8,0:0:0:0:
149,94,234047,1,0,0:0:0:0:
149,94,234242,1,8,0:0:0:0:
185,87,234339,1,0,0:0:0:0:
37,194,234436,1,8,0:0:0:0:
104,146,234631,1,8,0:0:0:0:
152,112,234826,1,0,0:0:0:0:
198,69,235021,1,0,0:0:0:0:
152,112,235118,1,8,0:0:0:0:
152,112,235216,1,8,0:0:0:0:
161,89,235313,1,0,0:0:0:0:
239,30,235410,1,8,0:0:0:0:
239,30,235605,1,0,0:0:0:0:
179,46,235800,1,0,0:0:0:0:
94,62,235897,1,8,0:0:0:0:
94,62,235995,1,0,0:0:0:0:
94,62,236190,1,0,0:0:0:0:
71,139,236384,1,8,0:0:0:0:
98,123,236482,1,0,0:0:0:0:
98,123,236579,1,8,0:0:0:0:
98,123,236677,1,8,0:0:0:0:
98,123,236774,1,0,0:0:0:0:
98,123,236871,1,8,0:0:0:0:
98,123,236969,1,0,0:0:0:0:
141,91,237164,5,0,0:0:0:0:
141,91,237358,1,8,0:0:0:0:
179,98,237456,1,0,0:0:0:0:
141,91,237553,1,8,0:0:0:0:
141,91,237748,1,8,0:0:0:0:
131,113,237845,1,0,0:0:0:0:
141,91,237943,1,0,0:0:0:0:
141,91,238138,1,0,0:0:0:0:
147,53,238235,1,8,0:0:0:0:
155,115,238332,5,0,0:0:0:0:
155,115,238527,1,8,0:0:0:0:
134,140,238722,5,0,0:0:0:0:
160,155,238819,1,0,0:0:0:0:
187,170,238917,5,8,0:0:0:0:
206,181,239014,1,8,0:0:0:0:
226,192,239112,1,8,0:0:0:0:
259,211,239209,1,0,0:0:0:0:
240,183,239306,1,8,0:0:0:0:
221,155,239404,1,0,0:0:0:0:
208,135,239501,1,8,0:0:0:0:
189,107,239599,1,8,0:0:0:0:
189,107,239696,1,8,0:0:0:0:
189,107,239793,1,0,0:0:0:0:
189,107,239891,1,8,0:0:0:0:
189,107,239988,1,8,0:0:0:0:
189,107,240086,1,0,0:0:0:0:
221,138,240281,5,4,0:0:0:0:
221,138,240573,1,4,0:0:0:0:
221,138,240865,1,4,0:0:0:0:
221,138,241060,1,12,0:0:0:0:
221,138,241352,1,12,0:0:0:0:
221,138,241644,1,12,0:0:0:0:
221,138,241839,1,0,0:0:0:0:
178,136,241969,1,8,0:0:0:0:
135,136,242099,1,8,0:0:0:0:
135,136,242229,1,0,0:0:0:0:
135,136,242358,1,8,0:0:0:0:
135,136,242488,1,0,0:0:0:0:
135,136,242618,1,0,0:0:0:0:
135,136,242748,1,8,0:0:0:0:
135,136,242878,1,8,0:0:0:0:
135,136,243008,1,0,0:0:0:0:
135,136,243138,1,0,0:0:0:0:
135,136,243268,1,0,0:0:0:0:
135,136,243397,1,12,0:0:0:0:
