osu file format v14

[General]
AudioFilename: Lv11,23 Alastor.mp3
AudioLeadIn: 0
PreviewTime: 97393
Countdown: 0
SampleSet: Normal
StackLeniency: 0.7
Mode: 3
LetterboxInBreaks: 0
SpecialStyle: 0
WidescreenStoryboard: 0

[Editor]
DistanceSpacing: 1.3
BeatDivisor: 4
GridSize: 8
TimelineZoom: 1.7

[Metadata]
Title:Alastor
TitleUnicode:Alastor
Artist:Hato
ArtistUnicode:鳩
Creator:Mipha-
Version:Hyper
Source:戦 [sen-goku] 國 〜夏の陣〜
Tags:electronic instrumental Sen-Goku ~Natsu no jin~ darkbreaks BMS 北海道 hokkaido zora princess SOFT 6 ro128 playoffs springtime osu!mania free-for-all tournament
BeatmapID:3323295
BeatmapSetID:1607175

[Difficulty]
HPDrainRate:8
CircleSize:4
OverallDifficulty:8
ApproachRate:5
SliderMultiplier:1.4
SliderTickRate:1

[Events]
//Background and Video events
0,0,"wallpapertip_black-abstract-wallpaper-hd_654461.jpg",0,0
//Break Periods
//Storyboard Layer 0 (Background)
//Storyboard Layer 1 (Fail)
//Storyboard Layer 2 (Pass)
//Storyboard Layer 3 (Foreground)
//Storyboard Layer 4 (Overlay)
//Storyboard Sound Samples
Sample,7058,0,"atm01.wav",70
Sample,9882,0,"atm02.wav",70
Sample,12705,0,"atm03.wav",70
Sample,15529,0,"atm04.wav",70
Sample,18352,0,"r65.wav",70
Sample,18352,0,"d03.wav",70
Sample,18352,0,"s01.wav",70
Sample,18352,0,"atm01.wav",70
Sample,18441,0,"r66.wav",70
Sample,18529,0,"r67.wav",70
Sample,18529,0,"s02.wav",70
Sample,18617,0,"r68.wav",70
Sample,18705,0,"r69.wav",70
Sample,18705,0,"s03.wav",70
Sample,18705,0,"d03.wav",70
Sample,18794,0,"r70.wav",70
Sample,18882,0,"r71.wav",70
Sample,18882,0,"s04.wav",70
Sample,18970,0,"r72.wav",70
Sample,19058,0,"r73.wav",70
Sample,19058,0,"d03.wav",70
Sample,19147,0,"r74.wav",70
Sample,19235,0,"s05.wav",70
Sample,19235,0,"r75.wav",70
Sample,19323,0,"r76.wav",70
Sample,19411,0,"r77.wav",70
Sample,19411,0,"s06.wav",70
Sample,19411,0,"d03.wav",70
Sample,19500,0,"r78.wav",70
Sample,19588,0,"s05.wav",70
Sample,19588,0,"r79.wav",70
Sample,19676,0,"r80.wav",70
Sample,19764,0,"s08.wav",70
Sample,19764,0,"r81.wav",70
Sample,19764,0,"d03.wav",70
Sample,19852,0,"r82.wav",70
Sample,19941,0,"r83.wav",70
Sample,19941,0,"s09.wav",70
Sample,20029,0,"r84.wav",70
Sample,20117,0,"s10.wav",70
Sample,20117,0,"d03.wav",70
Sample,20117,0,"r85.wav",70
Sample,20205,0,"r86.wav",70
Sample,20294,0,"s11.wav",70
Sample,20294,0,"r87.wav",70
Sample,20382,0,"r88.wav",70
Sample,20470,0,"r89.wav",70
Sample,20470,0,"d03.wav",70
Sample,20558,0,"r90.wav",70
Sample,20647,0,"s12.wav",70
Sample,20647,0,"r91.wav",70
Sample,20735,0,"r92.wav",70
Sample,20823,0,"d03.wav",70
Sample,20823,0,"r93.wav",70
Sample,20823,0,"s13.wav",70
Sample,20911,0,"r94.wav",70
Sample,21000,0,"s09.wav",70
Sample,21000,0,"r95.wav",70
Sample,21088,0,"r96.wav",70
Sample,21176,0,"s15.wav",70
Sample,21176,0,"atm02.wav",70
Sample,21176,0,"r97.wav",70
Sample,21176,0,"d03.wav",70
Sample,21264,0,"r98.wav",70
Sample,21352,0,"r99.wav",70
Sample,21352,0,"s16.wav",70
Sample,21441,0,"r100.wav",70
Sample,21529,0,"r101.wav",70
Sample,21529,0,"d03.wav",70
Sample,21529,0,"s20.wav",70
Sample,21617,0,"r102.wav",70
Sample,21705,0,"r103.wav",70
Sample,21705,0,"s18.wav",70
Sample,21794,0,"r104.wav",70
Sample,21882,0,"r105.wav",70
Sample,21882,0,"d03.wav",70
Sample,21970,0,"r106.wav",70
Sample,22058,0,"s19.wav",70
Sample,22058,0,"r107.wav",70
Sample,22147,0,"r108.wav",70
Sample,22235,0,"d03.wav",70
Sample,22235,0,"r109.wav",70
Sample,22235,0,"s20.wav",70
Sample,22323,0,"r110.wav",70
Sample,22411,0,"r111.wav",70
Sample,22411,0,"s21.wav",70
Sample,22500,0,"r112.wav",70
Sample,22588,0,"r113.wav",70
Sample,22588,0,"d03.wav",70
Sample,22588,0,"s22.wav",70
Sample,22676,0,"r114.wav",70
Sample,22764,0,"s23.wav",70
Sample,22764,0,"r115.wav",70
Sample,22852,0,"r116.wav",70
Sample,22941,0,"s24.wav",70
Sample,22941,0,"r117.wav",70
Sample,22941,0,"d03.wav",70
Sample,23029,0,"r118.wav",70
Sample,23117,0,"r119.wav",70
Sample,23117,0,"s25.wav",70
Sample,23205,0,"r120.wav",70
Sample,23294,0,"r121.wav",70
Sample,23294,0,"d03.wav",70
Sample,23382,0,"r122.wav",70
Sample,23470,0,"s26.wav",70
Sample,23470,0,"r123.wav",70
Sample,23558,0,"r124.wav",70
Sample,23647,0,"r125.wav",70
Sample,23647,0,"s27.wav",70
Sample,23647,0,"d03.wav",70
Sample,23735,0,"r126.wav",70
Sample,23823,0,"s28.wav",70
Sample,23823,0,"r127.wav",70
Sample,23911,0,"r128.wav",70
Sample,24000,0,"atm03.wav",70
Sample,24000,0,"r01.wav",70
Sample,24000,0,"d03.wav",70
Sample,24088,0,"r02.wav",70
Sample,24176,0,"d01.wav",70
Sample,24176,0,"r03.wav",70
Sample,24264,0,"r04.wav",70
Sample,24352,0,"d04.wav",70
Sample,24352,0,"d03.wav",70
Sample,24352,0,"r05.wav",70
Sample,24441,0,"r06.wav",70
Sample,24529,0,"r07.wav",70
Sample,24529,0,"d01.wav",70
Sample,24617,0,"r08.wav",70
Sample,24705,0,"r09.wav",70
Sample,24705,0,"d03.wav",70
Sample,24794,0,"r10.wav",70
Sample,24882,0,"r11.wav",70
Sample,24882,0,"d01.wav",70
Sample,24970,0,"r12.wav",70
Sample,25058,0,"d03.wav",70
Sample,25058,0,"r13.wav",70
Sample,25058,0,"d04.wav",70
Sample,25147,0,"r14.wav",70
Sample,25235,0,"r15.wav",70
Sample,25235,0,"d01.wav",70
Sample,25323,0,"r16.wav",70
Sample,25411,0,"r17.wav",70
Sample,25411,0,"d03.wav",70
Sample,25500,0,"d01.wav",70
Sample,25500,0,"r18.wav",70
Sample,25588,0,"r19.wav",70
Sample,25676,0,"r20.wav",70
Sample,25764,0,"d04.wav",70
Sample,25764,0,"d01.wav",70
Sample,25764,0,"r21.wav",70
Sample,25764,0,"d03.wav",70
Sample,25852,0,"r22.wav",70
Sample,25941,0,"r23.wav",70
Sample,26029,0,"r24.wav",70
Sample,26117,0,"d03.wav",70
Sample,26117,0,"r25.wav",70
Sample,26205,0,"r26.wav",70
Sample,26294,0,"d01.wav",70
Sample,26294,0,"r27.wav",70
Sample,26382,0,"r28.wav",70
Sample,26382,0,"d04.wav",70
Sample,26470,0,"d04.wav",70
Sample,26470,0,"r29.wav",70
Sample,26470,0,"d03.wav",70
Sample,26558,0,"r30.wav",70
Sample,26647,0,"r31.wav",70
Sample,26647,0,"d01.wav",70
Sample,26735,0,"r32.wav",70
Sample,26823,0,"d03.wav",70
Sample,26823,0,"r33.wav",70
Sample,26823,0,"atm04.wav",70
Sample,26911,0,"r34.wav",70
Sample,27000,0,"d01.wav",70
Sample,27000,0,"r35.wav",70
Sample,27088,0,"r36.wav",70
Sample,27088,0,"d01.wav",70
Sample,27176,0,"r37.wav",70
Sample,27176,0,"d04.wav",70
Sample,27176,0,"d03.wav",70
Sample,27264,0,"r38.wav",70
Sample,27352,0,"d01.wav",70
Sample,27352,0,"r39.wav",70
Sample,27441,0,"r40.wav",70
Sample,27529,0,"r41.wav",70
Sample,27529,0,"d03.wav",70
Sample,27617,0,"r42.wav",70
Sample,27705,0,"d01.wav",70
Sample,27705,0,"r43.wav",70
Sample,27794,0,"r44.wav",70
Sample,27882,0,"r45.wav",70
Sample,27882,0,"d04.wav",70
Sample,27882,0,"d03.wav",70
Sample,27970,0,"r46.wav",70
Sample,28058,0,"d01.wav",70
Sample,28058,0,"r47.wav",70
Sample,28147,0,"r48.wav",70
Sample,28235,0,"d03.wav",70
Sample,28235,0,"r49.wav",70
Sample,28323,0,"r50.wav",70
Sample,28411,0,"r51.wav",70
Sample,28411,0,"d01.wav",70
Sample,28500,0,"r52.wav",70
Sample,28588,0,"r53.wav",70
Sample,28588,0,"d04.wav",70
Sample,28588,0,"d03.wav",70
Sample,28676,0,"r54.wav",70
Sample,28764,0,"d01.wav",70
Sample,28764,0,"r55.wav",70
Sample,28852,0,"r56.wav",70
Sample,28941,0,"r57.wav",70
Sample,28941,0,"d03.wav",70
Sample,29029,0,"r58.wav",70
Sample,29029,0,"d01.wav",70
Sample,29029,0,"d04.wav",70
Sample,29117,0,"r59.wav",70
Sample,29205,0,"r60.wav",70
Sample,29294,0,"d04.wav",70
Sample,29294,0,"d09.wav",70
Sample,29294,0,"d03.wav",70
Sample,29470,0,"d01.wav",70
Sample,29647,0,"d09.wav",70
Sample,29647,0,"abs01.wav",70
Sample,29647,0,"d02.wav",70
Sample,29647,0,"b01.wav",70
Sample,29647,0,"d06.wav",70
Sample,29735,0,"d09.wav",70
Sample,29823,0,"d07.wav",70
Sample,29823,0,"d05.wav",70
Sample,29823,0,"d01.wav",70
Sample,30000,0,"d09.wav",70
Sample,30000,0,"b01.wav",70
Sample,30000,0,"d04.wav",70
Sample,30176,0,"d05.wav",70
Sample,30176,0,"d01.wav",70
Sample,30176,0,"d02.wav",70
Sample,30176,0,"d07.wav",70
Sample,30352,0,"b01.wav",70
Sample,30352,0,"d09.wav",70
Sample,30529,0,"d01.wav",70
Sample,30529,0,"d07.wav",70
Sample,30529,0,"d05.wav",70
Sample,30617,0,"d09.wav",70
Sample,30705,0,"d09.wav",70
Sample,30705,0,"d04.wav",70
Sample,30705,0,"d02.wav",70
Sample,30705,0,"b01.wav",70
Sample,30882,0,"d07.wav",70
Sample,30882,0,"d01.wav",70
Sample,30882,0,"d05.wav",70
Sample,31058,0,"d09.wav",70
Sample,31058,0,"d06.wav",70
Sample,31058,0,"d02.wav",70
Sample,31058,0,"b01.wav",70
Sample,31147,0,"d01.wav",70
Sample,31235,0,"d09.wav",70
Sample,31235,0,"d05.wav",70
Sample,31235,0,"d07.wav",70
Sample,31411,0,"b01.wav",70
Sample,31411,0,"d01.wav",70
Sample,31411,0,"d04.wav",70
Sample,31588,0,"d07.wav",70
Sample,31588,0,"d02.wav",70
Sample,31588,0,"d05.wav",70
Sample,31588,0,"d09.wav",70
Sample,31764,0,"d09.wav",70
Sample,31764,0,"b01.wav",70
Sample,31941,0,"d01.wav",70
Sample,31941,0,"d05.wav",70
Sample,31941,0,"d07.wav",70
Sample,32029,0,"d04.wav",70
Sample,32029,0,"d09.wav",70
Sample,32117,0,"d02.wav",70
Sample,32117,0,"d04.wav",70
Sample,32117,0,"b01.wav",70
Sample,32294,0,"d07.wav",70
Sample,32294,0,"d05.wav",70
Sample,32294,0,"d01.wav",70
Sample,32470,0,"d02.wav",70
Sample,32470,0,"d09.wav",70
Sample,32470,0,"b01.wav",70
Sample,32470,0,"d06.wav",70
Sample,32558,0,"d09.wav",70
Sample,32647,0,"d07.wav",70
Sample,32647,0,"d05.wav",70
Sample,32647,0,"d01.wav",70
Sample,32735,0,"d01.wav",70
Sample,32823,0,"d04.wav",70
Sample,32823,0,"b01.wav",70
Sample,32823,0,"d09.wav",70
Sample,33000,0,"d05.wav",70
Sample,33000,0,"d01.wav",70
Sample,33000,0,"d07.wav",70
Sample,33000,0,"d02.wav",70
Sample,33176,0,"d09.wav",70
Sample,33176,0,"b01.wav",70
Sample,33352,0,"d05.wav",70
Sample,33352,0,"d07.wav",70
Sample,33352,0,"d01.wav",70
Sample,33441,0,"d09.wav",70
Sample,33529,0,"d02.wav",70
Sample,33529,0,"d09.wav",70
Sample,33529,0,"b01.wav",70
Sample,33529,0,"d04.wav",70
Sample,33705,0,"d05.wav",70
Sample,33705,0,"d07.wav",70
Sample,33705,0,"d01.wav",70
Sample,33882,0,"d09.wav",70
Sample,33882,0,"d06.wav",70
Sample,33882,0,"d02.wav",70
Sample,33882,0,"b01.wav",70
Sample,34058,0,"d01.wav",70
Sample,34058,0,"d05.wav",70
Sample,34058,0,"d07.wav",70
Sample,34147,0,"d09.wav",70
Sample,34235,0,"b01.wav",70
Sample,34235,0,"d09.wav",70
Sample,34235,0,"d04.wav",70
Sample,34411,0,"d02.wav",70
Sample,34411,0,"d07.wav",70
Sample,34411,0,"d05.wav",70
Sample,34411,0,"d01.wav",70
Sample,34588,0,"d09.wav",70
Sample,34588,0,"b01.wav",70
Sample,34676,0,"d01.wav",70
Sample,34676,0,"d04.wav",70
Sample,34764,0,"d02.wav",70
Sample,34764,0,"d09.wav",70
Sample,34764,0,"d07.wav",70
Sample,34764,0,"d05.wav",70
Sample,34941,0,"b01.wav",70
Sample,34941,0,"d04.wav",70
Sample,34941,0,"d09.wav",70
Sample,35117,0,"d07.wav",70
Sample,35117,0,"d05.wav",70
Sample,35117,0,"d01.wav",70
Sample,35294,0,"b01.wav",70
Sample,35294,0,"d06.wav",70
Sample,35294,0,"d02.wav",70
Sample,35294,0,"d09.wav",70
Sample,35294,0,"abs01.wav",70
Sample,35382,0,"d09.wav",70
Sample,35470,0,"d07.wav",70
Sample,35470,0,"d05.wav",70
Sample,35470,0,"d01.wav",70
Sample,35647,0,"d04.wav",70
Sample,35647,0,"b01.wav",70
Sample,35647,0,"d09.wav",70
Sample,35823,0,"d07.wav",70
Sample,35823,0,"d01.wav",70
Sample,35823,0,"d05.wav",70
Sample,35823,0,"d02.wav",70
Sample,36000,0,"b01.wav",70
Sample,36000,0,"d09.wav",70
Sample,36176,0,"d01.wav",70
Sample,36176,0,"d05.wav",70
Sample,36176,0,"d07.wav",70
Sample,36264,0,"d09.wav",70
Sample,36352,0,"d02.wav",70
Sample,36352,0,"d09.wav",70
Sample,36352,0,"b01.wav",70
Sample,36352,0,"d04.wav",70
Sample,36529,0,"d01.wav",70
Sample,36529,0,"d07.wav",70
Sample,36529,0,"d05.wav",70
Sample,36705,0,"d02.wav",70
Sample,36705,0,"b01.wav",70
Sample,36705,0,"d09.wav",70
Sample,36705,0,"d06.wav",70
Sample,36794,0,"d01.wav",70
Sample,36882,0,"d05.wav",70
Sample,36882,0,"d07.wav",70
Sample,36882,0,"d09.wav",70
Sample,37058,0,"d04.wav",70
Sample,37058,0,"b01.wav",70
Sample,37058,0,"d01.wav",70
Sample,37235,0,"d09.wav",70
Sample,37235,0,"d05.wav",70
Sample,37235,0,"d02.wav",70
Sample,37235,0,"d07.wav",70
Sample,37411,0,"b01.wav",70
Sample,37411,0,"d09.wav",70
Sample,37588,0,"d05.wav",70
Sample,37588,0,"d07.wav",70
Sample,37588,0,"d01.wav",70
Sample,37676,0,"d09.wav",70
Sample,37676,0,"d04.wav",70
Sample,37764,0,"d02.wav",70
Sample,37764,0,"b01.wav",70
Sample,37764,0,"d04.wav",70
Sample,37941,0,"d05.wav",70
Sample,37941,0,"d01.wav",70
Sample,37941,0,"d07.wav",70
Sample,38117,0,"b01.wav",70
Sample,38117,0,"d06.wav",70
Sample,38117,0,"d02.wav",70
Sample,38117,0,"d09.wav",70
Sample,38205,0,"d09.wav",70
Sample,38294,0,"d01.wav",70
Sample,38294,0,"d05.wav",70
Sample,38294,0,"d07.wav",70
Sample,38382,0,"d01.wav",70
Sample,38470,0,"b01.wav",70
Sample,38470,0,"d09.wav",70
Sample,38470,0,"d04.wav",70
Sample,38647,0,"d01.wav",70
Sample,38647,0,"d07.wav",70
Sample,38647,0,"d05.wav",70
Sample,38647,0,"d02.wav",70
Sample,38823,0,"b01.wav",70
Sample,38823,0,"d09.wav",70
Sample,39000,0,"d05.wav",70
Sample,39000,0,"d01.wav",70
Sample,39000,0,"d07.wav",70
Sample,39088,0,"d09.wav",70
Sample,39176,0,"d02.wav",70
Sample,39176,0,"d04.wav",70
Sample,39176,0,"b01.wav",70
Sample,39176,0,"d09.wav",70
Sample,39352,0,"d07.wav",70
Sample,39352,0,"d05.wav",70
Sample,39352,0,"d01.wav",70
Sample,39529,0,"d02.wav",70
Sample,39529,0,"b01.wav",70
Sample,39529,0,"d09.wav",70
Sample,39529,0,"d06.wav",70
Sample,39705,0,"d05.wav",70
Sample,39705,0,"d07.wav",70
Sample,39705,0,"d01.wav",70
Sample,39794,0,"d09.wav",70
Sample,39882,0,"d09.wav",70
Sample,39882,0,"d04.wav",70
Sample,39882,0,"b01.wav",70
Sample,40058,0,"d05.wav",70
Sample,40058,0,"d01.wav",70
Sample,40058,0,"d02.wav",70
Sample,40058,0,"d07.wav",70
Sample,40235,0,"b01.wav",70
Sample,40235,0,"d09.wav",70
Sample,40323,0,"d01.wav",70
Sample,40323,0,"d04.wav",70
Sample,40411,0,"d07.wav",70
Sample,40411,0,"d02.wav",70
Sample,40411,0,"d05.wav",70
Sample,40411,0,"d09.wav",70
Sample,40588,0,"b01.wav",70
Sample,40588,0,"d09.wav",70
Sample,40588,0,"d04.wav",70
Sample,40764,0,"d05.wav",70
Sample,40764,0,"d01.wav",70
Sample,40764,0,"d07.wav",70
Sample,40941,0,"d06.wav",70
Sample,40941,0,"abs01.wav",70
Sample,40941,0,"d02.wav",70
Sample,40941,0,"d09.wav",70
Sample,41029,0,"d09.wav",70
Sample,41117,0,"d05.wav",70
Sample,41117,0,"d07.wav",70
Sample,41117,0,"d01.wav",70
Sample,41294,0,"d09.wav",70
Sample,41294,0,"d04.wav",70
Sample,41470,0,"d05.wav",70
Sample,41470,0,"d07.wav",70
Sample,41470,0,"d01.wav",70
Sample,41470,0,"d02.wav",70
Sample,41647,0,"d09.wav",70
Sample,41823,0,"d07.wav",70
Sample,41823,0,"d05.wav",70
Sample,41823,0,"d01.wav",70
Sample,41911,0,"d09.wav",70
Sample,42000,0,"d09.wav",70
Sample,42000,0,"d04.wav",70
Sample,42000,0,"d02.wav",70
Sample,42176,0,"d01.wav",70
Sample,42176,0,"d07.wav",70
Sample,42176,0,"d05.wav",70
Sample,42352,0,"d06.wav",70
Sample,42352,0,"d09.wav",70
Sample,42352,0,"d02.wav",70
Sample,42441,0,"d01.wav",70
Sample,42529,0,"d09.wav",70
Sample,42529,0,"d05.wav",70
Sample,42529,0,"d07.wav",70
Sample,42705,0,"d01.wav",70
Sample,42705,0,"d04.wav",70
Sample,42882,0,"d07.wav",70
Sample,42882,0,"d05.wav",70
Sample,42882,0,"d02.wav",70
Sample,42882,0,"d09.wav",70
Sample,43058,0,"d09.wav",70
Sample,43235,0,"d05.wav",70
Sample,43235,0,"d01.wav",70
Sample,43235,0,"d07.wav",70
Sample,43323,0,"d04.wav",70
Sample,43323,0,"d09.wav",70
Sample,43411,0,"d04.wav",70
Sample,43411,0,"d02.wav",70
Sample,43588,0,"d05.wav",70
Sample,43588,0,"d07.wav",70
Sample,43588,0,"d01.wav",70
Sample,43764,0,"d06.wav",70
Sample,43764,0,"d09.wav",70
Sample,43764,0,"d02.wav",70
Sample,43852,0,"d09.wav",70
Sample,43941,0,"d05.wav",70
Sample,43941,0,"d07.wav",70
Sample,43941,0,"d01.wav",70
Sample,44029,0,"d01.wav",70
Sample,44117,0,"d09.wav",70
Sample,44117,0,"d04.wav",70
Sample,44294,0,"d02.wav",70
Sample,44294,0,"d01.wav",70
Sample,44294,0,"d07.wav",70
Sample,44294,0,"d05.wav",70
Sample,44470,0,"d09.wav",70
Sample,44647,0,"d05.wav",70
Sample,44647,0,"d07.wav",70
Sample,44647,0,"d01.wav",70
Sample,44735,0,"d09.wav",70
Sample,44823,0,"d09.wav",70
Sample,44823,0,"d02.wav",70
Sample,44823,0,"d04.wav",70
Sample,45000,0,"d05.wav",70
Sample,45000,0,"d01.wav",70
Sample,45000,0,"d07.wav",70
Sample,45176,0,"d02.wav",70
Sample,45176,0,"d06.wav",70
Sample,45176,0,"d09.wav",70
Sample,45352,0,"d01.wav",70
Sample,45352,0,"d05.wav",70
Sample,45352,0,"d07.wav",70
Sample,45441,0,"d09.wav",70
Sample,45529,0,"d04.wav",70
Sample,45529,0,"d09.wav",70
Sample,45705,0,"d07.wav",70
Sample,45705,0,"d01.wav",70
Sample,45705,0,"d02.wav",70
Sample,45705,0,"d05.wav",70
Sample,45882,0,"d09.wav",70
Sample,45970,0,"d01.wav",70
Sample,45970,0,"d04.wav",70
Sample,46058,0,"d09.wav",70
Sample,46058,0,"d02.wav",70
Sample,46058,0,"d07.wav",70
Sample,46058,0,"d05.wav",70
Sample,46235,0,"d04.wav",70
Sample,46235,0,"d09.wav",70
Sample,46411,0,"d07.wav",70
Sample,46411,0,"d05.wav",70
Sample,46411,0,"d01.wav",70
Sample,46588,0,"d02.wav",70
Sample,46588,0,"d09.wav",70
Sample,46588,0,"d06.wav",70
Sample,46588,0,"abs01.wav",70
Sample,46676,0,"d09.wav",70
Sample,46764,0,"d01.wav",70
Sample,46764,0,"d07.wav",70
Sample,46764,0,"d05.wav",70
Sample,46941,0,"d09.wav",70
Sample,46941,0,"d04.wav",70
Sample,47117,0,"d07.wav",70
Sample,47117,0,"d05.wav",70
Sample,47117,0,"d01.wav",70
Sample,47117,0,"d02.wav",70
Sample,47294,0,"d09.wav",70
Sample,47470,0,"d05.wav",70
Sample,47470,0,"d01.wav",70
Sample,47470,0,"d07.wav",70
Sample,47558,0,"d09.wav",70
Sample,47647,0,"d09.wav",70
Sample,47647,0,"d02.wav",70
Sample,47647,0,"d04.wav",70
Sample,47823,0,"d01.wav",70
Sample,47823,0,"d05.wav",70
Sample,47823,0,"d07.wav",70
Sample,48000,0,"d02.wav",70
Sample,48000,0,"d06.wav",70
Sample,48000,0,"d09.wav",70
Sample,48088,0,"d01.wav",70
Sample,48176,0,"d07.wav",70
Sample,48176,0,"d05.wav",70
Sample,48176,0,"d09.wav",70
Sample,48352,0,"d01.wav",70
Sample,48352,0,"d04.wav",70
Sample,48529,0,"d02.wav",70
Sample,48529,0,"d05.wav",70
Sample,48529,0,"d07.wav",70
Sample,48529,0,"d09.wav",70
Sample,48705,0,"d09.wav",70
Sample,48882,0,"d01.wav",70
Sample,48882,0,"d07.wav",70
Sample,48882,0,"d05.wav",70
Sample,48970,0,"d04.wav",70
Sample,48970,0,"d09.wav",70
Sample,49058,0,"d04.wav",70
Sample,49058,0,"d02.wav",70
Sample,49235,0,"d05.wav",70
Sample,49235,0,"d01.wav",70
Sample,49235,0,"d07.wav",70
Sample,49411,0,"d02.wav",70
Sample,49411,0,"d06.wav",70
Sample,49411,0,"d09.wav",70
Sample,49500,0,"d09.wav",70
Sample,49588,0,"d01.wav",70
Sample,49588,0,"d05.wav",70
Sample,49588,0,"d07.wav",70
Sample,49676,0,"d01.wav",70
Sample,49764,0,"d09.wav",70
Sample,49764,0,"d04.wav",70
Sample,49941,0,"d01.wav",70
Sample,49941,0,"d07.wav",70
Sample,49941,0,"d05.wav",70
Sample,49941,0,"d02.wav",70
Sample,50117,0,"d09.wav",70
Sample,50294,0,"d07.wav",70
Sample,50294,0,"d01.wav",70
Sample,50294,0,"d05.wav",70
Sample,50382,0,"d09.wav",70
Sample,50470,0,"d02.wav",70
Sample,50470,0,"d04.wav",70
Sample,50470,0,"d09.wav",70
Sample,50647,0,"d07.wav",70
Sample,50647,0,"d05.wav",70
Sample,50647,0,"d01.wav",70
Sample,50823,0,"d03.wav",70
Sample,50823,0,"d02.wav",70
Sample,50823,0,"d09.wav",70
Sample,51000,0,"d05.wav",70
Sample,51000,0,"d01.wav",70
Sample,51000,0,"d07.wav",70
Sample,51088,0,"d09.wav",70
Sample,51176,0,"d03.wav",70
Sample,51176,0,"d09.wav",70
Sample,51176,0,"d04.wav",70
Sample,51352,0,"d07.wav",70
Sample,51352,0,"d01.wav",70
Sample,51352,0,"d02.wav",70
Sample,51352,0,"d05.wav",70
Sample,51529,0,"d09.wav",70
Sample,51529,0,"d03.wav",70
Sample,51617,0,"d01.wav",70
Sample,51617,0,"d04.wav",70
Sample,51705,0,"d09.wav",70
Sample,51705,0,"d05.wav",70
Sample,51705,0,"d07.wav",70
Sample,51705,0,"d02.wav",70
Sample,51882,0,"d09.wav",70
Sample,51882,0,"d04.wav",70
Sample,51882,0,"d03.wav",70
Sample,52058,0,"d07.wav",70
Sample,52058,0,"d05.wav",70
Sample,52058,0,"d01.wav",70
Sample,52235,0,"sss01.wav",70
Sample,52235,0,"r65.wav",70
Sample,52235,0,"d06.wav",70
Sample,52235,0,"d02.wav",70
Sample,52235,0,"atm01.wav",70
Sample,52235,0,"b04.wav",70
Sample,52323,0,"r66.wav",70
Sample,52323,0,"sss02.wav",70
Sample,52411,0,"d05.wav",70
Sample,52411,0,"b05.wav",70
Sample,52411,0,"d01.wav",70
Sample,52411,0,"r67.wav",70
Sample,52411,0,"sss03.wav",70
Sample,52500,0,"sss04.wav",70
Sample,52500,0,"b06.wav",70
Sample,52500,0,"r68.wav",70
Sample,52588,0,"b04.wav",70
Sample,52588,0,"r69.wav",70
Sample,52588,0,"sss05.wav",70
Sample,52676,0,"sss06.wav",70
Sample,52676,0,"r70.wav",70
Sample,52764,0,"sss07.wav",70
Sample,52764,0,"d01.wav",70
Sample,52764,0,"r71.wav",70
Sample,52764,0,"d05.wav",70
Sample,52764,0,"d02.wav",70
Sample,52764,0,"b05.wav",70
Sample,52852,0,"sss08.wav",70
Sample,52852,0,"b06.wav",70
Sample,52852,0,"r72.wav",70
Sample,52941,0,"r73.wav",70
Sample,52941,0,"b04.wav",70
Sample,52941,0,"sss09.wav",70
Sample,53029,0,"r74.wav",70
Sample,53029,0,"sss10.wav",70
Sample,53117,0,"d05.wav",70
Sample,53117,0,"b05.wav",70
Sample,53117,0,"r75.wav",70
Sample,53117,0,"d01.wav",70
Sample,53117,0,"sss11.wav",70
Sample,53205,0,"r76.wav",70
Sample,53205,0,"b06.wav",70
Sample,53205,0,"sss12.wav",70
Sample,53294,0,"r77.wav",70
Sample,53294,0,"d02.wav",70
Sample,53294,0,"d09.wav",70
Sample,53294,0,"sss13.wav",70
Sample,53294,0,"b04.wav",70
Sample,53382,0,"r78.wav",70
Sample,53382,0,"sss14.wav",70
Sample,53470,0,"r79.wav",70
Sample,53470,0,"d05.wav",70
Sample,53470,0,"sss15.wav",70
Sample,53470,0,"b05.wav",70
Sample,53558,0,"sss16.wav",70
Sample,53558,0,"b06.wav",70
Sample,53558,0,"r80.wav",70
Sample,53647,0,"d06.wav",70
Sample,53647,0,"d02.wav",70
Sample,53647,0,"sss17.wav",70
Sample,53647,0,"r81.wav",70
Sample,53647,0,"b04.wav",70
Sample,53735,0,"sss18.wav",70
Sample,53735,0,"d01.wav",70
Sample,53735,0,"r82.wav",70
Sample,53823,0,"r83.wav",70
Sample,53823,0,"d05.wav",70
Sample,53823,0,"sss19.wav",70
Sample,53823,0,"b05.wav",70
Sample,53911,0,"sss20.wav",70
Sample,53911,0,"r84.wav",70
Sample,53911,0,"b06.wav",70
Sample,54000,0,"b04.wav",70
Sample,54000,0,"r85.wav",70
Sample,54000,0,"sss21.wav",70
Sample,54000,0,"d01.wav",70
Sample,54088,0,"sss22.wav",70
Sample,54088,0,"r86.wav",70
Sample,54176,0,"d02.wav",70
Sample,54176,0,"b05.wav",70
Sample,54176,0,"d05.wav",70
Sample,54176,0,"r87.wav",70
Sample,54176,0,"sss23.wav",70
Sample,54264,0,"b06.wav",70
Sample,54264,0,"r88.wav",70
Sample,54264,0,"sss24.wav",70
Sample,54352,0,"b04.wav",70
Sample,54352,0,"sss25.wav",70
Sample,54352,0,"r89.wav",70
Sample,54441,0,"r90.wav",70
Sample,54441,0,"sss26.wav",70
Sample,54529,0,"d05.wav",70
Sample,54529,0,"sss27.wav",70
Sample,54529,0,"r91.wav",70
Sample,54529,0,"d01.wav",70
Sample,54529,0,"b05.wav",70
Sample,54617,0,"sss28.wav",70
Sample,54617,0,"r92.wav",70
Sample,54617,0,"d09.wav",70
Sample,54617,0,"b06.wav",70
Sample,54705,0,"b04.wav",70
Sample,54705,0,"r93.wav",70
Sample,54705,0,"sss29.wav",70
Sample,54705,0,"d02.wav",70
Sample,54794,0,"r94.wav",70
Sample,54794,0,"sss30.wav",70
Sample,54882,0,"sss31.wav",70
Sample,54882,0,"b05.wav",70
Sample,54882,0,"d05.wav",70
Sample,54882,0,"d01.wav",70
Sample,54882,0,"r95.wav",70
Sample,54970,0,"sss32.wav",70
Sample,54970,0,"r96.wav",70
Sample,54970,0,"b06.wav",70
Sample,55058,0,"sss33.wav",70
Sample,55058,0,"r97.wav",70
Sample,55058,0,"d02.wav",70
Sample,55058,0,"d06.wav",70
Sample,55058,0,"atm02.wav",70
Sample,55058,0,"b07.wav",70
Sample,55147,0,"sss34.wav",70
Sample,55147,0,"r98.wav",70
Sample,55235,0,"sss35.wav",70
Sample,55235,0,"b08.wav",70
Sample,55235,0,"d01.wav",70
Sample,55235,0,"r99.wav",70
Sample,55235,0,"d05.wav",70
Sample,55323,0,"sss36.wav",70
Sample,55323,0,"b09.wav",70
Sample,55323,0,"d01.wav",70
Sample,55323,0,"r100.wav",70
Sample,55411,0,"sss37.wav",70
Sample,55411,0,"r101.wav",70
Sample,55411,0,"b07.wav",70
Sample,55500,0,"r102.wav",70
Sample,55500,0,"sss38.wav",70
Sample,55588,0,"sss39.wav",70
Sample,55588,0,"d05.wav",70
Sample,55588,0,"b08.wav",70
Sample,55588,0,"d02.wav",70
Sample,55588,0,"r103.wav",70
Sample,55588,0,"d01.wav",70
Sample,55676,0,"r104.wav",70
Sample,55676,0,"b09.wav",70
Sample,55676,0,"sss40.wav",70
Sample,55764,0,"b07.wav",70
Sample,55764,0,"sss41.wav",70
Sample,55764,0,"r105.wav",70
Sample,55852,0,"sss42.wav",70
Sample,55852,0,"r106.wav",70
Sample,55941,0,"d05.wav",70
Sample,55941,0,"b08.wav",70
Sample,55941,0,"r107.wav",70
Sample,55941,0,"d01.wav",70
Sample,55941,0,"sss43.wav",70
Sample,56029,0,"r108.wav",70
Sample,56029,0,"b09.wav",70
Sample,56029,0,"sss44.wav",70
Sample,56117,0,"d02.wav",70
Sample,56117,0,"d09.wav",70
Sample,56117,0,"b07.wav",70
Sample,56117,0,"r109.wav",70
Sample,56117,0,"sss45.wav",70
Sample,56205,0,"sss46.wav",70
Sample,56205,0,"r110.wav",70
Sample,56294,0,"d05.wav",70
Sample,56294,0,"r111.wav",70
Sample,56294,0,"sss47.wav",70
Sample,56294,0,"d01.wav",70
Sample,56294,0,"b08.wav",70
Sample,56382,0,"r112.wav",70
Sample,56382,0,"b09.wav",70
Sample,56382,0,"sss48.wav",70
Sample,56470,0,"d06.wav",70
Sample,56470,0,"d02.wav",70
Sample,56470,0,"sss49.wav",70
Sample,56470,0,"r113.wav",70
Sample,56470,0,"b07.wav",70
Sample,56558,0,"r114.wav",70
Sample,56558,0,"sss50.wav",70
Sample,56647,0,"d01.wav",70
Sample,56647,0,"r115.wav",70
Sample,56647,0,"d05.wav",70
Sample,56647,0,"sss51.wav",70
Sample,56647,0,"b08.wav",70
Sample,56735,0,"r116.wav",70
Sample,56735,0,"sss52.wav",70
Sample,56735,0,"b09.wav",70
Sample,56823,0,"r117.wav",70
Sample,56823,0,"sss53.wav",70
Sample,56823,0,"b07.wav",70
Sample,56911,0,"sss54.wav",70
Sample,56911,0,"r118.wav",70
Sample,57000,0,"d01.wav",70
Sample,57000,0,"sss55.wav",70
Sample,57000,0,"b08.wav",70
Sample,57000,0,"d05.wav",70
Sample,57000,0,"r119.wav",70
Sample,57000,0,"d02.wav",70
Sample,57088,0,"b09.wav",70
Sample,57088,0,"sss56.wav",70
Sample,57088,0,"r120.wav",70
Sample,57176,0,"b07.wav",70
Sample,57176,0,"r121.wav",70
Sample,57176,0,"sss57.wav",70
Sample,57264,0,"d01.wav",70
Sample,57264,0,"sss58.wav",70
Sample,57264,0,"r122.wav",70
Sample,57352,0,"d09.wav",70
Sample,57352,0,"sss59.wav",70
Sample,57352,0,"b08.wav",70
Sample,57352,0,"d05.wav",70
Sample,57352,0,"d02.wav",70
Sample,57352,0,"r123.wav",70
Sample,57441,0,"b09.wav",70
Sample,57441,0,"r124.wav",70
Sample,57441,0,"sss60.wav",70
Sample,57529,0,"r125.wav",70
Sample,57529,0,"sss61.wav",70
Sample,57529,0,"b07.wav",70
Sample,57617,0,"r126.wav",70
Sample,57617,0,"sss62.wav",70
Sample,57705,0,"sss63.wav",70
Sample,57705,0,"b08.wav",70
Sample,57705,0,"r127.wav",70
Sample,57705,0,"d05.wav",70
Sample,57705,0,"d01.wav",70
Sample,57794,0,"sss64.wav",70
Sample,57794,0,"r128.wav",70
Sample,57794,0,"b09.wav",70
Sample,57882,0,"d06.wav",70
Sample,57882,0,"d09.wav",70
Sample,57882,0,"b10.wav",70
Sample,57882,0,"sss01.wav",70
Sample,57882,0,"r01.wav",70
Sample,57882,0,"atm03.wav",70
Sample,57970,0,"sss02.wav",70
Sample,57970,0,"r02.wav",70
Sample,58058,0,"r03.wav",70
Sample,58058,0,"sss03.wav",70
Sample,58058,0,"d05.wav",70
Sample,58058,0,"d01.wav",70
Sample,58058,0,"b11.wav",70
Sample,58147,0,"sss04.wav",70
Sample,58147,0,"r04.wav",70
Sample,58147,0,"b12.wav",70
Sample,58235,0,"r05.wav",70
Sample,58235,0,"sss05.wav",70
Sample,58235,0,"b10.wav",70
Sample,58323,0,"sss06.wav",70
Sample,58323,0,"r06.wav",70
Sample,58411,0,"d05.wav",70
Sample,58411,0,"d01.wav",70
Sample,58411,0,"b11.wav",70
Sample,58411,0,"sss07.wav",70
Sample,58411,0,"r07.wav",70
Sample,58411,0,"d02.wav",70
Sample,58500,0,"r08.wav",70
Sample,58500,0,"sss08.wav",70
Sample,58500,0,"b12.wav",70
Sample,58588,0,"sss09.wav",70
Sample,58588,0,"b10.wav",70
Sample,58588,0,"r09.wav",70
Sample,58676,0,"sss10.wav",70
Sample,58676,0,"r10.wav",70
Sample,58764,0,"r11.wav",70
Sample,58764,0,"d01.wav",70
Sample,58764,0,"d05.wav",70
Sample,58764,0,"sss11.wav",70
Sample,58764,0,"b11.wav",70
Sample,58852,0,"d09.wav",70
Sample,58852,0,"sss12.wav",70
Sample,58852,0,"r12.wav",70
Sample,58852,0,"b12.wav",70
Sample,58941,0,"d02.wav",70
Sample,58941,0,"sss13.wav",70
Sample,58941,0,"r13.wav",70
Sample,58941,0,"b10.wav",70
Sample,59029,0,"sss14.wav",70
Sample,59029,0,"r14.wav",70
Sample,59117,0,"d05.wav",70
Sample,59117,0,"b11.wav",70
Sample,59117,0,"sss15.wav",70
Sample,59117,0,"d01.wav",70
Sample,59117,0,"r15.wav",70
Sample,59205,0,"sss16.wav",70
Sample,59205,0,"r16.wav",70
Sample,59205,0,"b12.wav",70
Sample,59294,0,"r17.wav",70
Sample,59294,0,"b10.wav",70
Sample,59294,0,"sss17.wav",70
Sample,59294,0,"d06.wav",70
Sample,59294,0,"d02.wav",70
Sample,59382,0,"sss18.wav",70
Sample,59382,0,"r18.wav",70
Sample,59382,0,"d01.wav",70
Sample,59470,0,"sss19.wav",70
Sample,59470,0,"b11.wav",70
Sample,59470,0,"d05.wav",70
Sample,59470,0,"r19.wav",70
Sample,59558,0,"sss20.wav",70
Sample,59558,0,"b12.wav",70
Sample,59558,0,"r20.wav",70
Sample,59647,0,"r21.wav",70
Sample,59647,0,"sss21.wav",70
Sample,59647,0,"b10.wav",70
Sample,59647,0,"d01.wav",70
Sample,59735,0,"r22.wav",70
Sample,59735,0,"sss22.wav",70
Sample,59823,0,"r23.wav",70
Sample,59823,0,"sss23.wav",70
Sample,59823,0,"d02.wav",70
Sample,59823,0,"d05.wav",70
Sample,59823,0,"b11.wav",70
Sample,59911,0,"r24.wav",70
Sample,59911,0,"sss24.wav",70
Sample,59911,0,"b12.wav",70
Sample,60000,0,"sss25.wav",70
Sample,60000,0,"r25.wav",70
Sample,60000,0,"b10.wav",70
Sample,60088,0,"sss26.wav",70
Sample,60088,0,"r26.wav",70
Sample,60176,0,"d05.wav",70
Sample,60176,0,"b11.wav",70
Sample,60176,0,"r27.wav",70
Sample,60176,0,"d01.wav",70
Sample,60176,0,"sss27.wav",70
Sample,60264,0,"sss28.wav",70
Sample,60264,0,"r28.wav",70
Sample,60264,0,"d09.wav",70
Sample,60264,0,"b12.wav",70
Sample,60352,0,"sss29.wav",70
Sample,60352,0,"b10.wav",70
Sample,60352,0,"d02.wav",70
Sample,60352,0,"r29.wav",70
Sample,60441,0,"r30.wav",70
Sample,60441,0,"sss30.wav",70
Sample,60529,0,"d01.wav",70
Sample,60529,0,"d05.wav",70
Sample,60529,0,"r31.wav",70
Sample,60529,0,"sss31.wav",70
Sample,60529,0,"b11.wav",70
Sample,60617,0,"r32.wav",70
Sample,60617,0,"b12.wav",70
Sample,60617,0,"sss32.wav",70
Sample,60705,0,"sss33.wav",70
Sample,60705,0,"r33.wav",70
Sample,60705,0,"b13.wav",70
Sample,60705,0,"d06.wav",70
Sample,60705,0,"atm04.wav",70
Sample,60705,0,"d02.wav",70
Sample,60794,0,"sss34.wav",70
Sample,60794,0,"r34.wav",70
Sample,60882,0,"r35.wav",70
Sample,60882,0,"b14.wav",70
Sample,60882,0,"sss35.wav",70
Sample,60882,0,"d05.wav",70
Sample,60882,0,"d01.wav",70
Sample,60970,0,"b09.wav",70
Sample,60970,0,"sss36.wav",70
Sample,60970,0,"d01.wav",70
Sample,60970,0,"r36.wav",70
Sample,61058,0,"sss37.wav",70
Sample,61058,0,"r37.wav",70
Sample,61058,0,"b13.wav",70
Sample,61147,0,"r38.wav",70
Sample,61147,0,"sss38.wav",70
Sample,61235,0,"r39.wav",70
Sample,61235,0,"sss39.wav",70
Sample,61235,0,"d02.wav",70
Sample,61235,0,"d01.wav",70
Sample,61235,0,"d05.wav",70
Sample,61235,0,"b14.wav",70
Sample,61323,0,"b09.wav",70
Sample,61323,0,"sss40.wav",70
Sample,61323,0,"r40.wav",70
Sample,61411,0,"r41.wav",70
Sample,61411,0,"sss41.wav",70
Sample,61411,0,"b13.wav",70
Sample,61500,0,"r42.wav",70
Sample,61500,0,"sss42.wav",70
Sample,61588,0,"d01.wav",70
Sample,61588,0,"b14.wav",70
Sample,61588,0,"sss43.wav",70
Sample,61588,0,"r43.wav",70
Sample,61588,0,"d05.wav",70
Sample,61676,0,"r44.wav",70
Sample,61676,0,"b09.wav",70
Sample,61676,0,"sss44.wav",70
Sample,61764,0,"sss45.wav",70
Sample,61764,0,"r45.wav",70
Sample,61764,0,"d02.wav",70
Sample,61764,0,"b13.wav",70
Sample,61852,0,"r46.wav",70
Sample,61852,0,"sss46.wav",70
Sample,61941,0,"r47.wav",70
Sample,61941,0,"d05.wav",70
Sample,61941,0,"d01.wav",70
Sample,61941,0,"sss47.wav",70
Sample,61941,0,"b14.wav",70
Sample,62029,0,"r48.wav",70
Sample,62029,0,"b09.wav",70
Sample,62029,0,"sss48.wav",70
Sample,62117,0,"d06.wav",70
Sample,62117,0,"d02.wav",70
Sample,62117,0,"sss49.wav",70
Sample,62117,0,"r49.wav",70
Sample,62117,0,"b13.wav",70
Sample,62205,0,"sss50.wav",70
Sample,62205,0,"r50.wav",70
Sample,62294,0,"r51.wav",70
Sample,62294,0,"d05.wav",70
Sample,62294,0,"d01.wav",70
Sample,62294,0,"sss51.wav",70
Sample,62294,0,"b14.wav",70
Sample,62382,0,"sss52.wav",70
Sample,62382,0,"r52.wav",70
Sample,62382,0,"b09.wav",70
Sample,62470,0,"r53.wav",70
Sample,62470,0,"b13.wav",70
Sample,62470,0,"sss53.wav",70
Sample,62558,0,"r54.wav",70
Sample,62558,0,"sss54.wav",70
Sample,62647,0,"d01.wav",70
Sample,62647,0,"d02.wav",70
Sample,62647,0,"b14.wav",70
Sample,62647,0,"d05.wav",70
Sample,62647,0,"r55.wav",70
Sample,62647,0,"sss55.wav",70
Sample,62735,0,"sss56.wav",70
Sample,62735,0,"r56.wav",70
Sample,62735,0,"b09.wav",70
Sample,62823,0,"b13.wav",70
Sample,62823,0,"sss57.wav",70
Sample,62823,0,"r57.wav",70
Sample,62911,0,"r58.wav",70
Sample,62911,0,"d01.wav",70
Sample,62911,0,"sss58.wav",70
Sample,62911,0,"d04.wav",70
Sample,63000,0,"r59.wav",70
Sample,63000,0,"sss59.wav",70
Sample,63000,0,"d02.wav",70
Sample,63000,0,"d05.wav",70
Sample,63000,0,"b14.wav",70
Sample,63088,0,"b09.wav",70
Sample,63088,0,"sss60.wav",70
Sample,63088,0,"r60.wav",70
Sample,63176,0,"b13.wav",70
Sample,63176,0,"r61.wav",70
Sample,63176,0,"sss61.wav",70
Sample,63264,0,"sss62.wav",70
Sample,63264,0,"r62.wav",70
Sample,63352,0,"d01.wav",70
Sample,63352,0,"b14.wav",70
Sample,63352,0,"d05.wav",70
Sample,63352,0,"sss63.wav",70
Sample,63352,0,"r63.wav",70
Sample,63441,0,"sss64.wav",70
Sample,63441,0,"r64.wav",70
Sample,63441,0,"b09.wav",70
Sample,63529,0,"sss01.wav",70
Sample,63529,0,"r65.wav",70
Sample,63529,0,"v07.wav",70
Sample,63529,0,"d03.wav",70
Sample,63529,0,"atm01.wav",70
Sample,63529,0,"b04.wav",70
Sample,63529,0,"d06.wav",70
Sample,63617,0,"sss02.wav",70
Sample,63617,0,"r66.wav",70
Sample,63705,0,"r67.wav",70
Sample,63705,0,"b05.wav",70
Sample,63705,0,"sss03.wav",70
Sample,63705,0,"d07.wav",70
Sample,63794,0,"b06.wav",70
Sample,63794,0,"sss04.wav",70
Sample,63794,0,"r68.wav",70
Sample,63882,0,"d03.wav",70
Sample,63882,0,"d04.wav",70
Sample,63882,0,"r69.wav",70
Sample,63882,0,"b04.wav",70
Sample,63882,0,"sss05.wav",70
Sample,63970,0,"sss06.wav",70
Sample,63970,0,"r70.wav",70
Sample,64058,0,"r71.wav",70
Sample,64058,0,"sss07.wav",70
Sample,64058,0,"d07.wav",70
Sample,64058,0,"b05.wav",70
Sample,64147,0,"b06.wav",70
Sample,64147,0,"r72.wav",70
Sample,64147,0,"sss08.wav",70
Sample,64235,0,"d03.wav",70
Sample,64235,0,"r73.wav",70
Sample,64235,0,"b04.wav",70
Sample,64235,0,"sss09.wav",70
Sample,64323,0,"sss10.wav",70
Sample,64323,0,"r74.wav",70
Sample,64411,0,"r75.wav",70
Sample,64411,0,"b05.wav",70
Sample,64411,0,"sss11.wav",70
Sample,64411,0,"d07.wav",70
Sample,64500,0,"sss12.wav",70
Sample,64500,0,"b06.wav",70
Sample,64500,0,"r76.wav",70
Sample,64588,0,"d04.wav",70
Sample,64588,0,"d03.wav",70
Sample,64588,0,"b04.wav",70
Sample,64588,0,"sss13.wav",70
Sample,64588,0,"r77.wav",70
Sample,64676,0,"r78.wav",70
Sample,64676,0,"sss14.wav",70
Sample,64764,0,"sss15.wav",70
Sample,64764,0,"r79.wav",70
Sample,64764,0,"d07.wav",70
Sample,64764,0,"b05.wav",70
Sample,64852,0,"sss16.wav",70
Sample,64852,0,"b06.wav",70
Sample,64852,0,"r80.wav",70
Sample,64941,0,"d03.wav",70
Sample,64941,0,"d06.wav",70
Sample,64941,0,"sss17.wav",70
Sample,64941,0,"r81.wav",70
Sample,64941,0,"b04.wav",70
Sample,65029,0,"r82.wav",70
Sample,65029,0,"sss18.wav",70
Sample,65117,0,"r83.wav",70
Sample,65117,0,"sss19.wav",70
Sample,65117,0,"d07.wav",70
Sample,65117,0,"b05.wav",70
Sample,65205,0,"r84.wav",70
Sample,65205,0,"sss20.wav",70
Sample,65205,0,"b06.wav",70
Sample,65294,0,"b04.wav",70
Sample,65294,0,"d04.wav",70
Sample,65294,0,"d03.wav",70
Sample,65294,0,"r85.wav",70
Sample,65294,0,"sss21.wav",70
Sample,65382,0,"r86.wav",70
Sample,65382,0,"sss22.wav",70
Sample,65470,0,"r87.wav",70
Sample,65470,0,"b05.wav",70
Sample,65470,0,"sss23.wav",70
Sample,65470,0,"d07.wav",70
Sample,65558,0,"r88.wav",70
Sample,65558,0,"b06.wav",70
Sample,65558,0,"sss24.wav",70
Sample,65647,0,"b04.wav",70
Sample,65647,0,"d03.wav",70
Sample,65647,0,"r89.wav",70
Sample,65647,0,"sss25.wav",70
Sample,65735,0,"sss26.wav",70
Sample,65735,0,"r90.wav",70
Sample,65823,0,"r91.wav",70
Sample,65823,0,"sss27.wav",70
Sample,65823,0,"d07.wav",70
Sample,65823,0,"b05.wav",70
Sample,65911,0,"r92.wav",70
Sample,65911,0,"b06.wav",70
Sample,65911,0,"sss28.wav",70
Sample,65911,0,"d04.wav",70
Sample,66000,0,"b04.wav",70
Sample,66000,0,"d04.wav",70
Sample,66000,0,"r93.wav",70
Sample,66000,0,"v08.wav",70
Sample,66000,0,"d03.wav",70
Sample,66000,0,"sss29.wav",70
Sample,66088,0,"r94.wav",70
Sample,66088,0,"sss30.wav",70
Sample,66176,0,"sss31.wav",70
Sample,66176,0,"b05.wav",70
Sample,66176,0,"d07.wav",70
Sample,66176,0,"r95.wav",70
Sample,66264,0,"r96.wav",70
Sample,66264,0,"sss32.wav",70
Sample,66264,0,"b06.wav",70
Sample,66352,0,"sss33.wav",70
Sample,66352,0,"r97.wav",70
Sample,66352,0,"v09.wav",70
Sample,66352,0,"d03.wav",70
Sample,66352,0,"atm02.wav",70
Sample,66352,0,"b07.wav",70
Sample,66352,0,"d06.wav",70
Sample,66441,0,"r98.wav",70
Sample,66441,0,"sss34.wav",70
Sample,66529,0,"r99.wav",70
Sample,66529,0,"b08.wav",70
Sample,66529,0,"sss35.wav",70
Sample,66529,0,"d07.wav",70
Sample,66617,0,"sss36.wav",70
Sample,66617,0,"b09.wav",70
Sample,66617,0,"r100.wav",70
Sample,66705,0,"d04.wav",70
Sample,66705,0,"d03.wav",70
Sample,66705,0,"b07.wav",70
Sample,66705,0,"sss37.wav",70
Sample,66705,0,"r101.wav",70
Sample,66794,0,"sss38.wav",70
Sample,66794,0,"r102.wav",70
Sample,66882,0,"sss39.wav",70
Sample,66882,0,"d07.wav",70
Sample,66882,0,"r103.wav",70
Sample,66882,0,"b08.wav",70
Sample,66970,0,"b09.wav",70
Sample,66970,0,"r104.wav",70
Sample,66970,0,"sss40.wav",70
Sample,67058,0,"b07.wav",70
Sample,67058,0,"d03.wav",70
Sample,67058,0,"r105.wav",70
Sample,67058,0,"sss41.wav",70
Sample,67147,0,"r106.wav",70
Sample,67147,0,"sss42.wav",70
Sample,67235,0,"d07.wav",70
Sample,67235,0,"b08.wav",70
Sample,67235,0,"sss43.wav",70
Sample,67235,0,"r107.wav",70
Sample,67323,0,"b09.wav",70
Sample,67323,0,"sss44.wav",70
Sample,67323,0,"r108.wav",70
Sample,67411,0,"d04.wav",70
Sample,67411,0,"r109.wav",70
Sample,67411,0,"b07.wav",70
Sample,67411,0,"d03.wav",70
Sample,67411,0,"sss45.wav",70
Sample,67500,0,"sss46.wav",70
Sample,67500,0,"r110.wav",70
Sample,67588,0,"d07.wav",70
Sample,67588,0,"sss47.wav",70
Sample,67588,0,"r111.wav",70
Sample,67588,0,"b08.wav",70
Sample,67676,0,"sss48.wav",70
Sample,67676,0,"b09.wav",70
Sample,67676,0,"r112.wav",70
Sample,67764,0,"sss49.wav",70
Sample,67764,0,"r113.wav",70
Sample,67764,0,"b07.wav",70
Sample,67764,0,"v10.wav",70
Sample,67764,0,"d03.wav",70
Sample,67764,0,"d06.wav",70
Sample,67852,0,"sss50.wav",70
Sample,67852,0,"r114.wav",70
Sample,67941,0,"d07.wav",70
Sample,67941,0,"b08.wav",70
Sample,67941,0,"r115.wav",70
Sample,67941,0,"sss51.wav",70
Sample,68029,0,"b09.wav",70
Sample,68029,0,"sss52.wav",70
Sample,68029,0,"r116.wav",70
Sample,68117,0,"r117.wav",70
Sample,68117,0,"b07.wav",70
Sample,68117,0,"d03.wav",70
Sample,68117,0,"sss53.wav",70
Sample,68117,0,"d04.wav",70
Sample,68205,0,"r118.wav",70
Sample,68205,0,"sss54.wav",70
Sample,68294,0,"r119.wav",70
Sample,68294,0,"d07.wav",70
Sample,68294,0,"sss55.wav",70
Sample,68294,0,"b08.wav",70
Sample,68382,0,"sss56.wav",70
Sample,68382,0,"b09.wav",70
Sample,68382,0,"r120.wav",70
Sample,68470,0,"r121.wav",70
Sample,68470,0,"d03.wav",70
Sample,68470,0,"b07.wav",70
Sample,68470,0,"sss57.wav",70
Sample,68558,0,"sss58.wav",70
Sample,68558,0,"r122.wav",70
Sample,68558,0,"d04.wav",70
Sample,68647,0,"r123.wav",70
Sample,68647,0,"b08.wav",70
Sample,68647,0,"d07.wav",70
Sample,68647,0,"sss59.wav",70
Sample,68735,0,"sss60.wav",70
Sample,68735,0,"b09.wav",70
Sample,68735,0,"r124.wav",70
Sample,68823,0,"r125.wav",70
Sample,68823,0,"d03.wav",70
Sample,68823,0,"dd21.wav",70
Sample,68823,0,"d04.wav",70
Sample,68823,0,"b07.wav",70
Sample,68823,0,"sss61.wav",70
Sample,68911,0,"sss62.wav",70
Sample,68911,0,"r126.wav",70
Sample,69000,0,"d07.wav",70
Sample,69000,0,"r127.wav",70
Sample,69000,0,"sss63.wav",70
Sample,69000,0,"b08.wav",70
Sample,69088,0,"sss64.wav",70
Sample,69088,0,"b09.wav",70
Sample,69088,0,"r128.wav",70
Sample,69176,0,"v11.wav",70
Sample,69176,0,"b10.wav",70
Sample,69176,0,"r01.wav",70
Sample,69176,0,"sss01.wav",70
Sample,69176,0,"d06.wav",70
Sample,69176,0,"atm03.wav",70
Sample,69176,0,"d03.wav",70
Sample,69264,0,"r02.wav",70
Sample,69264,0,"sss02.wav",70
Sample,69352,0,"r03.wav",70
Sample,69352,0,"d07.wav",70
Sample,69352,0,"sss03.wav",70
Sample,69352,0,"b11.wav",70
Sample,69441,0,"b12.wav",70
Sample,69441,0,"sss04.wav",70
Sample,69441,0,"r04.wav",70
Sample,69529,0,"d03.wav",70
Sample,69529,0,"sss05.wav",70
Sample,69529,0,"b10.wav",70
Sample,69529,0,"d04.wav",70
Sample,69529,0,"r05.wav",70
Sample,69617,0,"r06.wav",70
Sample,69617,0,"sss06.wav",70
Sample,69705,0,"sss07.wav",70
Sample,69705,0,"b11.wav",70
Sample,69705,0,"d07.wav",70
Sample,69705,0,"r07.wav",70
Sample,69794,0,"r08.wav",70
Sample,69794,0,"b12.wav",70
Sample,69794,0,"sss08.wav",70
Sample,69882,0,"b10.wav",70
Sample,69882,0,"d03.wav",70
Sample,69882,0,"r09.wav",70
Sample,69882,0,"sss09.wav",70
Sample,69970,0,"r10.wav",70
Sample,69970,0,"sss10.wav",70
Sample,70058,0,"r11.wav",70
Sample,70058,0,"d07.wav",70
Sample,70058,0,"sss11.wav",70
Sample,70058,0,"b11.wav",70
Sample,70147,0,"r12.wav",70
Sample,70147,0,"b12.wav",70
Sample,70147,0,"sss12.wav",70
Sample,70235,0,"b10.wav",70
Sample,70235,0,"sss13.wav",70
Sample,70235,0,"d03.wav",70
Sample,70235,0,"r13.wav",70
Sample,70235,0,"d04.wav",70
Sample,70323,0,"sss14.wav",70
Sample,70323,0,"r14.wav",70
Sample,70411,0,"r15.wav",70
Sample,70411,0,"b11.wav",70
Sample,70411,0,"d07.wav",70
Sample,70411,0,"sss15.wav",70
Sample,70500,0,"r16.wav",70
Sample,70500,0,"sss16.wav",70
Sample,70500,0,"b12.wav",70
Sample,70588,0,"d06.wav",70
Sample,70588,0,"d03.wav",70
Sample,70588,0,"sss17.wav",70
Sample,70588,0,"r17.wav",70
Sample,70588,0,"b10.wav",70
Sample,70676,0,"r18.wav",70
Sample,70676,0,"sss18.wav",70
Sample,70764,0,"r19.wav",70
Sample,70764,0,"sss19.wav",70
Sample,70764,0,"d07.wav",70
Sample,70764,0,"b11.wav",70
Sample,70852,0,"sss20.wav",70
Sample,70852,0,"r20.wav",70
Sample,70852,0,"b12.wav",70
Sample,70941,0,"d04.wav",70
Sample,70941,0,"sss21.wav",70
Sample,70941,0,"b10.wav",70
Sample,70941,0,"d03.wav",70
Sample,70941,0,"r21.wav",70
Sample,71029,0,"sss22.wav",70
Sample,71029,0,"r22.wav",70
Sample,71117,0,"r23.wav",70
Sample,71117,0,"b11.wav",70
Sample,71117,0,"d07.wav",70
Sample,71117,0,"sss23.wav",70
Sample,71205,0,"sss24.wav",70
Sample,71205,0,"r24.wav",70
Sample,71205,0,"b12.wav",70
Sample,71294,0,"r25.wav",70
Sample,71294,0,"d03.wav",70
Sample,71294,0,"sss25.wav",70
Sample,71294,0,"b10.wav",70
Sample,71382,0,"r26.wav",70
Sample,71382,0,"sss26.wav",70
Sample,71470,0,"sss27.wav",70
Sample,71470,0,"d07.wav",70
Sample,71470,0,"r27.wav",70
Sample,71470,0,"b11.wav",70
Sample,71558,0,"r28.wav",70
Sample,71558,0,"d04.wav",70
Sample,71558,0,"sss28.wav",70
Sample,71558,0,"b12.wav",70
Sample,71647,0,"sss29.wav",70
Sample,71647,0,"d04.wav",70
Sample,71647,0,"r29.wav",70
Sample,71647,0,"d03.wav",70
Sample,71647,0,"b10.wav",70
Sample,71735,0,"r30.wav",70
Sample,71735,0,"sss30.wav",70
Sample,71823,0,"d07.wav",70
Sample,71823,0,"b11.wav",70
Sample,71823,0,"sss31.wav",70
Sample,71823,0,"r31.wav",70
Sample,71911,0,"r32.wav",70
Sample,71911,0,"sss32.wav",70
Sample,71911,0,"b12.wav",70
Sample,72000,0,"sss33.wav",70
Sample,72000,0,"r33.wav",70
Sample,72000,0,"d06.wav",70
Sample,72000,0,"atm04.wav",70
Sample,72000,0,"d03.wav",70
Sample,72000,0,"b13.wav",70
Sample,72088,0,"sss34.wav",70
Sample,72088,0,"r34.wav",70
Sample,72176,0,"r35.wav",70
Sample,72176,0,"b14.wav",70
Sample,72176,0,"sss35.wav",70
Sample,72176,0,"d07.wav",70
Sample,72264,0,"r36.wav",70
Sample,72264,0,"b09.wav",70
Sample,72264,0,"sss36.wav",70
Sample,72352,0,"sss37.wav",70
Sample,72352,0,"d04.wav",70
Sample,72352,0,"b13.wav",70
Sample,72352,0,"d03.wav",70
Sample,72352,0,"r37.wav",70
Sample,72441,0,"r38.wav",70
Sample,72441,0,"sss38.wav",70
Sample,72529,0,"sss39.wav",70
Sample,72529,0,"d07.wav",70
Sample,72529,0,"r39.wav",70
Sample,72529,0,"b14.wav",70
Sample,72617,0,"sss40.wav",70
Sample,72617,0,"r40.wav",70
Sample,72617,0,"b09.wav",70
Sample,72705,0,"v12.wav",70
Sample,72705,0,"sss41.wav",70
Sample,72705,0,"b13.wav",70
Sample,72705,0,"r41.wav",70
Sample,72705,0,"d03.wav",70
Sample,72794,0,"sss42.wav",70
Sample,72794,0,"r42.wav",70
Sample,72882,0,"d07.wav",70
Sample,72882,0,"b14.wav",70
Sample,72882,0,"sss43.wav",70
Sample,72882,0,"r43.wav",70
Sample,72970,0,"r44.wav",70
Sample,72970,0,"b09.wav",70
Sample,72970,0,"sss44.wav",70
Sample,73058,0,"sss45.wav",70
Sample,73058,0,"d04.wav",70
Sample,73058,0,"d03.wav",70
Sample,73058,0,"r45.wav",70
Sample,73058,0,"b13.wav",70
Sample,73147,0,"sss46.wav",70
Sample,73147,0,"r46.wav",70
Sample,73235,0,"d07.wav",70
Sample,73235,0,"sss47.wav",70
Sample,73235,0,"r47.wav",70
Sample,73235,0,"b14.wav",70
Sample,73323,0,"sss48.wav",70
Sample,73323,0,"b09.wav",70
Sample,73323,0,"r48.wav",70
Sample,73411,0,"sss49.wav",70
Sample,73411,0,"r49.wav",70
Sample,73411,0,"b13.wav",70
Sample,73411,0,"v13.wav",70
Sample,73411,0,"d06.wav",70
Sample,73411,0,"d03.wav",70
Sample,73500,0,"sss50.wav",70
Sample,73500,0,"r50.wav",70
Sample,73588,0,"d07.wav",70
Sample,73588,0,"b14.wav",70
Sample,73588,0,"sss51.wav",70
Sample,73588,0,"r51.wav",70
Sample,73676,0,"sss52.wav",70
Sample,73676,0,"b09.wav",70
Sample,73676,0,"r52.wav",70
Sample,73764,0,"d04.wav",70
Sample,73764,0,"b13.wav",70
Sample,73764,0,"d03.wav",70
Sample,73764,0,"sss53.wav",70
Sample,73764,0,"r53.wav",70
Sample,73852,0,"r54.wav",70
Sample,73852,0,"sss54.wav",70
Sample,73941,0,"sss55.wav",70
Sample,73941,0,"d07.wav",70
Sample,73941,0,"r55.wav",70
Sample,73941,0,"b14.wav",70
Sample,74029,0,"b09.wav",70
Sample,74029,0,"sss56.wav",70
Sample,74029,0,"r56.wav",70
Sample,74117,0,"v14.wav",70
Sample,74117,0,"dd56.wav",70
Sample,74117,0,"r57.wav",70
Sample,74117,0,"b13.wav",70
Sample,74117,0,"sss57.wav",70
Sample,74117,0,"d03.wav",70
Sample,74205,0,"d04.wav",70
Sample,74205,0,"sss58.wav",70
Sample,74205,0,"r58.wav",70
Sample,74205,0,"dd57.wav",70
Sample,74294,0,"r59.wav",70
Sample,74294,0,"b14.wav",70
Sample,74294,0,"sss59.wav",70
Sample,74294,0,"d07.wav",70
Sample,74382,0,"r60.wav",70
Sample,74382,0,"b09.wav",70
Sample,74382,0,"sss60.wav",70
Sample,74470,0,"d03.wav",70
Sample,74470,0,"sss61.wav",70
Sample,74470,0,"d04.wav",70
Sample,74470,0,"r61.wav",70
Sample,74470,0,"b13.wav",70
Sample,74558,0,"r62.wav",70
Sample,74558,0,"sss62.wav",70
Sample,74647,0,"d07.wav",70
Sample,74647,0,"sss63.wav",70
Sample,74647,0,"r63.wav",70
Sample,74647,0,"b14.wav",70
Sample,74735,0,"sss64.wav",70
Sample,74735,0,"b09.wav",70
Sample,74735,0,"r64.wav",70
Sample,74823,0,"atm01.wav",70
Sample,74823,0,"v15.wav",70
Sample,74823,0,"b04.wav",70
Sample,74823,0,"d02.wav",70
Sample,74823,0,"d09.wav",70
Sample,74823,0,"rez02.wav",70
Sample,74823,0,"dd02.wav",70
Sample,74823,0,"d03.wav",70
Sample,74823,0,"d06.wav",70
Sample,74911,0,"d09.wav",70
Sample,75000,0,"d07.wav",70
Sample,75000,0,"dd03.wav",70
Sample,75000,0,"b05.wav",70
Sample,75000,0,"d05.wav",70
Sample,75000,0,"d01.wav",70
Sample,75088,0,"b06.wav",70
Sample,75176,0,"d03.wav",70
Sample,75176,0,"b04.wav",70
Sample,75176,0,"dd04.wav",70
Sample,75176,0,"d09.wav",70
Sample,75176,0,"d04.wav",70
Sample,75352,0,"b05.wav",70
Sample,75352,0,"d05.wav",70
Sample,75352,0,"dd07.wav",70
Sample,75352,0,"d01.wav",70
Sample,75352,0,"d02.wav",70
Sample,75352,0,"d07.wav",70
Sample,75441,0,"dd06.wav",70
Sample,75441,0,"b06.wav",70
Sample,75529,0,"dd07.wav",70
Sample,75529,0,"d03.wav",70
Sample,75529,0,"b04.wav",70
Sample,75529,0,"d09.wav",70
Sample,75617,0,"dd06.wav",70
Sample,75705,0,"b05.wav",70
Sample,75705,0,"d01.wav",70
Sample,75705,0,"d05.wav",70
Sample,75705,0,"dd09.wav",70
Sample,75705,0,"d07.wav",70
Sample,75794,0,"d09.wav",70
Sample,75794,0,"dd10.wav",70
Sample,75794,0,"b06.wav",70
Sample,75882,0,"d04.wav",70
Sample,75882,0,"dd11.wav",70
Sample,75882,0,"d09.wav",70
Sample,75882,0,"d03.wav",70
Sample,75882,0,"d02.wav",70
Sample,75882,0,"b04.wav",70
Sample,76058,0,"d07.wav",70
Sample,76058,0,"b05.wav",70
Sample,76058,0,"d05.wav",70
Sample,76058,0,"dd12.wav",70
Sample,76058,0,"d01.wav",70
Sample,76147,0,"b06.wav",70
Sample,76147,0,"dd07.wav",70
Sample,76235,0,"d09.wav",70
Sample,76235,0,"d06.wav",70
Sample,76235,0,"dd02.wav",70
Sample,76235,0,"d03.wav",70
Sample,76235,0,"b04.wav",70
Sample,76235,0,"d02.wav",70
Sample,76323,0,"d01.wav",70
Sample,76411,0,"d09.wav",70
Sample,76411,0,"d07.wav",70
Sample,76411,0,"b05.wav",70
Sample,76411,0,"d05.wav",70
Sample,76411,0,"dd03.wav",70
Sample,76500,0,"b06.wav",70
Sample,76588,0,"dd04.wav",70
Sample,76588,0,"b04.wav",70
Sample,76588,0,"d03.wav",70
Sample,76588,0,"d01.wav",70
Sample,76588,0,"d04.wav",70
Sample,76764,0,"d05.wav",70
Sample,76764,0,"b05.wav",70
Sample,76764,0,"d07.wav",70
Sample,76764,0,"d02.wav",70
Sample,76764,0,"d09.wav",70
Sample,76764,0,"dd07.wav",70
Sample,76852,0,"b06.wav",70
Sample,76852,0,"dd06.wav",70
Sample,76941,0,"d09.wav",70
Sample,76941,0,"d03.wav",70
Sample,76941,0,"b04.wav",70
Sample,77029,0,"dd07.wav",70
Sample,77117,0,"d05.wav",70
Sample,77117,0,"d01.wav",70
Sample,77117,0,"d07.wav",70
Sample,77117,0,"b05.wav",70
Sample,77205,0,"d09.wav",70
Sample,77205,0,"d04.wav",70
Sample,77205,0,"b06.wav",70
Sample,77205,0,"dd16.wav",70
Sample,77294,0,"d04.wav",70
Sample,77294,0,"dd17.wav",70
Sample,77294,0,"d02.wav",70
Sample,77294,0,"b04.wav",70
Sample,77294,0,"d03.wav",70
Sample,77382,0,"dd18.wav",70
Sample,77470,0,"d01.wav",70
Sample,77470,0,"b05.wav",70
Sample,77470,0,"d05.wav",70
Sample,77470,0,"d07.wav",70
Sample,77470,0,"dd12.wav",70
Sample,77558,0,"b06.wav",70
Sample,77558,0,"dd20.wav",70
Sample,77647,0,"b07.wav",70
Sample,77647,0,"d03.wav",70
Sample,77647,0,"d06.wav",70
Sample,77647,0,"atm02.wav",70
Sample,77647,0,"dd02.wav",70
Sample,77647,0,"d02.wav",70
Sample,77647,0,"d09.wav",70
Sample,77735,0,"d09.wav",70
Sample,77823,0,"b08.wav",70
Sample,77823,0,"dd03.wav",70
Sample,77823,0,"d01.wav",70
Sample,77823,0,"d05.wav",70
Sample,77823,0,"d07.wav",70
Sample,77911,0,"b09.wav",70
Sample,77911,0,"d01.wav",70
Sample,78000,0,"d09.wav",70
Sample,78000,0,"d04.wav",70
Sample,78000,0,"b07.wav",70
Sample,78000,0,"d03.wav",70
Sample,78000,0,"dd04.wav",70
Sample,78176,0,"d02.wav",70
Sample,78176,0,"d05.wav",70
Sample,78176,0,"d01.wav",70
Sample,78176,0,"d07.wav",70
Sample,78176,0,"b08.wav",70
Sample,78176,0,"dd07.wav",70
Sample,78264,0,"b09.wav",70
Sample,78264,0,"dd06.wav",70
Sample,78352,0,"d03.wav",70
Sample,78352,0,"dd07.wav",70
Sample,78352,0,"b07.wav",70
Sample,78352,0,"d09.wav",70
Sample,78441,0,"dd06.wav",70
Sample,78529,0,"b08.wav",70
Sample,78529,0,"d05.wav",70
Sample,78529,0,"d07.wav",70
Sample,78529,0,"d01.wav",70
Sample,78529,0,"dd09.wav",70
Sample,78617,0,"d09.wav",70
Sample,78617,0,"b09.wav",70
Sample,78617,0,"dd10.wav",70
Sample,78705,0,"d02.wav",70
Sample,78705,0,"d03.wav",70
Sample,78705,0,"d04.wav",70
Sample,78705,0,"b07.wav",70
Sample,78705,0,"d09.wav",70
Sample,78705,0,"dd11.wav",70
Sample,78882,0,"d01.wav",70
Sample,78882,0,"d05.wav",70
Sample,78882,0,"b08.wav",70
Sample,78882,0,"dd12.wav",70
Sample,78882,0,"d07.wav",70
Sample,78970,0,"b09.wav",70
Sample,78970,0,"dd07.wav",70
Sample,79058,0,"d09.wav",70
Sample,79058,0,"d06.wav",70
Sample,79058,0,"d02.wav",70
Sample,79058,0,"d03.wav",70
Sample,79058,0,"b07.wav",70
Sample,79058,0,"dd02.wav",70
Sample,79235,0,"d05.wav",70
Sample,79235,0,"d07.wav",70
Sample,79235,0,"b08.wav",70
Sample,79235,0,"d01.wav",70
Sample,79235,0,"dd03.wav",70
Sample,79323,0,"d09.wav",70
Sample,79323,0,"b09.wav",70
Sample,79411,0,"dd04.wav",70
Sample,79411,0,"d03.wav",70
Sample,79411,0,"b07.wav",70
Sample,79411,0,"d04.wav",70
Sample,79411,0,"d09.wav",70
Sample,79500,0,"dd12.wav",70
Sample,79588,0,"d07.wav",70
Sample,79588,0,"d02.wav",70
Sample,79588,0,"b08.wav",70
Sample,79588,0,"d05.wav",70
Sample,79588,0,"d01.wav",70
Sample,79676,0,"b09.wav",70
Sample,79764,0,"d09.wav",70
Sample,79764,0,"d03.wav",70
Sample,79764,0,"dd07.wav",70
Sample,79764,0,"b07.wav",70
Sample,79852,0,"d04.wav",70
Sample,79852,0,"d01.wav",70
Sample,79852,0,"dd03.wav",70
Sample,79941,0,"d02.wav",70
Sample,79941,0,"d05.wav",70
Sample,79941,0,"dd22.wav",70
Sample,79941,0,"b08.wav",70
Sample,79941,0,"d09.wav",70
Sample,79941,0,"d07.wav",70
Sample,80029,0,"dd16.wav",70
Sample,80029,0,"b09.wav",70
Sample,80117,0,"b07.wav",70
Sample,80117,0,"d09.wav",70
Sample,80117,0,"d03.wav",70
Sample,80117,0,"d04.wav",70
Sample,80117,0,"dd21.wav",70
Sample,80294,0,"d01.wav",70
Sample,80294,0,"d05.wav",70
Sample,80294,0,"b08.wav",70
Sample,80294,0,"d07.wav",70
Sample,80294,0,"dd22.wav",70
Sample,80382,0,"b09.wav",70
Sample,80382,0,"dd23.wav",70
Sample,80470,0,"d06.wav",70
Sample,80470,0,"dd02.wav",70
Sample,80470,0,"b10.wav",70
Sample,80470,0,"d02.wav",70
Sample,80470,0,"atm03.wav",70
Sample,80470,0,"d03.wav",70
Sample,80470,0,"d09.wav",70
Sample,80470,0,"rez02.wav",70
Sample,80558,0,"d09.wav",70
Sample,80647,0,"d01.wav",70
Sample,80647,0,"b11.wav",70
Sample,80647,0,"d05.wav",70
Sample,80647,0,"d07.wav",70
Sample,80647,0,"dd03.wav",70
Sample,80735,0,"b12.wav",70
Sample,80823,0,"d09.wav",70
Sample,80823,0,"d03.wav",70
Sample,80823,0,"dd04.wav",70
Sample,80823,0,"b10.wav",70
Sample,80823,0,"d04.wav",70
Sample,81000,0,"d07.wav",70
Sample,81000,0,"b11.wav",70
Sample,81000,0,"dd07.wav",70
Sample,81000,0,"d01.wav",70
Sample,81000,0,"d02.wav",70
Sample,81000,0,"d05.wav",70
Sample,81088,0,"dd06.wav",70
Sample,81088,0,"b12.wav",70
Sample,81176,0,"d09.wav",70
Sample,81176,0,"b10.wav",70
Sample,81176,0,"dd07.wav",70
Sample,81176,0,"d03.wav",70
Sample,81264,0,"dd06.wav",70
Sample,81352,0,"dd09.wav",70
Sample,81352,0,"b11.wav",70
Sample,81352,0,"d01.wav",70
Sample,81352,0,"d07.wav",70
Sample,81352,0,"d05.wav",70
Sample,81441,0,"dd10.wav",70
Sample,81441,0,"b12.wav",70
Sample,81441,0,"d09.wav",70
Sample,81529,0,"d04.wav",70
Sample,81529,0,"d02.wav",70
Sample,81529,0,"d03.wav",70
Sample,81529,0,"d09.wav",70
Sample,81529,0,"dd11.wav",70
Sample,81529,0,"b10.wav",70
Sample,81705,0,"b11.wav",70
Sample,81705,0,"d07.wav",70
Sample,81705,0,"d01.wav",70
Sample,81705,0,"d05.wav",70
Sample,81705,0,"dd12.wav",70
Sample,81794,0,"b12.wav",70
Sample,81794,0,"dd07.wav",70
Sample,81882,0,"d03.wav",70
Sample,81882,0,"b10.wav",70
Sample,81882,0,"dd02.wav",70
Sample,81882,0,"d09.wav",70
Sample,81882,0,"d06.wav",70
Sample,81882,0,"d02.wav",70
Sample,81970,0,"d01.wav",70
Sample,82058,0,"d07.wav",70
Sample,82058,0,"dd03.wav",70
Sample,82058,0,"b11.wav",70
Sample,82058,0,"d05.wav",70
Sample,82058,0,"d09.wav",70
Sample,82147,0,"b12.wav",70
Sample,82235,0,"b10.wav",70
Sample,82235,0,"d01.wav",70
Sample,82235,0,"d03.wav",70
Sample,82235,0,"dd04.wav",70
Sample,82235,0,"d04.wav",70
Sample,82411,0,"d02.wav",70
Sample,82411,0,"d09.wav",70
Sample,82411,0,"d05.wav",70
Sample,82411,0,"d07.wav",70
Sample,82411,0,"b11.wav",70
Sample,82411,0,"dd07.wav",70
Sample,82500,0,"b12.wav",70
Sample,82500,0,"dd06.wav",70
Sample,82588,0,"d09.wav",70
Sample,82588,0,"b10.wav",70
Sample,82588,0,"d03.wav",70
Sample,82676,0,"dd07.wav",70
Sample,82764,0,"d05.wav",70
Sample,82764,0,"b11.wav",70
Sample,82764,0,"d07.wav",70
Sample,82764,0,"d01.wav",70
Sample,82852,0,"b12.wav",70
Sample,82852,0,"dd16.wav",70
Sample,82852,0,"d04.wav",70
Sample,82852,0,"d09.wav",70
Sample,82941,0,"d03.wav",70
Sample,82941,0,"b10.wav",70
Sample,82941,0,"d02.wav",70
Sample,82941,0,"d04.wav",70
Sample,82941,0,"dd17.wav",70
Sample,83029,0,"dd18.wav",70
Sample,83117,0,"d01.wav",70
Sample,83117,0,"dd12.wav",70
Sample,83117,0,"b11.wav",70
Sample,83117,0,"d07.wav",70
Sample,83117,0,"d05.wav",70
Sample,83205,0,"b12.wav",70
Sample,83205,0,"dd20.wav",70
Sample,83294,0,"atm04.wav",70
Sample,83294,0,"d06.wav",70
Sample,83294,0,"b13.wav",70
Sample,83294,0,"d09.wav",70
Sample,83294,0,"d02.wav",70
Sample,83294,0,"d03.wav",70
Sample,83294,0,"dd02.wav",70
Sample,83382,0,"d09.wav",70
Sample,83470,0,"d05.wav",70
Sample,83470,0,"d07.wav",70
Sample,83470,0,"b14.wav",70
Sample,83470,0,"d01.wav",70
Sample,83470,0,"dd03.wav",70
Sample,83558,0,"d01.wav",70
Sample,83558,0,"b09.wav",70
Sample,83647,0,"dd04.wav",70
Sample,83647,0,"b13.wav",70
Sample,83647,0,"d09.wav",70
Sample,83647,0,"d03.wav",70
Sample,83647,0,"d04.wav",70
Sample,83823,0,"d05.wav",70
Sample,83823,0,"b14.wav",70
Sample,83823,0,"d07.wav",70
Sample,83823,0,"d02.wav",70
Sample,83823,0,"d01.wav",70
Sample,83823,0,"dd07.wav",70
Sample,83911,0,"b09.wav",70
Sample,83911,0,"dd06.wav",70
Sample,84000,0,"d03.wav",70
Sample,84000,0,"d09.wav",70
Sample,84000,0,"b13.wav",70
Sample,84000,0,"dd07.wav",70
Sample,84088,0,"dd06.wav",70
Sample,84176,0,"d01.wav",70
Sample,84176,0,"dd09.wav",70
Sample,84176,0,"d05.wav",70
Sample,84176,0,"d07.wav",70
Sample,84176,0,"b14.wav",70
Sample,84264,0,"b09.wav",70
Sample,84264,0,"dd10.wav",70
Sample,84264,0,"d09.wav",70
Sample,84352,0,"d04.wav",70
Sample,84352,0,"b13.wav",70
Sample,84352,0,"d09.wav",70
Sample,84352,0,"d02.wav",70
Sample,84352,0,"d03.wav",70
Sample,84352,0,"dd11.wav",70
Sample,84529,0,"dd07.wav",70
Sample,84529,0,"b14.wav",70
Sample,84529,0,"d07.wav",70
Sample,84529,0,"d01.wav",70
Sample,84529,0,"d05.wav",70
Sample,84617,0,"b09.wav",70
Sample,84617,0,"dd12.wav",70
Sample,84705,0,"d03.wav",70
Sample,84705,0,"b13.wav",70
Sample,84705,0,"d02.wav",70
Sample,84705,0,"d09.wav",70
Sample,84705,0,"d06.wav",70
Sample,84705,0,"dd02.wav",70
Sample,84882,0,"b14.wav",70
Sample,84882,0,"d07.wav",70
Sample,84882,0,"d05.wav",70
Sample,84882,0,"d01.wav",70
Sample,84882,0,"dd02.wav",70
Sample,84970,0,"d09.wav",70
Sample,84970,0,"b09.wav",70
Sample,85058,0,"b13.wav",70
Sample,85058,0,"d04.wav",70
Sample,85058,0,"d09.wav",70
Sample,85058,0,"d03.wav",70
Sample,85058,0,"dd04.wav",70
Sample,85147,0,"dd04.wav",70
Sample,85235,0,"dd07.wav",70
Sample,85235,0,"d02.wav",70
Sample,85235,0,"d07.wav",70
Sample,85235,0,"d05.wav",70
Sample,85235,0,"b14.wav",70
Sample,85235,0,"d01.wav",70
Sample,85323,0,"b09.wav",70
Sample,85323,0,"dd07.wav",70
Sample,85411,0,"d09.wav",70
Sample,85411,0,"dd56.wav",70
Sample,85411,0,"b13.wav",70
Sample,85411,0,"d03.wav",70
Sample,85500,0,"dd57.wav",70
Sample,85500,0,"d01.wav",70
Sample,85500,0,"d04.wav",70
Sample,85588,0,"b14.wav",70
Sample,85588,0,"dd38.wav",70
Sample,85588,0,"d05.wav",70
Sample,85588,0,"d02.wav",70
Sample,85588,0,"d07.wav",70
Sample,85588,0,"d09.wav",70
Sample,85676,0,"dd32.wav",70
Sample,85676,0,"b09.wav",70
Sample,85764,0,"d04.wav",70
Sample,85764,0,"b13.wav",70
Sample,85764,0,"dd41.wav",70
Sample,85764,0,"d09.wav",70
Sample,85764,0,"d03.wav",70
Sample,85852,0,"dd42.wav",70
Sample,85941,0,"dd44.wav",70
Sample,85941,0,"d07.wav",70
Sample,85941,0,"b14.wav",70
Sample,85941,0,"d01.wav",70
Sample,85941,0,"d05.wav",70
Sample,86029,0,"b09.wav",70
Sample,86029,0,"dd43.wav",70
Sample,86117,0,"d06.wav",70
Sample,86117,0,"dd02.wav",70
Sample,86117,0,"b04.wav",70
Sample,86117,0,"d02.wav",70
Sample,86117,0,"atm01.wav",70
Sample,86117,0,"d03.wav",70
Sample,86117,0,"d09.wav",70
Sample,86205,0,"d09.wav",70
Sample,86294,0,"d05.wav",70
Sample,86294,0,"d01.wav",70
Sample,86294,0,"d07.wav",70
Sample,86294,0,"b05.wav",70
Sample,86294,0,"dd03.wav",70
Sample,86382,0,"b06.wav",70
Sample,86470,0,"d03.wav",70
Sample,86470,0,"b04.wav",70
Sample,86470,0,"d09.wav",70
Sample,86470,0,"d04.wav",70
Sample,86470,0,"dd04.wav",70
Sample,86647,0,"d05.wav",70
Sample,86647,0,"d07.wav",70
Sample,86647,0,"d01.wav",70
Sample,86647,0,"d02.wav",70
Sample,86647,0,"b05.wav",70
Sample,86647,0,"dd07.wav",70
Sample,86735,0,"b06.wav",70
Sample,86735,0,"dd06.wav",70
Sample,86823,0,"b04.wav",70
Sample,86823,0,"d03.wav",70
Sample,86823,0,"d09.wav",70
Sample,86823,0,"dd07.wav",70
Sample,86911,0,"dd06.wav",70
Sample,87000,0,"d07.wav",70
Sample,87000,0,"dd09.wav",70
Sample,87000,0,"d05.wav",70
Sample,87000,0,"d01.wav",70
Sample,87000,0,"b05.wav",70
Sample,87088,0,"b06.wav",70
Sample,87088,0,"d09.wav",70
Sample,87088,0,"dd10.wav",70
Sample,87176,0,"d04.wav",70
Sample,87176,0,"d09.wav",70
Sample,87176,0,"d03.wav",70
Sample,87176,0,"b04.wav",70
Sample,87176,0,"d02.wav",70
Sample,87176,0,"dd11.wav",70
Sample,87352,0,"d01.wav",70
Sample,87352,0,"d05.wav",70
Sample,87352,0,"d07.wav",70
Sample,87352,0,"dd12.wav",70
Sample,87352,0,"b05.wav",70
Sample,87441,0,"b06.wav",70
Sample,87441,0,"dd07.wav",70
Sample,87529,0,"d09.wav",70
Sample,87529,0,"d06.wav",70
Sample,87529,0,"dd02.wav",70
Sample,87529,0,"d03.wav",70
Sample,87529,0,"b04.wav",70
Sample,87529,0,"d02.wav",70
Sample,87617,0,"d01.wav",70
Sample,87705,0,"d05.wav",70
Sample,87705,0,"d09.wav",70
Sample,87705,0,"d07.wav",70
Sample,87705,0,"b05.wav",70
Sample,87705,0,"dd03.wav",70
Sample,87794,0,"b06.wav",70
Sample,87882,0,"d03.wav",70
Sample,87882,0,"dd04.wav",70
Sample,87882,0,"d01.wav",70
Sample,87882,0,"b04.wav",70
Sample,87882,0,"d04.wav",70
Sample,88058,0,"d02.wav",70
Sample,88058,0,"d05.wav",70
Sample,88058,0,"d09.wav",70
Sample,88058,0,"d07.wav",70
Sample,88058,0,"b05.wav",70
Sample,88058,0,"dd07.wav",70
Sample,88147,0,"dd06.wav",70
Sample,88147,0,"b06.wav",70
Sample,88235,0,"d09.wav",70
Sample,88235,0,"d03.wav",70
Sample,88235,0,"b04.wav",70
Sample,88323,0,"dd07.wav",70
Sample,88411,0,"b05.wav",70
Sample,88411,0,"d01.wav",70
Sample,88411,0,"d05.wav",70
Sample,88411,0,"d07.wav",70
Sample,88500,0,"dd16.wav",70
Sample,88500,0,"d04.wav",70
Sample,88500,0,"b06.wav",70
Sample,88500,0,"d09.wav",70
Sample,88588,0,"d03.wav",70
Sample,88588,0,"dd17.wav",70
Sample,88588,0,"d04.wav",70
Sample,88588,0,"b04.wav",70
Sample,88588,0,"d02.wav",70
Sample,88676,0,"dd18.wav",70
Sample,88764,0,"b05.wav",70
Sample,88764,0,"d05.wav",70
Sample,88764,0,"d07.wav",70
Sample,88764,0,"d01.wav",70
Sample,88764,0,"dd12.wav",70
Sample,88852,0,"b06.wav",70
Sample,88852,0,"dd20.wav",70
Sample,88941,0,"b07.wav",70
Sample,88941,0,"d03.wav",70
Sample,88941,0,"d06.wav",70
Sample,88941,0,"atm02.wav",70
Sample,88941,0,"dd02.wav",70
Sample,88941,0,"d02.wav",70
Sample,88941,0,"d09.wav",70
Sample,89029,0,"d09.wav",70
Sample,89117,0,"b08.wav",70
Sample,89117,0,"dd03.wav",70
Sample,89117,0,"d01.wav",70
Sample,89117,0,"d05.wav",70
Sample,89117,0,"d07.wav",70
Sample,89205,0,"d01.wav",70
Sample,89205,0,"b09.wav",70
Sample,89294,0,"b07.wav",70
Sample,89294,0,"d09.wav",70
Sample,89294,0,"d03.wav",70
Sample,89294,0,"d04.wav",70
Sample,89294,0,"dd04.wav",70
Sample,89470,0,"d01.wav",70
Sample,89470,0,"d02.wav",70
Sample,89470,0,"d07.wav",70
Sample,89470,0,"b08.wav",70
Sample,89470,0,"d05.wav",70
Sample,89470,0,"dd07.wav",70
Sample,89558,0,"b09.wav",70
Sample,89558,0,"dd06.wav",70
Sample,89647,0,"d09.wav",70
Sample,89647,0,"dd07.wav",70
Sample,89647,0,"b07.wav",70
Sample,89647,0,"d03.wav",70
Sample,89735,0,"dd06.wav",70
Sample,89823,0,"d05.wav",70
Sample,89823,0,"d07.wav",70
Sample,89823,0,"d01.wav",70
Sample,89823,0,"b08.wav",70
Sample,89823,0,"dd09.wav",70
Sample,89911,0,"d09.wav",70
Sample,89911,0,"b09.wav",70
Sample,89911,0,"dd10.wav",70
Sample,90000,0,"d04.wav",70
Sample,90000,0,"d09.wav",70
Sample,90000,0,"d03.wav",70
Sample,90000,0,"d02.wav",70
Sample,90000,0,"b07.wav",70
Sample,90000,0,"dd11.wav",70
Sample,90176,0,"dd12.wav",70
Sample,90176,0,"d07.wav",70
Sample,90176,0,"d05.wav",70
Sample,90176,0,"d01.wav",70
Sample,90176,0,"b08.wav",70
Sample,90264,0,"b09.wav",70
Sample,90264,0,"dd07.wav",70
Sample,90352,0,"d09.wav",70
Sample,90352,0,"d06.wav",70
Sample,90352,0,"d02.wav",70
Sample,90352,0,"d03.wav",70
Sample,90352,0,"b07.wav",70
Sample,90352,0,"dd02.wav",70
Sample,90529,0,"d05.wav",70
Sample,90529,0,"d01.wav",70
Sample,90529,0,"d07.wav",70
Sample,90529,0,"b08.wav",70
Sample,90529,0,"dd03.wav",70
Sample,90617,0,"b09.wav",70
Sample,90617,0,"d09.wav",70
Sample,90705,0,"d03.wav",70
Sample,90705,0,"dd04.wav",70
Sample,90705,0,"d09.wav",70
Sample,90705,0,"b07.wav",70
Sample,90705,0,"d04.wav",70
Sample,90794,0,"dd12.wav",70
Sample,90882,0,"d05.wav",70
Sample,90882,0,"d02.wav",70
Sample,90882,0,"d07.wav",70
Sample,90882,0,"b08.wav",70
Sample,90882,0,"d01.wav",70
Sample,90970,0,"b09.wav",70
Sample,91058,0,"b07.wav",70
Sample,91058,0,"d09.wav",70
Sample,91058,0,"dd07.wav",70
Sample,91058,0,"d03.wav",70
Sample,91147,0,"d01.wav",70
Sample,91147,0,"d04.wav",70
Sample,91147,0,"dd03.wav",70
Sample,91235,0,"d05.wav",70
Sample,91235,0,"d07.wav",70
Sample,91235,0,"d09.wav",70
Sample,91235,0,"dd22.wav",70
Sample,91235,0,"b08.wav",70
Sample,91235,0,"d02.wav",70
Sample,91323,0,"dd16.wav",70
Sample,91323,0,"b09.wav",70
Sample,91411,0,"d09.wav",70
Sample,91411,0,"b07.wav",70
Sample,91411,0,"d04.wav",70
Sample,91411,0,"d03.wav",70
Sample,91411,0,"dd21.wav",70
Sample,91588,0,"d01.wav",70
Sample,91588,0,"d05.wav",70
Sample,91588,0,"b08.wav",70
Sample,91588,0,"d07.wav",70
Sample,91588,0,"dd22.wav",70
Sample,91676,0,"b09.wav",70
Sample,91676,0,"dd23.wav",70
Sample,91764,0,"d06.wav",70
Sample,91764,0,"dd02.wav",70
Sample,91764,0,"b10.wav",70
Sample,91764,0,"d02.wav",70
Sample,91764,0,"atm03.wav",70
Sample,91764,0,"d03.wav",70
Sample,91764,0,"d09.wav",70
Sample,91852,0,"d09.wav",70
Sample,91941,0,"d05.wav",70
Sample,91941,0,"d01.wav",70
Sample,91941,0,"b11.wav",70
Sample,91941,0,"d07.wav",70
Sample,91941,0,"dd03.wav",70
Sample,92029,0,"b12.wav",70
Sample,92117,0,"dd04.wav",70
Sample,92117,0,"b10.wav",70
Sample,92117,0,"d03.wav",70
Sample,92117,0,"d04.wav",70
Sample,92117,0,"d09.wav",70
Sample,92294,0,"b11.wav",70
Sample,92294,0,"d07.wav",70
Sample,92294,0,"d05.wav",70
Sample,92294,0,"d02.wav",70
Sample,92294,0,"d01.wav",70
Sample,92294,0,"dd07.wav",70
Sample,92382,0,"dd06.wav",70
Sample,92382,0,"b12.wav",70
Sample,92470,0,"d09.wav",70
Sample,92470,0,"b10.wav",70
Sample,92470,0,"d03.wav",70
Sample,92470,0,"dd07.wav",70
Sample,92558,0,"dd06.wav",70
Sample,92647,0,"d07.wav",70
Sample,92647,0,"dd09.wav",70
Sample,92647,0,"b11.wav",70
Sample,92647,0,"d05.wav",70
Sample,92647,0,"d01.wav",70
Sample,92735,0,"d09.wav",70
Sample,92735,0,"b12.wav",70
Sample,92735,0,"dd10.wav",70
Sample,92823,0,"b10.wav",70
Sample,92823,0,"d04.wav",70
Sample,92823,0,"d02.wav",70
Sample,92823,0,"d03.wav",70
Sample,92823,0,"d09.wav",70
Sample,92823,0,"dd11.wav",70
Sample,93000,0,"d01.wav",70
Sample,93000,0,"b11.wav",70
Sample,93000,0,"d07.wav",70
Sample,93000,0,"dd12.wav",70
Sample,93000,0,"d05.wav",70
Sample,93088,0,"b12.wav",70
Sample,93088,0,"dd07.wav",70
Sample,93176,0,"d09.wav",70
Sample,93176,0,"d06.wav",70
Sample,93176,0,"dd02.wav",70
Sample,93176,0,"d03.wav",70
Sample,93176,0,"b10.wav",70
Sample,93176,0,"d02.wav",70
Sample,93264,0,"d01.wav",70
Sample,93352,0,"d05.wav",70
Sample,93352,0,"d09.wav",70
Sample,93352,0,"b11.wav",70
Sample,93352,0,"d07.wav",70
Sample,93352,0,"dd03.wav",70
Sample,93441,0,"b12.wav",70
Sample,93529,0,"dd04.wav",70
Sample,93529,0,"b10.wav",70
Sample,93529,0,"d01.wav",70
Sample,93529,0,"d04.wav",70
Sample,93529,0,"d03.wav",70
Sample,93705,0,"d05.wav",70
Sample,93705,0,"d02.wav",70
Sample,93705,0,"b11.wav",70
Sample,93705,0,"d07.wav",70
Sample,93705,0,"d09.wav",70
Sample,93705,0,"dd07.wav",70
Sample,93794,0,"dd06.wav",70
Sample,93794,0,"b12.wav",70
Sample,93882,0,"d03.wav",70
Sample,93882,0,"b10.wav",70
Sample,93882,0,"d09.wav",70
Sample,93970,0,"dd07.wav",70
Sample,94058,0,"d01.wav",70
Sample,94058,0,"b11.wav",70
Sample,94058,0,"d05.wav",70
Sample,94058,0,"d07.wav",70
Sample,94147,0,"dd16.wav",70
Sample,94147,0,"d04.wav",70
Sample,94147,0,"d09.wav",70
Sample,94147,0,"b12.wav",70
Sample,94235,0,"d03.wav",70
Sample,94235,0,"dd17.wav",70
Sample,94235,0,"d04.wav",70
Sample,94235,0,"b10.wav",70
Sample,94235,0,"d02.wav",70
Sample,94323,0,"dd18.wav",70
Sample,94411,0,"b11.wav",70
Sample,94411,0,"d05.wav",70
Sample,94411,0,"d07.wav",70
Sample,94411,0,"d01.wav",70
Sample,94411,0,"dd12.wav",70
Sample,94500,0,"b12.wav",70
Sample,94500,0,"dd20.wav",70
Sample,94588,0,"d02.wav",70
Sample,94588,0,"d09.wav",70
Sample,94588,0,"d03.wav",70
Sample,94588,0,"roll01_32.wav",70
Sample,94588,0,"dd02.wav",70
Sample,94588,0,"atm04.wav",70
Sample,94588,0,"b13.wav",70
Sample,94588,0,"d06.wav",70
Sample,94676,0,"roll01_31.wav",70
Sample,94676,0,"d09.wav",70
Sample,94764,0,"d07.wav",70
Sample,94764,0,"b14.wav",70
Sample,94764,0,"dd03.wav",70
Sample,94764,0,"d01.wav",70
Sample,94764,0,"d05.wav",70
Sample,94764,0,"roll01_30.wav",70
Sample,94852,0,"b09.wav",70
Sample,94852,0,"d01.wav",70
Sample,94852,0,"roll01_29.wav",70
Sample,94941,0,"d03.wav",70
Sample,94941,0,"b13.wav",70
Sample,94941,0,"dd04.wav",70
Sample,94941,0,"roll01_28.wav",70
Sample,94941,0,"d04.wav",70
Sample,94941,0,"d09.wav",70
Sample,95029,0,"roll01_27.wav",70
Sample,95117,0,"d02.wav",70
Sample,95117,0,"dd07.wav",70
Sample,95117,0,"roll01_26.wav",70
Sample,95117,0,"b14.wav",70
Sample,95117,0,"d07.wav",70
Sample,95117,0,"d05.wav",70
Sample,95117,0,"d01.wav",70
Sample,95205,0,"b09.wav",70
Sample,95205,0,"roll01_25.wav",70
Sample,95205,0,"dd06.wav",70
Sample,95294,0,"roll01_24.wav",70
Sample,95294,0,"dd07.wav",70
Sample,95294,0,"d09.wav",70
Sample,95294,0,"b13.wav",70
Sample,95294,0,"d03.wav",70
Sample,95382,0,"roll01_23.wav",70
Sample,95382,0,"dd06.wav",70
Sample,95470,0,"b14.wav",70
Sample,95470,0,"d05.wav",70
Sample,95470,0,"dd09.wav",70
Sample,95470,0,"roll01_22.wav",70
Sample,95470,0,"d07.wav",70
Sample,95470,0,"d01.wav",70
Sample,95558,0,"b09.wav",70
Sample,95558,0,"d09.wav",70
Sample,95558,0,"dd10.wav",70
Sample,95558,0,"roll01_21.wav",70
Sample,95647,0,"b13.wav",70
Sample,95647,0,"d03.wav",70
Sample,95647,0,"roll01_20.wav",70
Sample,95647,0,"d09.wav",70
Sample,95647,0,"d02.wav",70
Sample,95647,0,"dd11.wav",70
Sample,95647,0,"d04.wav",70
Sample,95735,0,"roll01_19.wav",70
Sample,95823,0,"dd07.wav",70
Sample,95823,0,"roll01_18.wav",70
Sample,95823,0,"d01.wav",70
Sample,95823,0,"d05.wav",70
Sample,95823,0,"b14.wav",70
Sample,95823,0,"d07.wav",70
Sample,95911,0,"roll01_18.wav",70
Sample,95911,0,"b09.wav",70
Sample,95911,0,"dd12.wav",70
Sample,96000,0,"d06.wav",70
Sample,96000,0,"dd02.wav",70
Sample,96000,0,"b13.wav",70
Sample,96000,0,"d02.wav",70
Sample,96000,0,"d09.wav",70
Sample,96000,0,"d03.wav",70
Sample,96000,0,"r49.wav",70
Sample,96088,0,"r50.wav",70
Sample,96176,0,"d05.wav",70
Sample,96176,0,"d07.wav",70
Sample,96176,0,"dd02.wav",70
Sample,96176,0,"d01.wav",70
Sample,96176,0,"b14.wav",70
Sample,96176,0,"r51.wav",70
Sample,96264,0,"r52.wav",70
Sample,96264,0,"b09.wav",70
Sample,96264,0,"d09.wav",70
Sample,96352,0,"r53.wav",70
Sample,96352,0,"dd04.wav",70
Sample,96352,0,"d09.wav",70
Sample,96352,0,"d03.wav",70
Sample,96352,0,"b13.wav",70
Sample,96352,0,"d04.wav",70
Sample,96441,0,"dd04.wav",70
Sample,96441,0,"r54.wav",70
Sample,96529,0,"b14.wav",70
Sample,96529,0,"dd07.wav",70
Sample,96529,0,"d05.wav",70
Sample,96529,0,"r55.wav",70
Sample,96529,0,"d02.wav",70
Sample,96529,0,"d07.wav",70
Sample,96529,0,"d01.wav",70
Sample,96617,0,"dd07.wav",70
Sample,96617,0,"r56.wav",70
Sample,96617,0,"b09.wav",70
Sample,96705,0,"dd56.wav",70
Sample,96705,0,"d03.wav",70
Sample,96705,0,"r57.wav",70
Sample,96705,0,"d09.wav",70
Sample,96705,0,"b13.wav",70
Sample,96794,0,"r58.wav",70
Sample,96794,0,"d04.wav",70
Sample,96794,0,"d01.wav",70
Sample,96794,0,"dd57.wav",70
Sample,96882,0,"d05.wav",70
Sample,96882,0,"dd38.wav",70
Sample,96882,0,"d09.wav",70
Sample,96882,0,"d07.wav",70
Sample,96882,0,"r59.wav",70
Sample,96882,0,"d02.wav",70
Sample,96882,0,"b14.wav",70
Sample,96970,0,"r60.wav",70
Sample,96970,0,"dd32.wav",70
Sample,96970,0,"b09.wav",70
Sample,97058,0,"dd41.wav",70
Sample,97058,0,"d04.wav",70
Sample,97058,0,"b13.wav",70
Sample,97058,0,"r61.wav",70
Sample,97058,0,"d09.wav",70
Sample,97058,0,"d03.wav",70
Sample,97147,0,"r62.wav",70
Sample,97147,0,"dd42.wav",70
Sample,97235,0,"b14.wav",70
Sample,97235,0,"d07.wav",70
Sample,97235,0,"r63.wav",70
Sample,97235,0,"dd44.wav",70
Sample,97235,0,"d05.wav",70
Sample,97235,0,"d01.wav",70
Sample,97323,0,"dd43.wav",70
Sample,97323,0,"r64.wav",70
Sample,97323,0,"b09.wav",70
Sample,97411,0,"d06.wav",70
Sample,97411,0,"rez01.wav",70
Sample,97411,0,"atm01.wav",70
Sample,97411,0,"r65.wav",70
Sample,97500,0,"r66.wav",70
Sample,97588,0,"ss01.wav",70
Sample,97588,0,"d05.wav",70
Sample,97588,0,"r67.wav",70
Sample,97588,0,"d07.wav",70
Sample,97676,0,"r68.wav",70
Sample,97764,0,"r69.wav",70
Sample,97852,0,"r70.wav",70
Sample,97941,0,"ss02.wav",70
Sample,97941,0,"d07.wav",70
Sample,97941,0,"r71.wav",70
Sample,97941,0,"d05.wav",70
Sample,98029,0,"r72.wav",70
Sample,98117,0,"r73.wav",70
Sample,98205,0,"r74.wav",70
Sample,98294,0,"d07.wav",70
Sample,98294,0,"d05.wav",70
Sample,98294,0,"ss03.wav",70
Sample,98294,0,"r75.wav",70
Sample,98382,0,"r76.wav",70
Sample,98470,0,"r77.wav",70
Sample,98558,0,"r78.wav",70
Sample,98647,0,"r79.wav",70
Sample,98647,0,"d05.wav",70
Sample,98647,0,"d07.wav",70
Sample,98647,0,"ss03.wav",70
Sample,98735,0,"r80.wav",70
Sample,98823,0,"d06.wav",70
Sample,98823,0,"r81.wav",70
Sample,98911,0,"r82.wav",70
Sample,99000,0,"d07.wav",70
Sample,99000,0,"d05.wav",70
Sample,99000,0,"r83.wav",70
Sample,99000,0,"ss05.wav",70
Sample,99088,0,"r84.wav",70
Sample,99176,0,"r85.wav",70
Sample,99264,0,"r86.wav",70
Sample,99352,0,"ss05.wav",70
Sample,99352,0,"d07.wav",70
Sample,99352,0,"d05.wav",70
Sample,99352,0,"r87.wav",70
Sample,99441,0,"r88.wav",70
Sample,99529,0,"r89.wav",70
Sample,99617,0,"r90.wav",70
Sample,99705,0,"d07.wav",70
Sample,99705,0,"r91.wav",70
Sample,99705,0,"ss07.wav",70
Sample,99705,0,"d05.wav",70
Sample,99794,0,"r92.wav",70
Sample,99882,0,"r93.wav",70
Sample,99970,0,"r94.wav",70
Sample,100058,0,"d05.wav",70
Sample,100058,0,"d07.wav",70
Sample,100058,0,"ss07.wav",70
Sample,100058,0,"r95.wav",70
Sample,100147,0,"r96.wav",70
Sample,100235,0,"r97.wav",70
Sample,100235,0,"d06.wav",70
Sample,100235,0,"atm02.wav",70
Sample,100323,0,"r98.wav",70
Sample,100411,0,"d07.wav",70
Sample,100411,0,"ss09.wav",70
Sample,100411,0,"d05.wav",70
Sample,100411,0,"r99.wav",70
Sample,100500,0,"r100.wav",70
Sample,100588,0,"r101.wav",70
Sample,100676,0,"r102.wav",70
Sample,100764,0,"d05.wav",70
Sample,100764,0,"ss09.wav",70
Sample,100764,0,"d07.wav",70
Sample,100764,0,"r103.wav",70
Sample,100852,0,"r104.wav",70
Sample,100941,0,"r105.wav",70
Sample,101029,0,"r106.wav",70
Sample,101117,0,"d07.wav",70
Sample,101117,0,"d05.wav",70
Sample,101117,0,"ss09.wav",70
Sample,101117,0,"r107.wav",70
Sample,101205,0,"r108.wav",70
Sample,101294,0,"r109.wav",70
Sample,101382,0,"r110.wav",70
Sample,101470,0,"d05.wav",70
Sample,101470,0,"r111.wav",70
Sample,101470,0,"d07.wav",70
Sample,101470,0,"ss12.wav",70
Sample,101558,0,"r112.wav",70
Sample,101647,0,"r113.wav",70
Sample,101647,0,"d06.wav",70
Sample,101735,0,"r114.wav",70
Sample,101823,0,"ss12.wav",70
Sample,101823,0,"d07.wav",70
Sample,101823,0,"r115.wav",70
Sample,101823,0,"d05.wav",70
Sample,101911,0,"r116.wav",70
Sample,102000,0,"r117.wav",70
Sample,102088,0,"r118.wav",70
Sample,102176,0,"r119.wav",70
Sample,102176,0,"ss14.wav",70
Sample,102176,0,"d07.wav",70
Sample,102176,0,"d05.wav",70
Sample,102264,0,"r120.wav",70
Sample,102352,0,"r121.wav",70
Sample,102441,0,"r122.wav",70
Sample,102529,0,"d05.wav",70
Sample,102529,0,"r123.wav",70
Sample,102529,0,"ss14.wav",70
Sample,102529,0,"d07.wav",70
Sample,102617,0,"r124.wav",70
Sample,102705,0,"r125.wav",70
Sample,102794,0,"r126.wav",70
Sample,102882,0,"d07.wav",70
Sample,102882,0,"d05.wav",70
Sample,102882,0,"r127.wav",70
Sample,102882,0,"ss16.wav",70
Sample,102970,0,"r128.wav",70
Sample,103058,0,"atm03.wav",70
Sample,103058,0,"r01.wav",70
Sample,103058,0,"d06.wav",70
Sample,103147,0,"r02.wav",70
Sample,103235,0,"d05.wav",70
Sample,103235,0,"r03.wav",70
Sample,103235,0,"d07.wav",70
Sample,103235,0,"ss17.wav",70
Sample,103323,0,"r04.wav",70
Sample,103411,0,"r05.wav",70
Sample,103500,0,"r06.wav",70
Sample,103588,0,"r07.wav",70
Sample,103588,0,"d05.wav",70
Sample,103588,0,"d07.wav",70
Sample,103588,0,"ss17.wav",70
Sample,103676,0,"r08.wav",70
Sample,103764,0,"r09.wav",70
Sample,103852,0,"r10.wav",70
Sample,103941,0,"ss19.wav",70
Sample,103941,0,"r11.wav",70
Sample,103941,0,"d07.wav",70
Sample,103941,0,"d05.wav",70
Sample,104029,0,"r12.wav",70
Sample,104117,0,"r13.wav",70
Sample,104205,0,"r14.wav",70
Sample,104294,0,"r15.wav",70
Sample,104294,0,"ss19.wav",70
Sample,104294,0,"d07.wav",70
Sample,104294,0,"d05.wav",70
Sample,104382,0,"r16.wav",70
Sample,104470,0,"r17.wav",70
Sample,104470,0,"d06.wav",70
Sample,104558,0,"r18.wav",70
Sample,104647,0,"d07.wav",70
Sample,104647,0,"d05.wav",70
Sample,104647,0,"ss21.wav",70
Sample,104647,0,"r19.wav",70
Sample,104735,0,"r20.wav",70
Sample,104823,0,"r21.wav",70
Sample,104911,0,"r22.wav",70
Sample,105000,0,"r23.wav",70
Sample,105000,0,"d05.wav",70
Sample,105000,0,"d07.wav",70
Sample,105000,0,"ss22.wav",70
Sample,105088,0,"r24.wav",70
Sample,105176,0,"r25.wav",70
Sample,105264,0,"r26.wav",70
Sample,105352,0,"ss23.wav",70
Sample,105352,0,"d07.wav",70
Sample,105352,0,"r27.wav",70
Sample,105352,0,"d05.wav",70
Sample,105441,0,"r28.wav",70
Sample,105529,0,"r29.wav",70
Sample,105617,0,"r30.wav",70
Sample,105705,0,"r31.wav",70
Sample,105705,0,"ss24.wav",70
Sample,105705,0,"d07.wav",70
Sample,105705,0,"d05.wav",70
Sample,105794,0,"r32.wav",70
Sample,105882,0,"r33.wav",70
Sample,105882,0,"d06.wav",70
Sample,105882,0,"atm04.wav",70
Sample,105970,0,"r34.wav",70
Sample,106058,0,"d07.wav",70
Sample,106058,0,"ss25.wav",70
Sample,106058,0,"d05.wav",70
Sample,106058,0,"r35.wav",70
Sample,106147,0,"r36.wav",70
Sample,106235,0,"r37.wav",70
Sample,106323,0,"r38.wav",70
Sample,106411,0,"d07.wav",70
Sample,106411,0,"ss26.wav",70
Sample,106411,0,"r39.wav",70
Sample,106411,0,"d05.wav",70
Sample,106500,0,"r40.wav",70
Sample,106588,0,"r41.wav",70
Sample,106676,0,"r42.wav",70
Sample,106764,0,"d07.wav",70
Sample,106764,0,"d05.wav",70
Sample,106764,0,"ss26.wav",70
Sample,106764,0,"r43.wav",70
Sample,106852,0,"r44.wav",70
Sample,106941,0,"r45.wav",70
Sample,107029,0,"r46.wav",70
Sample,107117,0,"d07.wav",70
Sample,107117,0,"d05.wav",70
Sample,107117,0,"r47.wav",70
Sample,107117,0,"ss28.wav",70
Sample,107205,0,"r48.wav",70
Sample,107294,0,"d06.wav",70
Sample,107294,0,"r49.wav",70
Sample,107382,0,"r50.wav",70
Sample,107470,0,"ss28.wav",70
Sample,107470,0,"d05.wav",70
Sample,107470,0,"r51.wav",70
Sample,107470,0,"d07.wav",70
Sample,107558,0,"r52.wav",70
Sample,107647,0,"r53.wav",70
Sample,107735,0,"r54.wav",70
Sample,107823,0,"d07.wav",70
Sample,107823,0,"ss30.wav",70
Sample,107823,0,"r55.wav",70
Sample,107823,0,"d05.wav",70
Sample,107911,0,"r56.wav",70
Sample,108000,0,"r57.wav",70
Sample,108088,0,"r58.wav",70
Sample,108176,0,"ss30.wav",70
Sample,108176,0,"d07.wav",70
Sample,108176,0,"r59.wav",70
Sample,108176,0,"d05.wav",70
Sample,108264,0,"r60.wav",70
Sample,108352,0,"r61.wav",70
Sample,108441,0,"r62.wav",70
Sample,108529,0,"d07.wav",70
Sample,108529,0,"d05.wav",70
Sample,108529,0,"r63.wav",70
Sample,108529,0,"ss30.wav",70
Sample,108617,0,"r64.wav",70
Sample,108705,0,"atm01.wav",70
Sample,108705,0,"r65.wav",70
Sample,108705,0,"d06.wav",70
Sample,108705,0,"rez01.wav",70
Sample,108794,0,"r66.wav",70
Sample,108882,0,"d05.wav",70
Sample,108882,0,"r67.wav",70
Sample,108882,0,"d07.wav",70
Sample,108970,0,"r68.wav",70
Sample,109058,0,"r69.wav",70
Sample,109147,0,"r70.wav",70
Sample,109235,0,"d05.wav",70
Sample,109235,0,"r71.wav",70
Sample,109235,0,"d07.wav",70
Sample,109323,0,"r72.wav",70
Sample,109411,0,"r73.wav",70
Sample,109500,0,"r74.wav",70
Sample,109588,0,"r75.wav",70
Sample,109588,0,"d05.wav",70
Sample,109588,0,"d07.wav",70
Sample,109676,0,"r76.wav",70
Sample,109764,0,"r77.wav",70
Sample,109852,0,"r78.wav",70
Sample,109941,0,"d07.wav",70
Sample,109941,0,"r79.wav",70
Sample,109941,0,"d05.wav",70
Sample,110029,0,"r80.wav",70
Sample,110117,0,"d06.wav",70
Sample,110117,0,"r81.wav",70
Sample,110205,0,"r82.wav",70
Sample,110294,0,"d05.wav",70
Sample,110294,0,"d07.wav",70
Sample,110294,0,"r83.wav",70
Sample,110382,0,"r84.wav",70
Sample,110470,0,"r85.wav",70
Sample,110558,0,"r86.wav",70
Sample,110647,0,"r87.wav",70
Sample,110647,0,"d07.wav",70
Sample,110647,0,"d05.wav",70
Sample,110735,0,"r88.wav",70
Sample,110823,0,"r89.wav",70
Sample,110911,0,"r90.wav",70
Sample,111000,0,"d05.wav",70
Sample,111000,0,"d07.wav",70
Sample,111000,0,"r91.wav",70
Sample,111088,0,"r92.wav",70
Sample,111176,0,"r93.wav",70
Sample,111264,0,"r94.wav",70
Sample,111352,0,"r95.wav",70
Sample,111352,0,"d05.wav",70
Sample,111352,0,"d07.wav",70
Sample,111441,0,"r96.wav",70
Sample,111529,0,"atm02.wav",70
Sample,111529,0,"r97.wav",70
Sample,111529,0,"d06.wav",70
Sample,111617,0,"r98.wav",70
Sample,111705,0,"d05.wav",70
Sample,111705,0,"r99.wav",70
Sample,111705,0,"d07.wav",70
Sample,111794,0,"r100.wav",70
Sample,111882,0,"r101.wav",70
Sample,111970,0,"r102.wav",70
Sample,112058,0,"d07.wav",70
Sample,112058,0,"r103.wav",70
Sample,112058,0,"d05.wav",70
Sample,112147,0,"r104.wav",70
Sample,112235,0,"r105.wav",70
Sample,112323,0,"r106.wav",70
Sample,112411,0,"r107.wav",70
Sample,112411,0,"d05.wav",70
Sample,112411,0,"d07.wav",70
Sample,112500,0,"r108.wav",70
Sample,112588,0,"r109.wav",70
Sample,112676,0,"r110.wav",70
Sample,112764,0,"d07.wav",70
Sample,112764,0,"r111.wav",70
Sample,112764,0,"d05.wav",70
Sample,112852,0,"r112.wav",70
Sample,112941,0,"d06.wav",70
Sample,112941,0,"r113.wav",70
Sample,113029,0,"r114.wav",70
Sample,113117,0,"d05.wav",70
Sample,113117,0,"r115.wav",70
Sample,113117,0,"d07.wav",70
Sample,113205,0,"r116.wav",70
Sample,113294,0,"r117.wav",70
Sample,113382,0,"r118.wav",70
Sample,113470,0,"r119.wav",70
Sample,113470,0,"d07.wav",70
Sample,113470,0,"d05.wav",70
Sample,113558,0,"r120.wav",70
Sample,113647,0,"r121.wav",70
Sample,113735,0,"r122.wav",70
Sample,113823,0,"d05.wav",70
Sample,113823,0,"r123.wav",70
Sample,113823,0,"d07.wav",70
Sample,113911,0,"r124.wav",70
Sample,114000,0,"r125.wav",70
Sample,114088,0,"r126.wav",70
Sample,114176,0,"r127.wav",70
Sample,114176,0,"d07.wav",70
Sample,114176,0,"d05.wav",70
Sample,114264,0,"r128.wav",70
Sample,114352,0,"r01.wav",70
Sample,114352,0,"d06.wav",70
Sample,114352,0,"atm03.wav",70
Sample,114441,0,"r02.wav",70
Sample,114529,0,"r03.wav",70
Sample,114529,0,"d07.wav",70
Sample,114529,0,"d05.wav",70
Sample,114617,0,"r04.wav",70
Sample,114705,0,"r05.wav",70
Sample,114794,0,"r06.wav",70
Sample,114882,0,"r07.wav",70
Sample,114882,0,"d05.wav",70
Sample,114882,0,"d07.wav",70
Sample,114970,0,"r08.wav",70
Sample,115058,0,"r09.wav",70
Sample,115147,0,"r10.wav",70
Sample,115235,0,"d05.wav",70
Sample,115235,0,"d07.wav",70
Sample,115235,0,"r11.wav",70
Sample,115323,0,"r12.wav",70
Sample,115411,0,"r13.wav",70
Sample,115500,0,"r14.wav",70
Sample,115588,0,"r15.wav",70
Sample,115588,0,"d05.wav",70
Sample,115588,0,"d07.wav",70
Sample,115676,0,"r16.wav",70
Sample,115764,0,"d06.wav",70
Sample,115764,0,"r17.wav",70
Sample,115852,0,"r18.wav",70
Sample,115941,0,"d07.wav",70
Sample,115941,0,"d05.wav",70
Sample,115941,0,"r19.wav",70
Sample,116029,0,"r20.wav",70
Sample,116117,0,"r21.wav",70
Sample,116205,0,"r22.wav",70
Sample,116294,0,"d05.wav",70
Sample,116294,0,"r23.wav",70
Sample,116294,0,"d07.wav",70
Sample,116382,0,"r24.wav",70
Sample,116470,0,"r25.wav",70
Sample,116558,0,"r26.wav",70
Sample,116647,0,"d07.wav",70
Sample,116647,0,"d05.wav",70
Sample,116647,0,"r27.wav",70
Sample,116735,0,"r28.wav",70
Sample,116823,0,"r29.wav",70
Sample,116911,0,"r30.wav",70
Sample,117000,0,"d05.wav",70
Sample,117000,0,"r31.wav",70
Sample,117000,0,"d07.wav",70
Sample,117088,0,"r32.wav",70
Sample,117176,0,"atm04.wav",70
Sample,117176,0,"r33.wav",70
Sample,117176,0,"d06.wav",70
Sample,117176,0,"roll01_32.wav",70
Sample,117264,0,"r34.wav",70
Sample,117264,0,"roll01_31.wav",70
Sample,117352,0,"roll01_30.wav",70
Sample,117352,0,"d07.wav",70
Sample,117352,0,"d05.wav",70
Sample,117352,0,"r35.wav",70
Sample,117441,0,"roll01_29.wav",70
Sample,117441,0,"r36.wav",70
Sample,117529,0,"r37.wav",70
Sample,117529,0,"roll01_28.wav",70
Sample,117617,0,"r38.wav",70
Sample,117617,0,"roll01_27.wav",70
Sample,117705,0,"r39.wav",70
Sample,117705,0,"d07.wav",70
Sample,117705,0,"d05.wav",70
Sample,117705,0,"roll01_26.wav",70
Sample,117794,0,"roll01_25.wav",70
Sample,117794,0,"r40.wav",70
Sample,117882,0,"roll01_24.wav",70
Sample,117882,0,"r41.wav",70
Sample,117970,0,"r42.wav",70
Sample,117970,0,"roll01_23.wav",70
Sample,118058,0,"r43.wav",70
Sample,118058,0,"roll01_22.wav",70
Sample,118058,0,"d05.wav",70
Sample,118058,0,"d07.wav",70
Sample,118147,0,"roll01_21.wav",70
Sample,118147,0,"r44.wav",70
Sample,118235,0,"roll01_20.wav",70
Sample,118235,0,"r45.wav",70
Sample,118323,0,"r46.wav",70
Sample,118323,0,"roll01_19.wav",70
Sample,118411,0,"roll01_18.wav",70
Sample,118411,0,"d05.wav",70
Sample,118411,0,"d07.wav",70
Sample,118411,0,"r47.wav",70
Sample,118500,0,"roll01_18.wav",70
Sample,118500,0,"r48.wav",70
Sample,118588,0,"roll01_16.wav",70
Sample,118588,0,"r49.wav",70
Sample,118588,0,"d06.wav",70
Sample,118676,0,"roll01_15.wav",70
Sample,118676,0,"r50.wav",70
Sample,118764,0,"r51.wav",70
Sample,118764,0,"roll01_14.wav",70
Sample,118764,0,"d07.wav",70
Sample,118764,0,"d05.wav",70
Sample,118852,0,"r52.wav",70
Sample,118852,0,"roll01_13.wav",70
Sample,118941,0,"roll01_12.wav",70
Sample,118941,0,"r53.wav",70
Sample,119029,0,"roll01_11.wav",70
Sample,119029,0,"r54.wav",70
Sample,119117,0,"r55.wav",70
Sample,119117,0,"roll01_10.wav",70
Sample,119117,0,"d07.wav",70
Sample,119117,0,"d05.wav",70
Sample,119205,0,"r56.wav",70
Sample,119205,0,"roll01_09.wav",70
Sample,119294,0,"r57.wav",70
Sample,119294,0,"roll01_08.wav",70
Sample,119382,0,"roll01_07.wav",70
Sample,119382,0,"r58.wav",70
Sample,119470,0,"r59.wav",70
Sample,119470,0,"roll01_06.wav",70
Sample,119470,0,"d05.wav",70
Sample,119470,0,"d07.wav",70
Sample,119558,0,"r60.wav",70
Sample,119558,0,"roll01_05.wav",70
Sample,119647,0,"roll01_04.wav",70
Sample,119647,0,"r61.wav",70
Sample,119735,0,"roll01_03.wav",70
Sample,119735,0,"r62.wav",70
Sample,119823,0,"d05.wav",70
Sample,119823,0,"d07.wav",70
Sample,119823,0,"roll01_02.wav",70
Sample,119823,0,"r63.wav",70
Sample,119911,0,"r64.wav",70
Sample,119911,0,"roll01_01.wav",70
Sample,120000,0,"v01.wav",70
Sample,120000,0,"d06.wav",70
Sample,120000,0,"r65.wav",70
Sample,120000,0,"d02.wav",70
Sample,120000,0,"roll03.wav",70
Sample,120000,0,"b04.wav",70
Sample,120000,0,"sss01.wav",70
Sample,120000,0,"atm01.wav",70
Sample,120088,0,"r66.wav",70
Sample,120088,0,"sss02.wav",70
Sample,120176,0,"d01.wav",70
Sample,120176,0,"r67.wav",70
Sample,120176,0,"d07.wav",70
Sample,120176,0,"d05.wav",70
Sample,120176,0,"sss03.wav",70
Sample,120176,0,"b05.wav",70
Sample,120264,0,"sss04.wav",70
Sample,120264,0,"b06.wav",70
Sample,120264,0,"r68.wav",70
Sample,120352,0,"sss05.wav",70
Sample,120352,0,"r69.wav",70
Sample,120352,0,"b04.wav",70
Sample,120352,0,"d04.wav",70
Sample,120441,0,"r70.wav",70
Sample,120441,0,"sss06.wav",70
Sample,120529,0,"d05.wav",70
Sample,120529,0,"b05.wav",70
Sample,120529,0,"sss07.wav",70
Sample,120529,0,"r71.wav",70
Sample,120529,0,"d02.wav",70
Sample,120529,0,"d01.wav",70
Sample,120529,0,"d07.wav",70
Sample,120617,0,"sss08.wav",70
Sample,120617,0,"b06.wav",70
Sample,120617,0,"r72.wav",70
Sample,120705,0,"sss09.wav",70
Sample,120705,0,"r73.wav",70
Sample,120705,0,"b04.wav",70
Sample,120794,0,"r74.wav",70
Sample,120794,0,"sss10.wav",70
Sample,120882,0,"d01.wav",70
Sample,120882,0,"d05.wav",70
Sample,120882,0,"sss11.wav",70
Sample,120882,0,"d07.wav",70
Sample,120882,0,"r75.wav",70
Sample,120882,0,"b05.wav",70
Sample,120970,0,"r76.wav",70
Sample,120970,0,"sss12.wav",70
Sample,120970,0,"b06.wav",70
Sample,121058,0,"d02.wav",70
Sample,121058,0,"sss13.wav",70
Sample,121058,0,"d09.wav",70
Sample,121058,0,"r77.wav",70
Sample,121058,0,"b04.wav",70
Sample,121058,0,"d04.wav",70
Sample,121147,0,"sss14.wav",70
Sample,121147,0,"r78.wav",70
Sample,121235,0,"d05.wav",70
Sample,121235,0,"sss15.wav",70
Sample,121235,0,"r79.wav",70
Sample,121235,0,"d07.wav",70
Sample,121235,0,"d01.wav",70
Sample,121235,0,"b05.wav",70
Sample,121323,0,"r80.wav",70
Sample,121323,0,"sss16.wav",70
Sample,121323,0,"dd07.wav",70
Sample,121323,0,"b06.wav",70
Sample,121411,0,"d06.wav",70
Sample,121411,0,"d02.wav",70
Sample,121411,0,"r81.wav",70
Sample,121411,0,"sss17.wav",70
Sample,121411,0,"b04.wav",70
Sample,121500,0,"sss18.wav",70
Sample,121500,0,"r82.wav",70
Sample,121500,0,"d01.wav",70
Sample,121588,0,"d07.wav",70
Sample,121588,0,"d05.wav",70
Sample,121588,0,"r83.wav",70
Sample,121588,0,"sss19.wav",70
Sample,121588,0,"b05.wav",70
Sample,121676,0,"b06.wav",70
Sample,121676,0,"r84.wav",70
Sample,121676,0,"sss20.wav",70
Sample,121764,0,"r85.wav",70
Sample,121764,0,"d01.wav",70
Sample,121764,0,"b04.wav",70
Sample,121764,0,"sss21.wav",70
Sample,121764,0,"d04.wav",70
Sample,121852,0,"r86.wav",70
Sample,121852,0,"sss22.wav",70
Sample,121941,0,"r87.wav",70
Sample,121941,0,"sss23.wav",70
Sample,121941,0,"d05.wav",70
Sample,121941,0,"d02.wav",70
Sample,121941,0,"d07.wav",70
Sample,121941,0,"b05.wav",70
Sample,122029,0,"r88.wav",70
Sample,122029,0,"sss24.wav",70
Sample,122029,0,"b06.wav",70
Sample,122117,0,"b04.wav",70
Sample,122117,0,"sss25.wav",70
Sample,122117,0,"r89.wav",70
Sample,122205,0,"sss26.wav",70
Sample,122205,0,"r90.wav",70
Sample,122294,0,"sss27.wav",70
Sample,122294,0,"r91.wav",70
Sample,122294,0,"b05.wav",70
Sample,122294,0,"d01.wav",70
Sample,122294,0,"d05.wav",70
Sample,122294,0,"d07.wav",70
Sample,122382,0,"sss28.wav",70
Sample,122382,0,"r92.wav",70
Sample,122382,0,"d04.wav",70
Sample,122382,0,"b06.wav",70
Sample,122470,0,"r93.wav",70
Sample,122470,0,"b04.wav",70
Sample,122470,0,"sss29.wav",70
Sample,122470,0,"d04.wav",70
Sample,122470,0,"d02.wav",70
Sample,122558,0,"r94.wav",70
Sample,122558,0,"sss30.wav",70
Sample,122647,0,"sss31.wav",70
Sample,122647,0,"d07.wav",70
Sample,122647,0,"b05.wav",70
Sample,122647,0,"d05.wav",70
Sample,122647,0,"r95.wav",70
Sample,122647,0,"d01.wav",70
Sample,122735,0,"b06.wav",70
Sample,122735,0,"sss32.wav",70
Sample,122735,0,"r96.wav",70
Sample,122823,0,"r97.wav",70
Sample,122823,0,"v02.wav",70
Sample,122823,0,"sss33.wav",70
Sample,122823,0,"d06.wav",70
Sample,122823,0,"atm02.wav",70
Sample,122823,0,"d02.wav",70
Sample,122823,0,"b07.wav",70
Sample,122911,0,"sss34.wav",70
Sample,122911,0,"r98.wav",70
Sample,123000,0,"d05.wav",70
Sample,123000,0,"d01.wav",70
Sample,123000,0,"sss35.wav",70
Sample,123000,0,"r99.wav",70
Sample,123000,0,"d07.wav",70
Sample,123000,0,"b08.wav",70
Sample,123088,0,"r100.wav",70
Sample,123088,0,"b09.wav",70
Sample,123088,0,"sss36.wav",70
Sample,123176,0,"d04.wav",70
Sample,123176,0,"sss37.wav",70
Sample,123176,0,"r101.wav",70
Sample,123176,0,"b07.wav",70
Sample,123264,0,"r102.wav",70
Sample,123264,0,"sss38.wav",70
Sample,123352,0,"sss39.wav",70
Sample,123352,0,"d05.wav",70
Sample,123352,0,"r103.wav",70
Sample,123352,0,"d02.wav",70
Sample,123352,0,"d07.wav",70
Sample,123352,0,"b08.wav",70
Sample,123352,0,"d01.wav",70
Sample,123441,0,"r104.wav",70
Sample,123441,0,"sss40.wav",70
Sample,123441,0,"b09.wav",70
Sample,123529,0,"r105.wav",70
Sample,123529,0,"b07.wav",70
Sample,123529,0,"sss41.wav",70
Sample,123617,0,"r106.wav",70
Sample,123617,0,"sss42.wav",70
Sample,123705,0,"sss43.wav",70
Sample,123705,0,"d05.wav",70
Sample,123705,0,"d01.wav",70
Sample,123705,0,"d07.wav",70
Sample,123705,0,"r107.wav",70
Sample,123705,0,"b08.wav",70
Sample,123794,0,"sss44.wav",70
Sample,123794,0,"b09.wav",70
Sample,123794,0,"r108.wav",70
Sample,123882,0,"b07.wav",70
Sample,123882,0,"d04.wav",70
Sample,123882,0,"sss45.wav",70
Sample,123882,0,"d02.wav",70
Sample,123882,0,"r109.wav",70
Sample,123970,0,"sss46.wav",70
Sample,123970,0,"r110.wav",70
Sample,124058,0,"d05.wav",70
Sample,124058,0,"d01.wav",70
Sample,124058,0,"b08.wav",70
Sample,124058,0,"sss47.wav",70
Sample,124058,0,"d07.wav",70
Sample,124058,0,"r111.wav",70
Sample,124147,0,"b09.wav",70
Sample,124147,0,"sss48.wav",70
Sample,124147,0,"r112.wav",70
Sample,124235,0,"r113.wav",70
Sample,124235,0,"d02.wav",70
Sample,124235,0,"d06.wav",70
Sample,124235,0,"sss49.wav",70
Sample,124235,0,"b07.wav",70
Sample,124323,0,"r114.wav",70
Sample,124323,0,"sss50.wav",70
Sample,124411,0,"d05.wav",70
Sample,124411,0,"d07.wav",70
Sample,124411,0,"sss51.wav",70
Sample,124411,0,"r115.wav",70
Sample,124411,0,"d01.wav",70
Sample,124411,0,"b08.wav",70
Sample,124500,0,"r116.wav",70
Sample,124500,0,"sss52.wav",70
Sample,124500,0,"b09.wav",70
Sample,124588,0,"b07.wav",70
Sample,124588,0,"sss53.wav",70
Sample,124588,0,"r117.wav",70
Sample,124588,0,"d04.wav",70
Sample,124676,0,"sss54.wav",70
Sample,124676,0,"r118.wav",70
Sample,124764,0,"d07.wav",70
Sample,124764,0,"sss55.wav",70
Sample,124764,0,"d02.wav",70
Sample,124764,0,"d05.wav",70
Sample,124764,0,"d01.wav",70
Sample,124764,0,"b08.wav",70
Sample,124764,0,"r119.wav",70
Sample,124852,0,"b09.wav",70
Sample,124852,0,"r120.wav",70
Sample,124852,0,"sss56.wav",70
Sample,124941,0,"b07.wav",70
Sample,124941,0,"r121.wav",70
Sample,124941,0,"sss57.wav",70
Sample,124941,0,"v03.wav",70
Sample,125029,0,"sss58.wav",70
Sample,125029,0,"d04.wav",70
Sample,125029,0,"r122.wav",70
Sample,125117,0,"d05.wav",70
Sample,125117,0,"sss59.wav",70
Sample,125117,0,"d07.wav",70
Sample,125117,0,"r123.wav",70
Sample,125117,0,"d02.wav",70
Sample,125117,0,"b08.wav",70
Sample,125205,0,"b09.wav",70
Sample,125205,0,"sss60.wav",70
Sample,125205,0,"r124.wav",70
Sample,125294,0,"b07.wav",70
Sample,125294,0,"sss61.wav",70
Sample,125294,0,"d04.wav",70
Sample,125294,0,"r125.wav",70
Sample,125382,0,"sss62.wav",70
Sample,125382,0,"r126.wav",70
Sample,125470,0,"d05.wav",70
Sample,125470,0,"b08.wav",70
Sample,125470,0,"r127.wav",70
Sample,125470,0,"sss63.wav",70
Sample,125470,0,"d07.wav",70
Sample,125558,0,"r128.wav",70
Sample,125558,0,"sss64.wav",70
Sample,125558,0,"b09.wav",70
Sample,125647,0,"r01.wav",70
Sample,125647,0,"d02.wav",70
Sample,125647,0,"v04.wav",70
Sample,125647,0,"d09.wav",70
Sample,125647,0,"b10.wav",70
Sample,125647,0,"sss01.wav",70
Sample,125647,0,"atm03.wav",70
Sample,125647,0,"d06.wav",70
Sample,125735,0,"sss02.wav",70
Sample,125735,0,"r02.wav",70
Sample,125823,0,"d07.wav",70
Sample,125823,0,"d01.wav",70
Sample,125823,0,"b11.wav",70
Sample,125823,0,"sss03.wav",70
Sample,125823,0,"d05.wav",70
Sample,125823,0,"r03.wav",70
Sample,125911,0,"sss04.wav",70
Sample,125911,0,"r04.wav",70
Sample,125911,0,"b12.wav",70
Sample,126000,0,"b10.wav",70
Sample,126000,0,"r05.wav",70
Sample,126000,0,"sss05.wav",70
Sample,126000,0,"d04.wav",70
Sample,126088,0,"r06.wav",70
Sample,126088,0,"sss06.wav",70
Sample,126176,0,"sss07.wav",70
Sample,126176,0,"d05.wav",70
Sample,126176,0,"b11.wav",70
Sample,126176,0,"d07.wav",70
Sample,126176,0,"d02.wav",70
Sample,126176,0,"r07.wav",70
Sample,126264,0,"sss08.wav",70
Sample,126264,0,"r08.wav",70
Sample,126264,0,"b12.wav",70
Sample,126352,0,"b10.wav",70
Sample,126352,0,"sss09.wav",70
Sample,126352,0,"r09.wav",70
Sample,126441,0,"r10.wav",70
Sample,126441,0,"sss10.wav",70
Sample,126529,0,"d07.wav",70
Sample,126529,0,"sss11.wav",70
Sample,126529,0,"d01.wav",70
Sample,126529,0,"d05.wav",70
Sample,126529,0,"r11.wav",70
Sample,126529,0,"b11.wav",70
Sample,126617,0,"r12.wav",70
Sample,126617,0,"sss12.wav",70
Sample,126617,0,"b12.wav",70
Sample,126705,0,"r13.wav",70
Sample,126705,0,"b10.wav",70
Sample,126705,0,"d04.wav",70
Sample,126705,0,"d09.wav",70
Sample,126705,0,"d02.wav",70
Sample,126705,0,"sss13.wav",70
Sample,126794,0,"sss14.wav",70
Sample,126794,0,"r14.wav",70
Sample,126882,0,"r15.wav",70
Sample,126882,0,"sss15.wav",70
Sample,126882,0,"d01.wav",70
Sample,126882,0,"d07.wav",70
Sample,126882,0,"d05.wav",70
Sample,126882,0,"b11.wav",70
Sample,126970,0,"sss16.wav",70
Sample,126970,0,"b12.wav",70
Sample,126970,0,"dd07.wav",70
Sample,126970,0,"r16.wav",70
Sample,127058,0,"d06.wav",70
Sample,127058,0,"d02.wav",70
Sample,127058,0,"r17.wav",70
Sample,127058,0,"sss17.wav",70
Sample,127058,0,"b10.wav",70
Sample,127147,0,"d01.wav",70
Sample,127147,0,"sss18.wav",70
Sample,127147,0,"r18.wav",70
Sample,127235,0,"r19.wav",70
Sample,127235,0,"d07.wav",70
Sample,127235,0,"d05.wav",70
Sample,127235,0,"sss19.wav",70
Sample,127235,0,"b11.wav",70
Sample,127323,0,"r20.wav",70
Sample,127323,0,"sss20.wav",70
Sample,127323,0,"b12.wav",70
Sample,127411,0,"d01.wav",70
Sample,127411,0,"r21.wav",70
Sample,127411,0,"b10.wav",70
Sample,127411,0,"d04.wav",70
Sample,127411,0,"sss21.wav",70
Sample,127500,0,"r22.wav",70
Sample,127500,0,"sss22.wav",70
Sample,127588,0,"d07.wav",70
Sample,127588,0,"r23.wav",70
Sample,127588,0,"b11.wav",70
Sample,127588,0,"sss23.wav",70
Sample,127588,0,"d05.wav",70
Sample,127588,0,"d02.wav",70
Sample,127676,0,"sss24.wav",70
Sample,127676,0,"r24.wav",70
Sample,127676,0,"b12.wav",70
Sample,127764,0,"sss25.wav",70
Sample,127764,0,"b10.wav",70
Sample,127764,0,"r25.wav",70
Sample,127852,0,"sss26.wav",70
Sample,127852,0,"r26.wav",70
Sample,127941,0,"d07.wav",70
Sample,127941,0,"sss27.wav",70
Sample,127941,0,"d05.wav",70
Sample,127941,0,"d01.wav",70
Sample,127941,0,"r27.wav",70
Sample,127941,0,"b11.wav",70
Sample,128029,0,"d09.wav",70
Sample,128029,0,"d04.wav",70
Sample,128029,0,"r28.wav",70
Sample,128029,0,"sss28.wav",70
Sample,128029,0,"b12.wav",70
Sample,128117,0,"sss29.wav",70
Sample,128117,0,"d04.wav",70
Sample,128117,0,"d02.wav",70
Sample,128117,0,"r29.wav",70
Sample,128117,0,"b10.wav",70
Sample,128205,0,"r30.wav",70
Sample,128205,0,"sss30.wav",70
Sample,128294,0,"d01.wav",70
Sample,128294,0,"r31.wav",70
Sample,128294,0,"b11.wav",70
Sample,128294,0,"d05.wav",70
Sample,128294,0,"sss31.wav",70
Sample,128294,0,"d07.wav",70
Sample,128382,0,"b12.wav",70
Sample,128382,0,"sss32.wav",70
Sample,128382,0,"r32.wav",70
Sample,128470,0,"r33.wav",70
Sample,128470,0,"v16.wav",70
Sample,128470,0,"sss33.wav",70
Sample,128470,0,"d06.wav",70
Sample,128470,0,"atm04.wav",70
Sample,128470,0,"d02.wav",70
Sample,128470,0,"b13.wav",70
Sample,128558,0,"sss34.wav",70
Sample,128558,0,"r34.wav",70
Sample,128647,0,"r35.wav",70
Sample,128647,0,"d01.wav",70
Sample,128647,0,"sss35.wav",70
Sample,128647,0,"d07.wav",70
Sample,128647,0,"d05.wav",70
Sample,128647,0,"b14.wav",70
Sample,128735,0,"sss36.wav",70
Sample,128735,0,"d01.wav",70
Sample,128735,0,"b09.wav",70
Sample,128735,0,"r36.wav",70
Sample,128823,0,"b13.wav",70
Sample,128823,0,"sss37.wav",70
Sample,128823,0,"r37.wav",70
Sample,128823,0,"d04.wav",70
Sample,128911,0,"sss38.wav",70
Sample,128911,0,"r38.wav",70
Sample,129000,0,"d02.wav",70
Sample,129000,0,"sss39.wav",70
Sample,129000,0,"d05.wav",70
Sample,129000,0,"d07.wav",70
Sample,129000,0,"b14.wav",70
Sample,129000,0,"d01.wav",70
Sample,129000,0,"r39.wav",70
Sample,129088,0,"sss40.wav",70
Sample,129088,0,"b09.wav",70
Sample,129088,0,"r40.wav",70
Sample,129176,0,"r41.wav",70
Sample,129176,0,"sss41.wav",70
Sample,129176,0,"b13.wav",70
Sample,129264,0,"r42.wav",70
Sample,129264,0,"sss42.wav",70
Sample,129352,0,"sss43.wav",70
Sample,129352,0,"d01.wav",70
Sample,129352,0,"b14.wav",70
Sample,129352,0,"d07.wav",70
Sample,129352,0,"r43.wav",70
Sample,129352,0,"d05.wav",70
Sample,129441,0,"r44.wav",70
Sample,129441,0,"sss44.wav",70
Sample,129441,0,"b09.wav",70
Sample,129441,0,"d09.wav",70
Sample,129529,0,"b13.wav",70
Sample,129529,0,"d02.wav",70
Sample,129529,0,"sss45.wav",70
Sample,129529,0,"r45.wav",70
Sample,129529,0,"d04.wav",70
Sample,129617,0,"sss46.wav",70
Sample,129617,0,"r46.wav",70
Sample,129705,0,"d07.wav",70
Sample,129705,0,"d01.wav",70
Sample,129705,0,"b14.wav",70
Sample,129705,0,"d05.wav",70
Sample,129705,0,"r47.wav",70
Sample,129705,0,"sss47.wav",70
Sample,129794,0,"b09.wav",70
Sample,129794,0,"sss48.wav",70
Sample,129794,0,"r48.wav",70
Sample,129882,0,"d02.wav",70
Sample,129882,0,"sss49.wav",70
Sample,129882,0,"d06.wav",70
Sample,129882,0,"r49.wav",70
Sample,129882,0,"v17.wav",70
Sample,129882,0,"b13.wav",70
Sample,129970,0,"r50.wav",70
Sample,129970,0,"sss50.wav",70
Sample,130058,0,"d01.wav",70
Sample,130058,0,"r51.wav",70
Sample,130058,0,"sss51.wav",70
Sample,130058,0,"d05.wav",70
Sample,130058,0,"d07.wav",70
Sample,130058,0,"b14.wav",70
Sample,130147,0,"sss52.wav",70
Sample,130147,0,"b09.wav",70
Sample,130147,0,"r52.wav",70
Sample,130235,0,"d04.wav",70
Sample,130235,0,"b13.wav",70
Sample,130235,0,"r53.wav",70
Sample,130235,0,"sss53.wav",70
Sample,130323,0,"sss54.wav",70
Sample,130323,0,"r54.wav",70
Sample,130411,0,"d02.wav",70
Sample,130411,0,"b14.wav",70
Sample,130411,0,"sss55.wav",70
Sample,130411,0,"d07.wav",70
Sample,130411,0,"d05.wav",70
Sample,130411,0,"r55.wav",70
Sample,130411,0,"d01.wav",70
Sample,130500,0,"sss56.wav",70
Sample,130500,0,"r56.wav",70
Sample,130500,0,"b09.wav",70
Sample,130588,0,"r57.wav",70
Sample,130588,0,"sss57.wav",70
Sample,130588,0,"b13.wav",70
Sample,130676,0,"d04.wav",70
Sample,130676,0,"sss58.wav",70
Sample,130676,0,"r58.wav",70
Sample,130764,0,"d02.wav",70
Sample,130764,0,"sss59.wav",70
Sample,130764,0,"b14.wav",70
Sample,130764,0,"r59.wav",70
Sample,130764,0,"d05.wav",70
Sample,130764,0,"d07.wav",70
Sample,130852,0,"r60.wav",70
Sample,130852,0,"sss60.wav",70
Sample,130852,0,"b09.wav",70
Sample,130941,0,"sss61.wav",70
Sample,130941,0,"d04.wav",70
Sample,130941,0,"r61.wav",70
Sample,130941,0,"b13.wav",70
Sample,131029,0,"r62.wav",70
Sample,131029,0,"sss62.wav",70
Sample,131117,0,"d07.wav",70
Sample,131117,0,"d05.wav",70
Sample,131117,0,"b14.wav",70
Sample,131117,0,"sss63.wav",70
Sample,131117,0,"d01.wav",70
Sample,131117,0,"r63.wav",70
Sample,131205,0,"sss64.wav",70
Sample,131205,0,"r64.wav",70
Sample,131205,0,"b09.wav",70
Sample,131294,0,"d03.wav",70
Sample,131294,0,"b04.wav",70
Sample,131294,0,"s01.wav",70
Sample,131294,0,"d09.wav",70
Sample,131294,0,"d06.wav",70
Sample,131294,0,"v07.wav",70
Sample,131294,0,"r65.wav",70
Sample,131294,0,"atm01.wav",70
Sample,131294,0,"d02.wav",70
Sample,131382,0,"d09.wav",70
Sample,131382,0,"r66.wav",70
Sample,131470,0,"d07.wav",70
Sample,131470,0,"d01.wav",70
Sample,131470,0,"r67.wav",70
Sample,131470,0,"s02.wav",70
Sample,131470,0,"b05.wav",70
Sample,131558,0,"r68.wav",70
Sample,131558,0,"b06.wav",70
Sample,131647,0,"d03.wav",70
Sample,131647,0,"d09.wav",70
Sample,131647,0,"b04.wav",70
Sample,131647,0,"r69.wav",70
Sample,131647,0,"s03.wav",70
Sample,131735,0,"r70.wav",70
Sample,131823,0,"s04.wav",70
Sample,131823,0,"r71.wav",70
Sample,131823,0,"b05.wav",70
Sample,131823,0,"d07.wav",70
Sample,131823,0,"d01.wav",70
Sample,131823,0,"d02.wav",70
Sample,131911,0,"b06.wav",70
Sample,131911,0,"r72.wav",70
Sample,132000,0,"r73.wav",70
Sample,132000,0,"d03.wav",70
Sample,132000,0,"d09.wav",70
Sample,132000,0,"b04.wav",70
Sample,132088,0,"r74.wav",70
Sample,132176,0,"d01.wav",70
Sample,132176,0,"s05.wav",70
Sample,132176,0,"r75.wav",70
Sample,132176,0,"d07.wav",70
Sample,132176,0,"b05.wav",70
Sample,132264,0,"r76.wav",70
Sample,132264,0,"d09.wav",70
Sample,132264,0,"b06.wav",70
Sample,132352,0,"r77.wav",70
Sample,132352,0,"d03.wav",70
Sample,132352,0,"d09.wav",70
Sample,132352,0,"s06.wav",70
Sample,132352,0,"b04.wav",70
Sample,132352,0,"d02.wav",70
Sample,132441,0,"r78.wav",70
Sample,132529,0,"d01.wav",70
Sample,132529,0,"b05.wav",70
Sample,132529,0,"s05.wav",70
Sample,132529,0,"r79.wav",70
Sample,132529,0,"d07.wav",70
Sample,132617,0,"r80.wav",70
Sample,132617,0,"b06.wav",70
Sample,132705,0,"d06.wav",70
Sample,132705,0,"d09.wav",70
Sample,132705,0,"d02.wav",70
Sample,132705,0,"d03.wav",70
Sample,132705,0,"s08.wav",70
Sample,132705,0,"b04.wav",70
Sample,132705,0,"r81.wav",70
Sample,132794,0,"d01.wav",70
Sample,132794,0,"r82.wav",70
Sample,132882,0,"s09.wav",70
Sample,132882,0,"b05.wav",70
Sample,132882,0,"d09.wav",70
Sample,132882,0,"d07.wav",70
Sample,132882,0,"r83.wav",70
Sample,132970,0,"r84.wav",70
Sample,132970,0,"b06.wav",70
Sample,133058,0,"d03.wav",70
Sample,133058,0,"d01.wav",70
Sample,133058,0,"b04.wav",70
Sample,133058,0,"s10.wav",70
Sample,133058,0,"r85.wav",70
Sample,133147,0,"r86.wav",70
Sample,133235,0,"d07.wav",70
Sample,133235,0,"d09.wav",70
Sample,133235,0,"b05.wav",70
Sample,133235,0,"r87.wav",70
Sample,133235,0,"d02.wav",70
Sample,133235,0,"s11.wav",70
Sample,133323,0,"r88.wav",70
Sample,133323,0,"b06.wav",70
Sample,133411,0,"r89.wav",70
Sample,133411,0,"d03.wav",70
Sample,133411,0,"b04.wav",70
Sample,133411,0,"d09.wav",70
Sample,133500,0,"r90.wav",70
Sample,133588,0,"d07.wav",70
Sample,133588,0,"b05.wav",70
Sample,133588,0,"s12.wav",70
Sample,133588,0,"d01.wav",70
Sample,133588,0,"r91.wav",70
Sample,133676,0,"d09.wav",70
Sample,133676,0,"b06.wav",70
Sample,133676,0,"r92.wav",70
Sample,133764,0,"d02.wav",70
Sample,133764,0,"v08.wav",70
Sample,133764,0,"d03.wav",70
Sample,133764,0,"b04.wav",70
Sample,133764,0,"r93.wav",70
Sample,133764,0,"s13.wav",70
Sample,133852,0,"r94.wav",70
Sample,133941,0,"s09.wav",70
Sample,133941,0,"d07.wav",70
Sample,133941,0,"d01.wav",70
Sample,133941,0,"r95.wav",70
Sample,133941,0,"b05.wav",70
Sample,134029,0,"r96.wav",70
Sample,134029,0,"b06.wav",70
Sample,134117,0,"d09.wav",70
Sample,134117,0,"v09.wav",70
Sample,134117,0,"d02.wav",70
Sample,134117,0,"s15.wav",70
Sample,134117,0,"r97.wav",70
Sample,134117,0,"b07.wav",70
Sample,134117,0,"d06.wav",70
Sample,134117,0,"atm02.wav",70
Sample,134117,0,"d03.wav",70
Sample,134205,0,"r98.wav",70
Sample,134205,0,"d09.wav",70
Sample,134294,0,"s16.wav",70
Sample,134294,0,"b08.wav",70
Sample,134294,0,"d07.wav",70
Sample,134294,0,"r99.wav",70
Sample,134294,0,"d01.wav",70
Sample,134382,0,"d01.wav",70
Sample,134382,0,"b09.wav",70
Sample,134382,0,"r100.wav",70
Sample,134470,0,"r101.wav",70
Sample,134470,0,"d03.wav",70
Sample,134470,0,"b07.wav",70
Sample,134470,0,"s20.wav",70
Sample,134470,0,"d09.wav",70
Sample,134558,0,"r102.wav",70
Sample,134647,0,"d02.wav",70
Sample,134647,0,"r103.wav",70
Sample,134647,0,"b08.wav",70
Sample,134647,0,"s18.wav",70
Sample,134647,0,"d07.wav",70
Sample,134647,0,"d01.wav",70
Sample,134735,0,"b09.wav",70
Sample,134735,0,"r104.wav",70
Sample,134823,0,"d09.wav",70
Sample,134823,0,"r105.wav",70
Sample,134823,0,"b07.wav",70
Sample,134823,0,"d03.wav",70
Sample,134911,0,"r106.wav",70
Sample,135000,0,"d01.wav",70
Sample,135000,0,"b08.wav",70
Sample,135000,0,"d07.wav",70
Sample,135000,0,"r107.wav",70
Sample,135000,0,"s19.wav",70
Sample,135088,0,"d09.wav",70
Sample,135088,0,"b09.wav",70
Sample,135088,0,"r108.wav",70
Sample,135176,0,"b07.wav",70
Sample,135176,0,"d02.wav",70
Sample,135176,0,"d09.wav",70
Sample,135176,0,"s20.wav",70
Sample,135176,0,"d03.wav",70
Sample,135176,0,"r109.wav",70
Sample,135264,0,"r110.wav",70
Sample,135352,0,"r111.wav",70
Sample,135352,0,"d07.wav",70
Sample,135352,0,"d01.wav",70
Sample,135352,0,"s21.wav",70
Sample,135352,0,"b08.wav",70
Sample,135441,0,"r112.wav",70
Sample,135441,0,"b09.wav",70
Sample,135529,0,"s22.wav",70
Sample,135529,0,"d03.wav",70
Sample,135529,0,"d02.wav",70
Sample,135529,0,"r113.wav",70
Sample,135529,0,"b07.wav",70
Sample,135529,0,"d06.wav",70
Sample,135529,0,"d09.wav",70
Sample,135529,0,"v10.wav",70
Sample,135617,0,"r114.wav",70
Sample,135705,0,"r115.wav",70
Sample,135705,0,"b08.wav",70
Sample,135705,0,"s23.wav",70
Sample,135705,0,"d01.wav",70
Sample,135705,0,"d07.wav",70
Sample,135794,0,"d09.wav",70
Sample,135794,0,"b09.wav",70
Sample,135794,0,"r116.wav",70
Sample,135882,0,"r117.wav",70
Sample,135882,0,"s24.wav",70
Sample,135882,0,"d09.wav",70
Sample,135882,0,"b07.wav",70
Sample,135882,0,"d03.wav",70
Sample,135970,0,"r118.wav",70
Sample,136058,0,"r119.wav",70
Sample,136058,0,"d07.wav",70
Sample,136058,0,"b08.wav",70
Sample,136058,0,"d01.wav",70
Sample,136058,0,"s25.wav",70
Sample,136058,0,"d02.wav",70
Sample,136147,0,"b09.wav",70
Sample,136147,0,"r120.wav",70
Sample,136235,0,"d03.wav",70
Sample,136235,0,"r121.wav",70
Sample,136235,0,"b07.wav",70
Sample,136235,0,"d09.wav",70
Sample,136323,0,"d01.wav",70
Sample,136323,0,"r122.wav",70
Sample,136411,0,"d09.wav",70
Sample,136411,0,"s26.wav",70
Sample,136411,0,"r123.wav",70
Sample,136411,0,"d02.wav",70
Sample,136411,0,"d07.wav",70
Sample,136411,0,"b08.wav",70
Sample,136500,0,"r124.wav",70
Sample,136500,0,"b09.wav",70
Sample,136588,0,"d03.wav",70
Sample,136588,0,"s27.wav",70
Sample,136588,0,"b07.wav",70
Sample,136588,0,"d09.wav",70
Sample,136588,0,"r125.wav",70
Sample,136676,0,"r126.wav",70
Sample,136764,0,"d01.wav",70
Sample,136764,0,"s28.wav",70
Sample,136764,0,"d07.wav",70
Sample,136764,0,"r127.wav",70
Sample,136764,0,"b08.wav",70
Sample,136852,0,"r128.wav",70
Sample,136852,0,"b09.wav",70
Sample,136941,0,"d03.wav",70
Sample,136941,0,"b10.wav",70
Sample,136941,0,"s29.wav",70
Sample,136941,0,"d09.wav",70
Sample,136941,0,"d06.wav",70
Sample,136941,0,"v11.wav",70
Sample,136941,0,"r01.wav",70
Sample,136941,0,"atm03.wav",70
Sample,136941,0,"d02.wav",70
Sample,137029,0,"d09.wav",70
Sample,137029,0,"r02.wav",70
Sample,137117,0,"d07.wav",70
Sample,137117,0,"d01.wav",70
Sample,137117,0,"r03.wav",70
Sample,137117,0,"s30.wav",70
Sample,137117,0,"b11.wav",70
Sample,137205,0,"b12.wav",70
Sample,137205,0,"r04.wav",70
Sample,137294,0,"b10.wav",70
Sample,137294,0,"d09.wav",70
Sample,137294,0,"r05.wav",70
Sample,137294,0,"s31.wav",70
Sample,137294,0,"d03.wav",70
Sample,137382,0,"r06.wav",70
Sample,137470,0,"s32.wav",70
Sample,137470,0,"d07.wav",70
Sample,137470,0,"b11.wav",70
Sample,137470,0,"d01.wav",70
Sample,137470,0,"d02.wav",70
Sample,137470,0,"r07.wav",70
Sample,137558,0,"r08.wav",70
Sample,137558,0,"b12.wav",70
Sample,137647,0,"b10.wav",70
Sample,137647,0,"r09.wav",70
Sample,137647,0,"d03.wav",70
Sample,137647,0,"d09.wav",70
Sample,137735,0,"r10.wav",70
Sample,137823,0,"d07.wav",70
Sample,137823,0,"d01.wav",70
Sample,137823,0,"s33.wav",70
Sample,137823,0,"r11.wav",70
Sample,137823,0,"b11.wav",70
Sample,137911,0,"d09.wav",70
Sample,137911,0,"b12.wav",70
Sample,137911,0,"r12.wav",70
Sample,138000,0,"d09.wav",70
Sample,138000,0,"d02.wav",70
Sample,138000,0,"d03.wav",70
Sample,138000,0,"r13.wav",70
Sample,138000,0,"b10.wav",70
Sample,138000,0,"s34.wav",70
Sample,138088,0,"r14.wav",70
Sample,138176,0,"d01.wav",70
Sample,138176,0,"b11.wav",70
Sample,138176,0,"s35.wav",70
Sample,138176,0,"r15.wav",70
Sample,138176,0,"d07.wav",70
Sample,138264,0,"r16.wav",70
Sample,138264,0,"b12.wav",70
Sample,138352,0,"d03.wav",70
Sample,138352,0,"d06.wav",70
Sample,138352,0,"r17.wav",70
Sample,138352,0,"s36.wav",70
Sample,138352,0,"d02.wav",70
Sample,138352,0,"d09.wav",70
Sample,138352,0,"b10.wav",70
Sample,138441,0,"d01.wav",70
Sample,138441,0,"r18.wav",70
Sample,138529,0,"r19.wav",70
Sample,138529,0,"d07.wav",70
Sample,138529,0,"s37.wav",70
Sample,138529,0,"d09.wav",70
Sample,138529,0,"b11.wav",70
Sample,138617,0,"r20.wav",70
Sample,138617,0,"b12.wav",70
Sample,138705,0,"b10.wav",70
Sample,138705,0,"d03.wav",70
Sample,138705,0,"d01.wav",70
Sample,138705,0,"s38.wav",70
Sample,138705,0,"r21.wav",70
Sample,138794,0,"r22.wav",70
Sample,138882,0,"r23.wav",70
Sample,138882,0,"s39.wav",70
Sample,138882,0,"d07.wav",70
Sample,138882,0,"d09.wav",70
Sample,138882,0,"d02.wav",70
Sample,138882,0,"b11.wav",70
Sample,138970,0,"b12.wav",70
Sample,138970,0,"r24.wav",70
Sample,139058,0,"d03.wav",70
Sample,139058,0,"r25.wav",70
Sample,139058,0,"b10.wav",70
Sample,139058,0,"d09.wav",70
Sample,139147,0,"r26.wav",70
Sample,139235,0,"r27.wav",70
Sample,139235,0,"s40.wav",70
Sample,139235,0,"d01.wav",70
Sample,139235,0,"d07.wav",70
Sample,139235,0,"b11.wav",70
Sample,139323,0,"d09.wav",70
Sample,139323,0,"r28.wav",70
Sample,139323,0,"b12.wav",70
Sample,139411,0,"d02.wav",70
Sample,139411,0,"b10.wav",70
Sample,139411,0,"d03.wav",70
Sample,139411,0,"r29.wav",70
Sample,139411,0,"s41.wav",70
Sample,139500,0,"r30.wav",70
Sample,139588,0,"d07.wav",70
Sample,139588,0,"b11.wav",70
Sample,139588,0,"r31.wav",70
Sample,139588,0,"d01.wav",70
Sample,139588,0,"s42.wav",70
Sample,139676,0,"r32.wav",70
Sample,139676,0,"b12.wav",70
Sample,139764,0,"atm04.wav",70
Sample,139764,0,"s43.wav",70
Sample,139764,0,"d06.wav",70
Sample,139764,0,"d03.wav",70
Sample,139764,0,"b13.wav",70
Sample,139764,0,"r33.wav",70
Sample,139764,0,"d09.wav",70
Sample,139764,0,"d02.wav",70
Sample,139852,0,"d09.wav",70
Sample,139852,0,"r34.wav",70
Sample,139941,0,"s44.wav",70
Sample,139941,0,"d07.wav",70
Sample,139941,0,"r35.wav",70
Sample,139941,0,"d01.wav",70
Sample,139941,0,"b14.wav",70
Sample,140029,0,"r36.wav",70
Sample,140029,0,"b09.wav",70
Sample,140029,0,"d01.wav",70
Sample,140117,0,"b13.wav",70
Sample,140117,0,"d09.wav",70
Sample,140117,0,"r37.wav",70
Sample,140117,0,"d03.wav",70
Sample,140117,0,"s45.wav",70
Sample,140205,0,"r38.wav",70
Sample,140294,0,"d07.wav",70
Sample,140294,0,"s46.wav",70
Sample,140294,0,"r39.wav",70
Sample,140294,0,"d01.wav",70
Sample,140294,0,"d02.wav",70
Sample,140294,0,"b14.wav",70
Sample,140382,0,"b09.wav",70
Sample,140382,0,"r40.wav",70
Sample,140470,0,"v12.wav",70
Sample,140470,0,"r41.wav",70
Sample,140470,0,"b13.wav",70
Sample,140470,0,"d09.wav",70
Sample,140470,0,"d03.wav",70
Sample,140558,0,"r42.wav",70
Sample,140647,0,"d01.wav",70
Sample,140647,0,"r43.wav",70
Sample,140647,0,"d07.wav",70
Sample,140647,0,"s47.wav",70
Sample,140647,0,"b14.wav",70
Sample,140735,0,"d09.wav",70
Sample,140735,0,"r44.wav",70
Sample,140735,0,"b09.wav",70
Sample,140823,0,"s48.wav",70
Sample,140823,0,"d09.wav",70
Sample,140823,0,"d02.wav",70
Sample,140823,0,"r45.wav",70
Sample,140823,0,"b13.wav",70
Sample,140823,0,"d03.wav",70
Sample,140911,0,"r46.wav",70
Sample,141000,0,"d01.wav",70
Sample,141000,0,"b14.wav",70
Sample,141000,0,"d07.wav",70
Sample,141000,0,"r47.wav",70
Sample,141000,0,"s49.wav",70
Sample,141088,0,"r48.wav",70
Sample,141088,0,"b09.wav",70
Sample,141176,0,"s50.wav",70
Sample,141176,0,"d02.wav",70
Sample,141176,0,"d03.wav",70
Sample,141176,0,"d06.wav",70
Sample,141176,0,"d09.wav",70
Sample,141176,0,"b13.wav",70
Sample,141176,0,"v13.wav",70
Sample,141176,0,"r49.wav",70
Sample,141264,0,"r50.wav",70
Sample,141352,0,"d01.wav",70
Sample,141352,0,"b14.wav",70
Sample,141352,0,"r51.wav",70
Sample,141352,0,"d07.wav",70
Sample,141352,0,"s51.wav",70
Sample,141441,0,"r52.wav",70
Sample,141441,0,"b09.wav",70
Sample,141441,0,"d09.wav",70
Sample,141529,0,"d03.wav",70
Sample,141529,0,"d09.wav",70
Sample,141529,0,"b13.wav",70
Sample,141529,0,"s52.wav",70
Sample,141529,0,"r53.wav",70
Sample,141617,0,"r54.wav",70
Sample,141705,0,"s53.wav",70
Sample,141705,0,"d02.wav",70
Sample,141705,0,"r55.wav",70
Sample,141705,0,"d01.wav",70
Sample,141705,0,"d07.wav",70
Sample,141705,0,"b14.wav",70
Sample,141794,0,"b09.wav",70
Sample,141794,0,"r56.wav",70
Sample,141882,0,"b13.wav",70
Sample,141882,0,"r57.wav",70
Sample,141882,0,"d09.wav",70
Sample,141882,0,"v14.wav",70
Sample,141882,0,"dd56.wav",70
Sample,141882,0,"d03.wav",70
Sample,141970,0,"d01.wav",70
Sample,141970,0,"dd57.wav",70
Sample,141970,0,"r58.wav",70
Sample,142058,0,"d02.wav",70
Sample,142058,0,"d09.wav",70
Sample,142058,0,"r59.wav",70
Sample,142058,0,"s54.wav",70
Sample,142058,0,"d07.wav",70
Sample,142058,0,"b14.wav",70
Sample,142147,0,"r60.wav",70
Sample,142147,0,"b09.wav",70
Sample,142235,0,"b13.wav",70
Sample,142235,0,"s55.wav",70
Sample,142235,0,"r61.wav",70
Sample,142235,0,"d09.wav",70
Sample,142235,0,"d03.wav",70
Sample,142323,0,"r62.wav",70
Sample,142411,0,"d07.wav",70
Sample,142411,0,"r63.wav",70
Sample,142411,0,"d01.wav",70
Sample,142411,0,"s56.wav",70
Sample,142411,0,"b14.wav",70
Sample,142500,0,"r64.wav",70
Sample,142500,0,"b09.wav",70
Sample,142588,0,"d02.wav",70
Sample,142588,0,"b04.wav",70
Sample,142588,0,"atm01.wav",70
Sample,142588,0,"d06.wav",70
Sample,142588,0,"dd02.wav",70
Sample,142588,0,"v15.wav",70
Sample,142588,0,"d09.wav",70
Sample,142588,0,"s01.wav",70
Sample,142588,0,"d03.wav",70
Sample,142676,0,"d09.wav",70
Sample,142676,0,"r66.wav",70
Sample,142764,0,"d01.wav",70
Sample,142764,0,"s02.wav",70
Sample,142764,0,"d05.wav",70
Sample,142764,0,"sss65.wav",70
Sample,142764,0,"dd03.wav",70
Sample,142764,0,"d07.wav",70
Sample,142764,0,"b05.wav",70
Sample,142852,0,"b06.wav",70
Sample,142941,0,"d04.wav",70
Sample,142941,0,"b04.wav",70
Sample,142941,0,"dd04.wav",70
Sample,142941,0,"s03.wav",70
Sample,142941,0,"d03.wav",70
Sample,142941,0,"d09.wav",70
Sample,143029,0,"r70.wav",70
Sample,143117,0,"d01.wav",70
Sample,143117,0,"s04.wav",70
Sample,143117,0,"d07.wav",70
Sample,143117,0,"d02.wav",70
Sample,143117,0,"b05.wav",70
Sample,143117,0,"sss69.wav",70
Sample,143117,0,"dd07.wav",70
Sample,143117,0,"d05.wav",70
Sample,143205,0,"b06.wav",70
Sample,143205,0,"dd06.wav",70
Sample,143294,0,"dd07.wav",70
Sample,143294,0,"d03.wav",70
Sample,143294,0,"b04.wav",70
Sample,143294,0,"d09.wav",70
Sample,143382,0,"r74.wav",70
Sample,143382,0,"dd06.wav",70
Sample,143470,0,"dd09.wav",70
Sample,143470,0,"b05.wav",70
Sample,143470,0,"d07.wav",70
Sample,143470,0,"s05.wav",70
Sample,143470,0,"d01.wav",70
Sample,143470,0,"d05.wav",70
Sample,143470,0,"sss73.wav",70
Sample,143558,0,"d09.wav",70
Sample,143558,0,"dd10.wav",70
Sample,143558,0,"b06.wav",70
Sample,143647,0,"dd11.wav",70
Sample,143647,0,"b04.wav",70
Sample,143647,0,"d09.wav",70
Sample,143647,0,"d02.wav",70
Sample,143647,0,"d03.wav",70
Sample,143647,0,"d04.wav",70
Sample,143647,0,"s06.wav",70
Sample,143735,0,"r78.wav",70
Sample,143823,0,"dd12.wav",70
Sample,143823,0,"d01.wav",70
Sample,143823,0,"d07.wav",70
Sample,143823,0,"s05.wav",70
Sample,143823,0,"b05.wav",70
Sample,143823,0,"sss77.wav",70
Sample,143823,0,"d05.wav",70
Sample,143911,0,"dd07.wav",70
Sample,143911,0,"b06.wav",70
Sample,144000,0,"d09.wav",70
Sample,144000,0,"s08.wav",70
Sample,144000,0,"r81.wav",70
Sample,144000,0,"d06.wav",70
Sample,144000,0,"dd02.wav",70
Sample,144000,0,"b04.wav",70
Sample,144000,0,"d03.wav",70
Sample,144000,0,"d02.wav",70
Sample,144088,0,"d01.wav",70
Sample,144088,0,"r82.wav",70
Sample,144176,0,"s09.wav",70
Sample,144176,0,"d07.wav",70
Sample,144176,0,"sss81.wav",70
Sample,144176,0,"d05.wav",70
Sample,144176,0,"d09.wav",70
Sample,144176,0,"b05.wav",70
Sample,144176,0,"dd03.wav",70
Sample,144264,0,"b06.wav",70
Sample,144352,0,"d01.wav",70
Sample,144352,0,"s10.wav",70
Sample,144352,0,"dd04.wav",70
Sample,144352,0,"d03.wav",70
Sample,144352,0,"b04.wav",70
Sample,144352,0,"d04.wav",70
Sample,144441,0,"r86.wav",70
Sample,144529,0,"dd07.wav",70
Sample,144529,0,"d07.wav",70
Sample,144529,0,"d09.wav",70
Sample,144529,0,"s11.wav",70
Sample,144529,0,"sss85.wav",70
Sample,144529,0,"d02.wav",70
Sample,144529,0,"d05.wav",70
Sample,144529,0,"b05.wav",70
Sample,144617,0,"dd06.wav",70
Sample,144617,0,"b06.wav",70
Sample,144705,0,"d03.wav",70
Sample,144705,0,"d09.wav",70
Sample,144705,0,"b04.wav",70
Sample,144794,0,"r90.wav",70
Sample,144794,0,"dd07.wav",70
Sample,144882,0,"d05.wav",70
Sample,144882,0,"d01.wav",70
Sample,144882,0,"s12.wav",70
Sample,144882,0,"d07.wav",70
Sample,144882,0,"sss89.wav",70
Sample,144882,0,"b05.wav",70
Sample,144970,0,"dd16.wav",70
Sample,144970,0,"b06.wav",70
Sample,144970,0,"d09.wav",70
Sample,144970,0,"d04.wav",70
Sample,145058,0,"d04.wav",70
Sample,145058,0,"dd17.wav",70
Sample,145058,0,"s13.wav",70
Sample,145058,0,"b04.wav",70
Sample,145058,0,"d03.wav",70
Sample,145058,0,"d02.wav",70
Sample,145147,0,"sss93.wav",70
Sample,145147,0,"r94.wav",70
Sample,145147,0,"dd18.wav",70
Sample,145235,0,"d01.wav",70
Sample,145235,0,"d05.wav",70
Sample,145235,0,"s09.wav",70
Sample,145235,0,"d07.wav",70
Sample,145235,0,"dd12.wav",70
Sample,145235,0,"b05.wav",70
Sample,145323,0,"sss95.wav",70
Sample,145323,0,"dd20.wav",70
Sample,145323,0,"r96.wav",70
Sample,145323,0,"b06.wav",70
Sample,145411,0,"d02.wav",70
Sample,145411,0,"d09.wav",70
Sample,145411,0,"d03.wav",70
Sample,145411,0,"atm02.wav",70
Sample,145411,0,"b07.wav",70
Sample,145411,0,"s15.wav",70
Sample,145411,0,"dd02.wav",70
Sample,145411,0,"d06.wav",70
Sample,145500,0,"d09.wav",70
Sample,145588,0,"d05.wav",70
Sample,145588,0,"dd03.wav",70
Sample,145588,0,"d01.wav",70
Sample,145588,0,"s16.wav",70
Sample,145588,0,"d07.wav",70
Sample,145588,0,"b08.wav",70
Sample,145676,0,"b09.wav",70
Sample,145676,0,"d01.wav",70
Sample,145764,0,"d04.wav",70
Sample,145764,0,"s20.wav",70
Sample,145764,0,"d03.wav",70
Sample,145764,0,"dd04.wav",70
Sample,145764,0,"b07.wav",70
Sample,145764,0,"d09.wav",70
Sample,145941,0,"d01.wav",70
Sample,145941,0,"d07.wav",70
Sample,145941,0,"d02.wav",70
Sample,145941,0,"d05.wav",70
Sample,145941,0,"s18.wav",70
Sample,145941,0,"dd07.wav",70
Sample,145941,0,"b08.wav",70
Sample,146029,0,"dd06.wav",70
Sample,146029,0,"sss103.wav",70
Sample,146029,0,"b09.wav",70
Sample,146029,0,"r104.wav",70
Sample,146117,0,"dd07.wav",70
Sample,146117,0,"b07.wav",70
Sample,146117,0,"d09.wav",70
Sample,146117,0,"d03.wav",70
Sample,146205,0,"dd06.wav",70
Sample,146294,0,"s19.wav",70
Sample,146294,0,"dd09.wav",70
Sample,146294,0,"d07.wav",70
Sample,146294,0,"d01.wav",70
Sample,146294,0,"d05.wav",70
Sample,146294,0,"b08.wav",70
Sample,146382,0,"d09.wav",70
Sample,146382,0,"b09.wav",70
Sample,146382,0,"dd10.wav",70
Sample,146382,0,"r108.wav",70
Sample,146470,0,"d03.wav",70
Sample,146470,0,"s20.wav",70
Sample,146470,0,"d09.wav",70
Sample,146470,0,"b07.wav",70
Sample,146470,0,"dd11.wav",70
Sample,146470,0,"d04.wav",70
Sample,146470,0,"d02.wav",70
Sample,146647,0,"d01.wav",70
Sample,146647,0,"d07.wav",70
Sample,146647,0,"d05.wav",70
Sample,146647,0,"dd12.wav",70
Sample,146647,0,"s21.wav",70
Sample,146647,0,"b08.wav",70
Sample,146735,0,"r112.wav",70
Sample,146735,0,"sss111.wav",70
Sample,146735,0,"dd07.wav",70
Sample,146735,0,"b09.wav",70
Sample,146823,0,"d06.wav",70
Sample,146823,0,"b07.wav",70
Sample,146823,0,"d09.wav",70
Sample,146823,0,"d02.wav",70
Sample,146823,0,"dd02.wav",70
Sample,146823,0,"d03.wav",70
Sample,146823,0,"s22.wav",70
Sample,147000,0,"dd03.wav",70
Sample,147000,0,"s23.wav",70
Sample,147000,0,"b08.wav",70
Sample,147000,0,"d05.wav",70
Sample,147000,0,"d07.wav",70
Sample,147000,0,"d01.wav",70
Sample,147088,0,"b09.wav",70
Sample,147088,0,"d09.wav",70
Sample,147088,0,"r116.wav",70
Sample,147176,0,"dd04.wav",70
Sample,147176,0,"d03.wav",70
Sample,147176,0,"b07.wav",70
Sample,147176,0,"d09.wav",70
Sample,147176,0,"s24.wav",70
Sample,147176,0,"d04.wav",70
Sample,147264,0,"sss117.wav",70
Sample,147264,0,"dd12.wav",70
Sample,147264,0,"r118.wav",70
Sample,147352,0,"d05.wav",70
Sample,147352,0,"d01.wav",70
Sample,147352,0,"d02.wav",70
Sample,147352,0,"s25.wav",70
Sample,147352,0,"d07.wav",70
Sample,147352,0,"b08.wav",70
Sample,147441,0,"b09.wav",70
Sample,147529,0,"b07.wav",70
Sample,147529,0,"d03.wav",70
Sample,147529,0,"dd07.wav",70
Sample,147529,0,"d09.wav",70
Sample,147617,0,"d01.wav",70
Sample,147617,0,"d04.wav",70
Sample,147617,0,"dd03.wav",70
Sample,147705,0,"d05.wav",70
Sample,147705,0,"d09.wav",70
Sample,147705,0,"d02.wav",70
Sample,147705,0,"dd22.wav",70
Sample,147705,0,"d07.wav",70
Sample,147705,0,"s26.wav",70
Sample,147705,0,"b08.wav",70
Sample,147794,0,"dd16.wav",70
Sample,147794,0,"b09.wav",70
Sample,147794,0,"r124.wav",70
Sample,147882,0,"s27.wav",70
Sample,147882,0,"d09.wav",70
Sample,147882,0,"d03.wav",70
Sample,147882,0,"dd21.wav",70
Sample,147882,0,"b07.wav",70
Sample,147882,0,"d04.wav",70
Sample,148058,0,"d01.wav",70
Sample,148058,0,"dd22.wav",70
Sample,148058,0,"s28.wav",70
Sample,148058,0,"d05.wav",70
Sample,148058,0,"d07.wav",70
Sample,148058,0,"b08.wav",70
Sample,148147,0,"dd23.wav",70
Sample,148147,0,"b09.wav",70
Sample,148235,0,"s29.wav",70
Sample,148235,0,"atm03.wav",70
Sample,148235,0,"d03.wav",70
Sample,148235,0,"d09.wav",70
Sample,148235,0,"d02.wav",70
Sample,148235,0,"d06.wav",70
Sample,148235,0,"dd02.wav",70
Sample,148323,0,"d09.wav",70
Sample,148323,0,"r02.wav",70
Sample,148411,0,"d05.wav",70
Sample,148411,0,"b11.wav",70
Sample,148411,0,"dd03.wav",70
Sample,148411,0,"sss65.wav",70
Sample,148411,0,"s30.wav",70
Sample,148411,0,"d01.wav",70
Sample,148411,0,"d07.wav",70
Sample,148500,0,"b12.wav",70
Sample,148588,0,"d04.wav",70
Sample,148588,0,"d03.wav",70
Sample,148588,0,"d09.wav",70
Sample,148588,0,"s31.wav",70
Sample,148588,0,"dd04.wav",70
Sample,148676,0,"r06.wav",70
Sample,148764,0,"sss69.wav",70
Sample,148764,0,"dd07.wav",70
Sample,148764,0,"s32.wav",70
Sample,148764,0,"d05.wav",70
Sample,148764,0,"b11.wav",70
Sample,148764,0,"d01.wav",70
Sample,148764,0,"d02.wav",70
Sample,148764,0,"d07.wav",70
Sample,148852,0,"dd06.wav",70
Sample,148852,0,"b12.wav",70
Sample,148941,0,"dd07.wav",70
Sample,148941,0,"d03.wav",70
Sample,148941,0,"d09.wav",70
Sample,149029,0,"r10.wav",70
Sample,149029,0,"dd06.wav",70
Sample,149117,0,"sss73.wav",70
Sample,149117,0,"s33.wav",70
Sample,149117,0,"d07.wav",70
Sample,149117,0,"d01.wav",70
Sample,149117,0,"d05.wav",70
Sample,149117,0,"dd09.wav",70
Sample,149117,0,"b11.wav",70
Sample,149205,0,"dd10.wav",70
Sample,149205,0,"d09.wav",70
Sample,149205,0,"b12.wav",70
Sample,149294,0,"d03.wav",70
Sample,149294,0,"dd11.wav",70
Sample,149294,0,"d04.wav",70
Sample,149294,0,"d09.wav",70
Sample,149294,0,"d02.wav",70
Sample,149294,0,"s34.wav",70
Sample,149382,0,"r14.wav",70
Sample,149470,0,"d01.wav",70
Sample,149470,0,"s35.wav",70
Sample,149470,0,"d07.wav",70
Sample,149470,0,"sss77.wav",70
Sample,149470,0,"b11.wav",70
Sample,149470,0,"d05.wav",70
Sample,149470,0,"dd12.wav",70
Sample,149558,0,"dd07.wav",70
Sample,149558,0,"b12.wav",70
Sample,149647,0,"s36.wav",70
Sample,149647,0,"d06.wav",70
Sample,149647,0,"d09.wav",70
Sample,149647,0,"d03.wav",70
Sample,149647,0,"d02.wav",70
Sample,149647,0,"dd02.wav",70
Sample,149735,0,"d01.wav",70
Sample,149735,0,"r18.wav",70
Sample,149823,0,"s37.wav",70
Sample,149823,0,"d09.wav",70
Sample,149823,0,"d07.wav",70
Sample,149823,0,"sss81.wav",70
Sample,149823,0,"d05.wav",70
Sample,149823,0,"dd03.wav",70
Sample,149823,0,"b11.wav",70
Sample,149911,0,"b12.wav",70
Sample,150000,0,"d01.wav",70
Sample,150000,0,"dd04.wav",70
Sample,150000,0,"s38.wav",70
Sample,150000,0,"d03.wav",70
Sample,150000,0,"d04.wav",70
Sample,150088,0,"r22.wav",70
Sample,150176,0,"d02.wav",70
Sample,150176,0,"s39.wav",70
Sample,150176,0,"sss85.wav",70
Sample,150176,0,"dd07.wav",70
Sample,150176,0,"d09.wav",70
Sample,150176,0,"b11.wav",70
Sample,150176,0,"d05.wav",70
Sample,150176,0,"d07.wav",70
Sample,150264,0,"b12.wav",70
Sample,150264,0,"dd06.wav",70
Sample,150352,0,"d03.wav",70
Sample,150352,0,"d09.wav",70
Sample,150441,0,"r26.wav",70
Sample,150441,0,"dd07.wav",70
Sample,150529,0,"s40.wav",70
Sample,150529,0,"d05.wav",70
Sample,150529,0,"b11.wav",70
Sample,150529,0,"sss89.wav",70
Sample,150529,0,"d01.wav",70
Sample,150529,0,"d07.wav",70
Sample,150617,0,"d09.wav",70
Sample,150617,0,"d04.wav",70
Sample,150617,0,"dd16.wav",70
Sample,150617,0,"b12.wav",70
Sample,150705,0,"s41.wav",70
Sample,150705,0,"dd17.wav",70
Sample,150705,0,"d04.wav",70
Sample,150705,0,"d03.wav",70
Sample,150705,0,"d02.wav",70
Sample,150794,0,"r30.wav",70
Sample,150794,0,"sss93.wav",70
Sample,150794,0,"dd18.wav",70
Sample,150882,0,"d05.wav",70
Sample,150882,0,"d07.wav",70
Sample,150882,0,"dd12.wav",70
Sample,150882,0,"s42.wav",70
Sample,150882,0,"d01.wav",70
Sample,150882,0,"b11.wav",70
Sample,150970,0,"dd20.wav",70
Sample,150970,0,"b12.wav",70
Sample,150970,0,"r32.wav",70
Sample,150970,0,"sss95.wav",70
Sample,151058,0,"d02.wav",70
Sample,151058,0,"s43.wav",70
Sample,151058,0,"atm04.wav",70
Sample,151058,0,"d09.wav",70
Sample,151058,0,"d03.wav",70
Sample,151058,0,"dd02.wav",70
Sample,151058,0,"d06.wav",70
Sample,151147,0,"d09.wav",70
Sample,151235,0,"d01.wav",70
Sample,151235,0,"dd03.wav",70
Sample,151235,0,"d07.wav",70
Sample,151235,0,"s44.wav",70
Sample,151235,0,"d05.wav",70
Sample,151235,0,"b14.wav",70
Sample,151323,0,"d01.wav",70
Sample,151323,0,"b09.wav",70
Sample,151411,0,"s45.wav",70
Sample,151411,0,"d09.wav",70
Sample,151411,0,"d03.wav",70
Sample,151411,0,"d04.wav",70
Sample,151411,0,"dd04.wav",70
Sample,151588,0,"s46.wav",70
Sample,151588,0,"b14.wav",70
Sample,151588,0,"d05.wav",70
Sample,151588,0,"dd07.wav",70
Sample,151588,0,"d01.wav",70
Sample,151588,0,"d02.wav",70
Sample,151588,0,"d07.wav",70
Sample,151676,0,"r40.wav",70
Sample,151676,0,"dd06.wav",70
Sample,151676,0,"b09.wav",70
Sample,151676,0,"sss103.wav",70
Sample,151764,0,"dd07.wav",70
Sample,151764,0,"d03.wav",70
Sample,151764,0,"d09.wav",70
Sample,151852,0,"dd06.wav",70
Sample,151941,0,"d07.wav",70
Sample,151941,0,"dd09.wav",70
Sample,151941,0,"d01.wav",70
Sample,151941,0,"s47.wav",70
Sample,151941,0,"d05.wav",70
Sample,151941,0,"b14.wav",70
Sample,152029,0,"dd10.wav",70
Sample,152029,0,"d09.wav",70
Sample,152029,0,"b09.wav",70
Sample,152117,0,"s48.wav",70
Sample,152117,0,"d09.wav",70
Sample,152117,0,"d03.wav",70
Sample,152117,0,"dd11.wav",70
Sample,152117,0,"d04.wav",70
Sample,152117,0,"d02.wav",70
Sample,152294,0,"d05.wav",70
Sample,152294,0,"s49.wav",70
Sample,152294,0,"d01.wav",70
Sample,152294,0,"d07.wav",70
Sample,152294,0,"dd07.wav",70
Sample,152294,0,"b14.wav",70
Sample,152382,0,"r48.wav",70
Sample,152382,0,"dd12.wav",70
Sample,152382,0,"sss111.wav",70
Sample,152382,0,"b09.wav",70
Sample,152470,0,"d03.wav",70
Sample,152470,0,"d06.wav",70
Sample,152470,0,"dd02.wav",70
Sample,152470,0,"s50.wav",70
Sample,152470,0,"d02.wav",70
Sample,152470,0,"d09.wav",70
Sample,152647,0,"d01.wav",70
Sample,152647,0,"s51.wav",70
Sample,152647,0,"b14.wav",70
Sample,152647,0,"d07.wav",70
Sample,152647,0,"dd02.wav",70
Sample,152647,0,"d05.wav",70
Sample,152735,0,"b09.wav",70
Sample,152735,0,"d09.wav",70
Sample,152823,0,"d04.wav",70
Sample,152823,0,"d09.wav",70
Sample,152823,0,"d03.wav",70
Sample,152823,0,"s52.wav",70
Sample,152823,0,"dd04.wav",70
Sample,152911,0,"r54.wav",70
Sample,152911,0,"sss117.wav",70
Sample,152911,0,"dd04.wav",70
Sample,153000,0,"d02.wav",70
Sample,153000,0,"b14.wav",70
Sample,153000,0,"dd07.wav",70
Sample,153000,0,"d01.wav",70
Sample,153000,0,"d07.wav",70
Sample,153000,0,"s53.wav",70
Sample,153000,0,"d05.wav",70
Sample,153088,0,"b09.wav",70
Sample,153088,0,"dd07.wav",70
Sample,153176,0,"dd56.wav",70
Sample,153176,0,"d09.wav",70
Sample,153176,0,"d03.wav",70
Sample,153264,0,"d04.wav",70
Sample,153264,0,"d01.wav",70
Sample,153264,0,"dd57.wav",70
Sample,153352,0,"d05.wav",70
Sample,153352,0,"d02.wav",70
Sample,153352,0,"d09.wav",70
Sample,153352,0,"s54.wav",70
Sample,153352,0,"d07.wav",70
Sample,153352,0,"b14.wav",70
Sample,153352,0,"dd38.wav",70
Sample,153441,0,"b09.wav",70
Sample,153441,0,"dd32.wav",70
Sample,153529,0,"dd41.wav",70
Sample,153529,0,"d09.wav",70
Sample,153529,0,"s55.wav",70
Sample,153529,0,"d03.wav",70
Sample,153529,0,"d04.wav",70
Sample,153617,0,"dd42.wav",70
Sample,153705,0,"d01.wav",70
Sample,153705,0,"d07.wav",70
Sample,153705,0,"s56.wav",70
Sample,153705,0,"d05.wav",70
Sample,153705,0,"dd44.wav",70
Sample,153705,0,"b14.wav",70
Sample,153794,0,"dd43.wav",70
Sample,153794,0,"b09.wav",70
Sample,153882,0,"d03.wav",70
Sample,153882,0,"d06.wav",70
Sample,153882,0,"atm01.wav",70
Sample,153882,0,"s01.wav",70
Sample,153882,0,"dd02.wav",70
Sample,153882,0,"d02.wav",70
Sample,153882,0,"d09.wav",70
Sample,153970,0,"d09.wav",70
Sample,153970,0,"r66.wav",70
Sample,154058,0,"d07.wav",70
Sample,154058,0,"sss65.wav",70
Sample,154058,0,"d05.wav",70
Sample,154058,0,"d01.wav",70
Sample,154058,0,"s02.wav",70
Sample,154058,0,"dd03.wav",70
Sample,154235,0,"d04.wav",70
Sample,154235,0,"dd04.wav",70
Sample,154235,0,"s03.wav",70
Sample,154235,0,"d09.wav",70
Sample,154235,0,"d03.wav",70
Sample,154323,0,"r70.wav",70
Sample,154411,0,"d05.wav",70
Sample,154411,0,"s04.wav",70
Sample,154411,0,"d01.wav",70
Sample,154411,0,"d07.wav",70
Sample,154411,0,"sss69.wav",70
Sample,154411,0,"d02.wav",70
Sample,154411,0,"dd07.wav",70
Sample,154500,0,"dd06.wav",70
Sample,154588,0,"d03.wav",70
Sample,154588,0,"dd07.wav",70
Sample,154588,0,"d09.wav",70
Sample,154676,0,"dd06.wav",70
Sample,154676,0,"r74.wav",70
Sample,154764,0,"s05.wav",70
Sample,154764,0,"d05.wav",70
Sample,154764,0,"d01.wav",70
Sample,154764,0,"d07.wav",70
Sample,154764,0,"sss73.wav",70
Sample,154764,0,"dd09.wav",70
Sample,154852,0,"dd10.wav",70
Sample,154852,0,"d09.wav",70
Sample,154941,0,"d02.wav",70
Sample,154941,0,"s06.wav",70
Sample,154941,0,"dd11.wav",70
Sample,154941,0,"d04.wav",70
Sample,154941,0,"d09.wav",70
Sample,154941,0,"d03.wav",70
Sample,155029,0,"r78.wav",70
Sample,155117,0,"sss77.wav",70
Sample,155117,0,"s05.wav",70
Sample,155117,0,"d01.wav",70
Sample,155117,0,"dd12.wav",70
Sample,155117,0,"d05.wav",70
Sample,155117,0,"d07.wav",70
Sample,155205,0,"dd07.wav",70
Sample,155294,0,"d03.wav",70
Sample,155294,0,"d06.wav",70
Sample,155294,0,"dd02.wav",70
Sample,155294,0,"s08.wav",70
Sample,155294,0,"d02.wav",70
Sample,155294,0,"d09.wav",70
Sample,155382,0,"r82.wav",70
Sample,155382,0,"d01.wav",70
Sample,155470,0,"d09.wav",70
Sample,155470,0,"s09.wav",70
Sample,155470,0,"dd03.wav",70
Sample,155470,0,"sss81.wav",70
Sample,155470,0,"d05.wav",70
Sample,155470,0,"d07.wav",70
Sample,155647,0,"d04.wav",70
Sample,155647,0,"s10.wav",70
Sample,155647,0,"d03.wav",70
Sample,155647,0,"dd04.wav",70
Sample,155647,0,"d01.wav",70
Sample,155735,0,"r86.wav",70
Sample,155823,0,"sss85.wav",70
Sample,155823,0,"dd07.wav",70
Sample,155823,0,"d09.wav",70
Sample,155823,0,"d07.wav",70
Sample,155823,0,"d05.wav",70
Sample,155823,0,"s11.wav",70
Sample,155823,0,"d02.wav",70
Sample,155911,0,"dd06.wav",70
Sample,156000,0,"d09.wav",70
Sample,156000,0,"d03.wav",70
Sample,156088,0,"dd07.wav",70
Sample,156088,0,"r90.wav",70
Sample,156176,0,"d05.wav",70
Sample,156176,0,"d07.wav",70
Sample,156176,0,"d01.wav",70
Sample,156176,0,"s12.wav",70
Sample,156176,0,"sss89.wav",70
Sample,156264,0,"d09.wav",70
Sample,156264,0,"d04.wav",70
Sample,156264,0,"dd16.wav",70
Sample,156352,0,"s13.wav",70
Sample,156352,0,"d02.wav",70
Sample,156352,0,"d04.wav",70
Sample,156352,0,"d03.wav",70
Sample,156352,0,"dd17.wav",70
Sample,156441,0,"sss93.wav",70
Sample,156441,0,"dd18.wav",70
Sample,156441,0,"r94.wav",70
Sample,156529,0,"d07.wav",70
Sample,156529,0,"dd12.wav",70
Sample,156529,0,"s09.wav",70
Sample,156529,0,"d05.wav",70
Sample,156529,0,"d01.wav",70
Sample,156617,0,"r96.wav",70
Sample,156617,0,"b06.wav",70
Sample,156617,0,"sss95.wav",70
Sample,156617,0,"dd20.wav",70
Sample,156705,0,"d02.wav",70
Sample,156705,0,"b07.wav",70
Sample,156705,0,"d06.wav",70
Sample,156705,0,"d09.wav",70
Sample,156705,0,"s15.wav",70
Sample,156705,0,"dd02.wav",70
Sample,156705,0,"atm02.wav",70
Sample,156794,0,"d09.wav",70
Sample,156882,0,"d05.wav",70
Sample,156882,0,"b08.wav",70
Sample,156882,0,"s16.wav",70
Sample,156882,0,"d01.wav",70
Sample,156882,0,"d07.wav",70
Sample,156882,0,"dd03.wav",70
Sample,156970,0,"d01.wav",70
Sample,156970,0,"b09.wav",70
Sample,157058,0,"d04.wav",70
Sample,157058,0,"b07.wav",70
Sample,157058,0,"d09.wav",70
Sample,157058,0,"dd04.wav",70
Sample,157058,0,"s20.wav",70
Sample,157235,0,"d02.wav",70
Sample,157235,0,"dd07.wav",70
Sample,157235,0,"d05.wav",70
Sample,157235,0,"b08.wav",70
Sample,157235,0,"d07.wav",70
Sample,157235,0,"s18.wav",70
Sample,157235,0,"d01.wav",70
Sample,157323,0,"dd06.wav",70
Sample,157323,0,"b09.wav",70
Sample,157411,0,"b07.wav",70
Sample,157411,0,"dd07.wav",70
Sample,157411,0,"d09.wav",70
Sample,157500,0,"dd06.wav",70
Sample,157588,0,"d05.wav",70
Sample,157588,0,"d01.wav",70
Sample,157588,0,"dd09.wav",70
Sample,157588,0,"b08.wav",70
Sample,157588,0,"d07.wav",70
Sample,157588,0,"s19.wav",70
Sample,157676,0,"b09.wav",70
Sample,157676,0,"dd10.wav",70
Sample,157676,0,"d09.wav",70
Sample,157764,0,"d04.wav",70
Sample,157764,0,"s20.wav",70
Sample,157764,0,"dd11.wav",70
Sample,157764,0,"d09.wav",70
Sample,157764,0,"b07.wav",70
Sample,157764,0,"d02.wav",70
Sample,157941,0,"s21.wav",70
Sample,157941,0,"dd12.wav",70
Sample,157941,0,"d05.wav",70
Sample,157941,0,"d01.wav",70
Sample,157941,0,"d07.wav",70
Sample,157941,0,"b08.wav",70
Sample,158029,0,"b09.wav",70
Sample,158029,0,"dd07.wav",70
Sample,158117,0,"s22.wav",70
Sample,158117,0,"dd02.wav",70
Sample,158117,0,"d02.wav",70
Sample,158117,0,"d09.wav",70
Sample,158117,0,"d06.wav",70
Sample,158117,0,"b07.wav",70
Sample,158294,0,"dd03.wav",70
Sample,158294,0,"d07.wav",70
Sample,158294,0,"s23.wav",70
Sample,158294,0,"d05.wav",70
Sample,158294,0,"d01.wav",70
Sample,158294,0,"b08.wav",70
Sample,158382,0,"d09.wav",70
Sample,158382,0,"b09.wav",70
Sample,158470,0,"b07.wav",70
Sample,158470,0,"d09.wav",70
Sample,158470,0,"dd04.wav",70
Sample,158470,0,"d04.wav",70
Sample,158470,0,"s24.wav",70
Sample,158558,0,"dd12.wav",70
Sample,158647,0,"s25.wav",70
Sample,158647,0,"d07.wav",70
Sample,158647,0,"b08.wav",70
Sample,158647,0,"d02.wav",70
Sample,158647,0,"d05.wav",70
Sample,158647,0,"d01.wav",70
Sample,158735,0,"b09.wav",70
Sample,158823,0,"d09.wav",70
Sample,158823,0,"b07.wav",70
Sample,158823,0,"dd07.wav",70
Sample,158911,0,"d01.wav",70
Sample,158911,0,"dd03.wav",70
Sample,158911,0,"d04.wav",70
Sample,159000,0,"d09.wav",70
Sample,159000,0,"dd22.wav",70
Sample,159000,0,"s26.wav",70
Sample,159000,0,"d05.wav",70
Sample,159000,0,"d02.wav",70
Sample,159000,0,"d07.wav",70
Sample,159000,0,"b08.wav",70
Sample,159088,0,"dd16.wav",70
Sample,159088,0,"b09.wav",70
Sample,159176,0,"d04.wav",70
Sample,159176,0,"d09.wav",70
Sample,159176,0,"dd21.wav",70
Sample,159176,0,"b07.wav",70
Sample,159176,0,"s27.wav",70
Sample,159352,0,"s28.wav",70
Sample,159352,0,"dd22.wav",70
Sample,159352,0,"d05.wav",70
Sample,159352,0,"d07.wav",70
Sample,159352,0,"d01.wav",70
Sample,159352,0,"b08.wav",70
Sample,159441,0,"dd23.wav",70
Sample,159441,0,"b09.wav",70
Sample,159529,0,"d02.wav",70
Sample,159529,0,"s29.wav",70
Sample,159529,0,"d09.wav",70
Sample,159529,0,"d03.wav",70
Sample,159529,0,"r01.wav",70
Sample,159529,0,"dd02.wav",70
Sample,159529,0,"d06.wav",70
Sample,159529,0,"atm03.wav",70
Sample,159617,0,"d09.wav",70
Sample,159617,0,"r02.wav",70
Sample,159705,0,"sss65.wav",70
Sample,159705,0,"d07.wav",70
Sample,159705,0,"s30.wav",70
Sample,159705,0,"d05.wav",70
Sample,159705,0,"d01.wav",70
Sample,159705,0,"dd03.wav",70
Sample,159882,0,"d09.wav",70
Sample,159882,0,"dd04.wav",70
Sample,159882,0,"s31.wav",70
Sample,159882,0,"d04.wav",70
Sample,159882,0,"d03.wav",70
Sample,159970,0,"r06.wav",70
Sample,160058,0,"d07.wav",70
Sample,160058,0,"d01.wav",70
Sample,160058,0,"d05.wav",70
Sample,160058,0,"s32.wav",70
Sample,160058,0,"sss69.wav",70
Sample,160058,0,"d02.wav",70
Sample,160058,0,"dd07.wav",70
Sample,160147,0,"dd06.wav",70
Sample,160235,0,"d09.wav",70
Sample,160235,0,"dd07.wav",70
Sample,160235,0,"d03.wav",70
Sample,160323,0,"dd06.wav",70
Sample,160323,0,"r10.wav",70
Sample,160411,0,"d05.wav",70
Sample,160411,0,"d07.wav",70
Sample,160411,0,"s33.wav",70
Sample,160411,0,"d01.wav",70
Sample,160411,0,"sss73.wav",70
Sample,160411,0,"dd09.wav",70
Sample,160500,0,"dd10.wav",70
Sample,160500,0,"d09.wav",70
Sample,160588,0,"d02.wav",70
Sample,160588,0,"d09.wav",70
Sample,160588,0,"dd11.wav",70
Sample,160588,0,"d03.wav",70
Sample,160588,0,"s34.wav",70
Sample,160588,0,"d04.wav",70
Sample,160676,0,"r14.wav",70
Sample,160764,0,"sss77.wav",70
Sample,160764,0,"d05.wav",70
Sample,160764,0,"s35.wav",70
Sample,160764,0,"dd12.wav",70
Sample,160764,0,"d01.wav",70
Sample,160764,0,"d07.wav",70
Sample,160852,0,"dd07.wav",70
Sample,160941,0,"s36.wav",70
Sample,160941,0,"d02.wav",70
Sample,160941,0,"dd02.wav",70
Sample,160941,0,"d03.wav",70
Sample,160941,0,"d06.wav",70
Sample,160941,0,"d09.wav",70
Sample,161029,0,"r18.wav",70
Sample,161029,0,"d01.wav",70
Sample,161117,0,"d05.wav",70
Sample,161117,0,"d09.wav",70
Sample,161117,0,"dd03.wav",70
Sample,161117,0,"sss81.wav",70
Sample,161117,0,"s37.wav",70
Sample,161117,0,"d07.wav",70
Sample,161294,0,"d04.wav",70
Sample,161294,0,"s38.wav",70
Sample,161294,0,"d01.wav",70
Sample,161294,0,"dd04.wav",70
Sample,161294,0,"d03.wav",70
Sample,161382,0,"r22.wav",70
Sample,161470,0,"d09.wav",70
Sample,161470,0,"dd07.wav",70
Sample,161470,0,"d05.wav",70
Sample,161470,0,"s39.wav",70
Sample,161470,0,"sss85.wav",70
Sample,161470,0,"d02.wav",70
Sample,161470,0,"d07.wav",70
Sample,161558,0,"dd06.wav",70
Sample,161647,0,"d03.wav",70
Sample,161647,0,"d09.wav",70
Sample,161735,0,"dd07.wav",70
Sample,161823,0,"sss89.wav",70
Sample,161823,0,"d07.wav",70
Sample,161823,0,"s40.wav",70
Sample,161823,0,"d01.wav",70
Sample,161823,0,"d05.wav",70
Sample,161911,0,"d04.wav",70
Sample,161911,0,"r28.wav",70
Sample,161911,0,"dd16.wav",70
Sample,161911,0,"d09.wav",70
Sample,162000,0,"d03.wav",70
Sample,162000,0,"d04.wav",70
Sample,162000,0,"s41.wav",70
Sample,162000,0,"d02.wav",70
Sample,162000,0,"dd17.wav",70
Sample,162088,0,"dd18.wav",70
Sample,162088,0,"sss93.wav",70
Sample,162088,0,"r30.wav",70
Sample,162176,0,"d01.wav",70
Sample,162176,0,"dd12.wav",70
Sample,162176,0,"s42.wav",70
Sample,162176,0,"d07.wav",70
Sample,162176,0,"d05.wav",70
Sample,162264,0,"r32.wav",70
Sample,162264,0,"b12.wav",70
Sample,162264,0,"sss95.wav",70
Sample,162264,0,"dd20.wav",70
Sample,162352,0,"atm04.wav",70
Sample,162352,0,"s43.wav",70
Sample,162352,0,"d03.wav",70
Sample,162352,0,"d02.wav",70
Sample,162352,0,"d09.wav",70
Sample,162352,0,"b13.wav",70
Sample,162352,0,"roll01_32.wav",70
Sample,162352,0,"dd02.wav",70
Sample,162352,0,"d06.wav",70
Sample,162441,0,"d09.wav",70
Sample,162441,0,"roll01_31.wav",70
Sample,162529,0,"d01.wav",70
Sample,162529,0,"dd03.wav",70
Sample,162529,0,"roll01_30.wav",70
Sample,162529,0,"d05.wav",70
Sample,162529,0,"b14.wav",70
Sample,162529,0,"d07.wav",70
Sample,162529,0,"s44.wav",70
Sample,162617,0,"roll01_29.wav",70
Sample,162617,0,"b09.wav",70
Sample,162617,0,"d01.wav",70
Sample,162705,0,"d09.wav",70
Sample,162705,0,"b13.wav",70
Sample,162705,0,"dd04.wav",70
Sample,162705,0,"d03.wav",70
Sample,162705,0,"s45.wav",70
Sample,162705,0,"roll01_28.wav",70
Sample,162705,0,"d04.wav",70
Sample,162794,0,"roll01_27.wav",70
Sample,162882,0,"d01.wav",70
Sample,162882,0,"d07.wav",70
Sample,162882,0,"d02.wav",70
Sample,162882,0,"dd07.wav",70
Sample,162882,0,"roll01_26.wav",70
Sample,162882,0,"d05.wav",70
Sample,162882,0,"s46.wav",70
Sample,162882,0,"b14.wav",70
Sample,162970,0,"dd06.wav",70
Sample,162970,0,"r40.wav",70
Sample,162970,0,"sss103.wav",70
Sample,162970,0,"b09.wav",70
Sample,162970,0,"roll01_25.wav",70
Sample,163058,0,"d09.wav",70
Sample,163058,0,"b13.wav",70
Sample,163058,0,"roll01_24.wav",70
Sample,163058,0,"d03.wav",70
Sample,163058,0,"dd07.wav",70
Sample,163147,0,"roll01_23.wav",70
Sample,163147,0,"dd06.wav",70
Sample,163235,0,"d07.wav",70
Sample,163235,0,"s47.wav",70
Sample,163235,0,"d01.wav",70
Sample,163235,0,"dd09.wav",70
Sample,163235,0,"b14.wav",70
Sample,163235,0,"roll01_22.wav",70
Sample,163235,0,"d05.wav",70
Sample,163323,0,"d09.wav",70
Sample,163323,0,"b09.wav",70
Sample,163323,0,"dd10.wav",70
Sample,163323,0,"roll01_21.wav",70
Sample,163411,0,"d03.wav",70
Sample,163411,0,"dd11.wav",70
Sample,163411,0,"s48.wav",70
Sample,163411,0,"roll01_20.wav",70
Sample,163411,0,"d09.wav",70
Sample,163411,0,"d02.wav",70
Sample,163411,0,"d04.wav",70
Sample,163411,0,"b13.wav",70
Sample,163500,0,"roll01_19.wav",70
Sample,163588,0,"dd07.wav",70
Sample,163588,0,"b14.wav",70
Sample,163588,0,"roll01_18.wav",70
Sample,163588,0,"d07.wav",70
Sample,163588,0,"d05.wav",70
Sample,163588,0,"s49.wav",70
Sample,163588,0,"d01.wav",70
Sample,163676,0,"dd12.wav",70
Sample,163676,0,"roll01_18.wav",70
Sample,163676,0,"sss111.wav",70
Sample,163676,0,"r48.wav",70
Sample,163676,0,"b09.wav",70
Sample,163764,0,"d02.wav",70
Sample,163764,0,"s50.wav",70
Sample,163764,0,"d03.wav",70
Sample,163764,0,"d06.wav",70
Sample,163764,0,"b13.wav",70
Sample,163764,0,"dd02.wav",70
Sample,163764,0,"roll01_16.wav",70
Sample,163764,0,"d09.wav",70
Sample,163852,0,"roll01_15.wav",70
Sample,163941,0,"dd02.wav",70
Sample,163941,0,"roll01_14.wav",70
Sample,163941,0,"d07.wav",70
Sample,163941,0,"s51.wav",70
Sample,163941,0,"d01.wav",70
Sample,163941,0,"b14.wav",70
Sample,163941,0,"d05.wav",70
Sample,164029,0,"b09.wav",70
Sample,164029,0,"d09.wav",70
Sample,164029,0,"roll01_13.wav",70
Sample,164117,0,"d04.wav",70
Sample,164117,0,"d09.wav",70
Sample,164117,0,"d03.wav",70
Sample,164117,0,"b13.wav",70
Sample,164117,0,"dd04.wav",70
Sample,164117,0,"sss116.wav",70
Sample,164117,0,"s52.wav",70
Sample,164205,0,"sss117.wav",70
Sample,164205,0,"dd04.wav",70
Sample,164294,0,"d02.wav",70
Sample,164294,0,"d05.wav",70
Sample,164294,0,"sss118.wav",70
Sample,164294,0,"s53.wav",70
Sample,164294,0,"dd07.wav",70
Sample,164294,0,"d07.wav",70
Sample,164294,0,"d01.wav",70
Sample,164294,0,"b14.wav",70
Sample,164382,0,"b09.wav",70
Sample,164382,0,"sss119.wav",70
Sample,164382,0,"dd07.wav",70
Sample,164470,0,"dd56.wav",70
Sample,164470,0,"sss120.wav",70
Sample,164470,0,"d09.wav",70
Sample,164470,0,"d03.wav",70
Sample,164470,0,"b13.wav",70
Sample,164558,0,"d01.wav",70
Sample,164558,0,"sss121.wav",70
Sample,164558,0,"d04.wav",70
Sample,164558,0,"dd57.wav",70
Sample,164647,0,"sss122.wav",70
Sample,164647,0,"d07.wav",70
Sample,164647,0,"d02.wav",70
Sample,164647,0,"d09.wav",70
Sample,164647,0,"b14.wav",70
Sample,164647,0,"dd38.wav",70
Sample,164647,0,"d05.wav",70
Sample,164647,0,"s54.wav",70
Sample,164735,0,"b09.wav",70
Sample,164735,0,"dd32.wav",70
Sample,164735,0,"sss123.wav",70
Sample,164823,0,"d04.wav",70
Sample,164823,0,"b13.wav",70
Sample,164823,0,"d09.wav",70
Sample,164823,0,"sss124.wav",70
Sample,164823,0,"s55.wav",70
Sample,164823,0,"d03.wav",70
Sample,164823,0,"dd41.wav",70
Sample,164911,0,"sss125.wav",70
Sample,164911,0,"dd42.wav",70
Sample,165000,0,"sss126.wav",70
Sample,165000,0,"b14.wav",70
Sample,165000,0,"dd44.wav",70
Sample,165000,0,"d07.wav",70
Sample,165000,0,"d01.wav",70
Sample,165000,0,"s56.wav",70
Sample,165000,0,"d05.wav",70
Sample,165088,0,"dd43.wav",70
Sample,165088,0,"sss127.wav",70
Sample,165088,0,"b09.wav",70
Sample,165176,0,"feed.wav",70

[TimingPoints]
1394,352.941176470588,4,1,1,0,1,0
1394,-100,4,1,1,55,0,0
7041,-100,4,1,1,60,0,0
18335,-100,4,1,1,70,0,0
52217,-100,4,1,1,70,0,1
97393,-100,4,1,1,60,0,0
119982,-100,4,1,1,70,0,1
165158,-100,4,1,1,70,0,0

[HitObjects]
64,192,1394,5,0,0:0:0:0:
192,192,1570,1,0,0:0:0:0:
64,192,1746,1,0,0:0:0:0:
320,192,1923,1,0,0:0:0:0:
64,192,2099,1,0,0:0:0:0:
448,192,2276,1,0,0:0:0:0:
64,192,2452,1,0,0:0:0:0:
320,192,2629,1,0,0:0:0:0:
192,192,2805,1,0,0:0:0:0:
64,192,2982,1,0,0:0:0:0:
192,192,3158,1,0,0:0:0:0:
320,192,3335,1,0,0:0:0:0:
192,192,3511,1,0,0:0:0:0:
448,192,3688,1,0,0:0:0:0:
192,192,3864,1,0,0:0:0:0:
64,192,4041,1,0,0:0:0:0:
320,192,4217,1,0,0:0:0:0:
192,192,4393,1,0,0:0:0:0:
320,192,4570,1,0,0:0:0:0:
64,192,4746,1,0,0:0:0:0:
320,192,4923,1,0,0:0:0:0:
192,192,5099,1,0,0:0:0:0:
320,192,5276,1,0,0:0:0:0:
192,192,5452,1,0,0:0:0:0:
448,192,5629,1,0,0:0:0:0:
320,192,5805,1,0,0:0:0:0:
448,192,5982,1,0,0:0:0:0:
192,192,6158,1,0,0:0:0:0:
448,192,6335,1,0,0:0:0:0:
64,192,6511,1,0,0:0:0:0:
448,192,6688,1,0,0:0:0:0:
192,192,6864,1,0,0:0:0:0:
320,192,7041,1,0,0:0:0:0:
448,192,7041,1,0,0:0:0:0:
64,192,7217,1,0,0:0:0:0:
192,192,7217,1,0,0:0:0:0:
192,192,7393,1,0,0:0:0:0:
448,192,7393,1,0,0:0:0:0:
64,192,7570,1,0,0:0:0:0:
320,192,7570,1,0,0:0:0:0:
448,192,7746,1,0,0:0:0:0:
64,192,7923,1,0,0:0:0:0:
320,192,7923,1,0,0:0:0:0:
448,192,8099,1,0,0:0:0:0:
192,192,8099,1,0,0:0:0:0:
64,192,8276,1,0,0:0:0:0:
320,192,8276,1,0,0:0:0:0:
320,192,8452,1,0,0:0:0:0:
448,192,8452,1,0,0:0:0:0:
64,192,8629,1,0,0:0:0:0:
192,192,8629,1,0,0:0:0:0:
448,192,8805,1,0,0:0:0:0:
192,192,8805,1,0,0:0:0:0:
64,192,8982,1,0,0:0:0:0:
320,192,8982,1,0,0:0:0:0:
448,192,9158,1,0,0:0:0:0:
320,192,9335,1,0,0:0:0:0:
64,192,9335,1,0,0:0:0:0:
192,192,9511,1,0,0:0:0:0:
448,192,9511,1,0,0:0:0:0:
64,192,9688,1,0,0:0:0:0:
320,192,9688,1,0,0:0:0:0:
320,192,9864,1,0,0:0:0:0:
448,192,9864,1,0,0:0:0:0:
64,192,10041,1,0,0:0:0:0:
192,192,10041,1,0,0:0:0:0:
192,192,10217,1,0,0:0:0:0:
448,192,10217,1,0,0:0:0:0:
64,192,10393,1,0,0:0:0:0:
320,192,10393,1,0,0:0:0:0:
448,192,10570,1,0,0:0:0:0:
64,192,10746,1,0,0:0:0:0:
320,192,10746,1,0,0:0:0:0:
192,192,10923,1,0,0:0:0:0:
448,192,10923,1,0,0:0:0:0:
64,192,11099,1,0,0:0:0:0:
320,192,11099,1,0,0:0:0:0:
320,192,11276,1,0,0:0:0:0:
448,192,11276,1,0,0:0:0:0:
64,192,11452,1,0,0:0:0:0:
192,192,11452,1,0,0:0:0:0:
448,192,11629,1,0,0:0:0:0:
192,192,11629,1,0,0:0:0:0:
64,192,11805,1,0,0:0:0:0:
320,192,11805,1,0,0:0:0:0:
448,192,11982,1,0,0:0:0:0:
320,192,12158,1,0,0:0:0:0:
64,192,12158,1,0,0:0:0:0:
192,192,12335,1,0,0:0:0:0:
448,192,12335,1,0,0:0:0:0:
64,192,12511,1,0,0:0:0:0:
320,192,12511,1,0,0:0:0:0:
320,192,12688,1,0,0:0:0:0:
448,192,12688,1,0,0:0:0:0:
64,192,12864,1,0,0:0:0:0:
320,192,13041,1,0,0:0:0:0:
192,192,13217,1,0,0:0:0:0:
64,192,13570,1,0,0:0:0:0:
320,192,13746,1,0,0:0:0:0:
192,192,13923,1,0,0:0:0:0:
448,192,14099,1,0,0:0:0:0:
64,192,14276,1,0,0:0:0:0:
320,192,14452,1,0,0:0:0:0:
192,192,14629,1,0,0:0:0:0:
64,192,14982,1,0,0:0:0:0:
320,192,15158,1,0,0:0:0:0:
192,192,15335,1,0,0:0:0:0:
448,192,15511,1,0,0:0:0:0:
320,192,15511,1,0,0:0:0:0:
64,192,15688,1,0,0:0:0:0:
320,192,15864,1,0,0:0:0:0:
192,192,16041,1,0,0:0:0:0:
64,192,16393,1,0,0:0:0:0:
320,192,16570,1,0,0:0:0:0:
192,192,16746,1,0,0:0:0:0:
448,192,16923,1,0,0:0:0:0:
64,192,17099,1,0,0:0:0:0:
320,192,17276,1,0,0:0:0:0:
192,192,17452,1,0,0:0:0:0:
64,192,17805,1,0,0:0:0:0:
320,192,17982,1,0,0:0:0:0:
192,192,18158,1,0,0:0:0:0:
64,192,18335,1,0,0:0:0:0:
448,192,18335,1,0,0:0:0:0:
320,192,18511,1,0,0:0:0:0:
448,192,18599,1,0,0:0:0:0:
192,192,18688,1,0,0:0:0:0:
64,192,18688,1,0,0:0:0:0:
64,192,18864,1,0,0:0:0:0:
192,192,19041,1,0,0:0:0:0:
320,192,19041,1,0,0:0:0:0:
192,192,19217,1,0,0:0:0:0:
64,192,19305,1,0,0:0:0:0:
320,192,19393,1,0,0:0:0:0:
448,192,19393,1,0,0:0:0:0:
448,192,19570,1,0,0:0:0:0:
192,192,19746,1,0,0:0:0:0:
320,192,19746,1,0,0:0:0:0:
320,192,19923,1,0,0:0:0:0:
64,192,20011,1,0,0:0:0:0:
192,192,20099,1,0,0:0:0:0:
448,192,20099,1,0,0:0:0:0:
192,192,20276,1,0,0:0:0:0:
64,192,20452,1,0,0:0:0:0:
320,192,20452,1,0,0:0:0:0:
448,192,20629,1,0,0:0:0:0:
64,192,20717,1,0,0:0:0:0:
192,192,20717,1,0,0:0:0:0:
320,192,20805,1,0,0:0:0:0:
448,192,20805,1,0,0:0:0:0:
192,192,20982,1,0,0:0:0:0:
64,192,21158,1,0,0:0:0:0:
320,192,21158,1,0,0:0:0:0:
320,192,21335,1,0,0:0:0:0:
448,192,21423,1,0,0:0:0:0:
192,192,21511,1,0,0:0:0:0:
64,192,21511,1,0,0:0:0:0:
64,192,21688,1,0,0:0:0:0:
192,192,21864,1,0,0:0:0:0:
448,192,21864,1,0,0:0:0:0:
448,192,22041,1,0,0:0:0:0:
64,192,22129,1,0,0:0:0:0:
192,192,22217,1,0,0:0:0:0:
320,192,22217,1,0,0:0:0:0:
192,192,22393,1,0,0:0:0:0:
320,192,22570,1,0,0:0:0:0:
448,192,22570,1,0,0:0:0:0:
64,192,22746,1,0,0:0:0:0:
448,192,22835,1,0,0:0:0:0:
192,192,22923,1,0,0:0:0:0:
320,192,22923,1,0,0:0:0:0:
320,192,23099,1,0,0:0:0:0:
64,192,23276,1,0,0:0:0:0:
192,192,23276,1,0,0:0:0:0:
320,192,23364,1,0,0:0:0:0:
448,192,23364,1,0,0:0:0:0:
64,192,23452,1,0,0:0:0:0:
320,192,23541,1,0,0:0:0:0:
192,192,23629,1,0,0:0:0:0:
448,192,23629,1,0,0:0:0:0:
448,192,23805,1,0,0:0:0:0:
64,192,23982,1,0,0:0:0:0:
192,192,23982,1,0,0:0:0:0:
320,192,24158,1,0,0:0:0:0:
64,192,24246,1,0,0:0:0:0:
192,192,24335,1,0,0:0:0:0:
448,192,24335,1,0,0:0:0:0:
448,192,24511,1,0,0:0:0:0:
192,192,24688,1,0,0:0:0:0:
320,192,24688,1,0,0:0:0:0:
64,192,24864,1,0,0:0:0:0:
448,192,24952,1,0,0:0:0:0:
64,192,25041,1,0,0:0:0:0:
320,192,25041,1,0,0:0:0:0:
320,192,25217,1,0,0:0:0:0:
192,192,25393,1,0,0:0:0:0:
448,192,25393,1,0,0:0:0:0:
64,192,25570,1,0,0:0:0:0:
320,192,25658,1,0,0:0:0:0:
64,192,25746,1,0,0:0:0:0:
192,192,25746,1,0,0:0:0:0:
192,192,25923,1,0,0:0:0:0:
320,192,26099,1,0,0:0:0:0:
448,192,26099,1,0,0:0:0:0:
192,192,26276,1,0,0:0:0:0:
448,192,26364,1,0,0:0:0:0:
320,192,26364,1,0,0:0:0:0:
64,192,26452,1,0,0:0:0:0:
192,192,26452,1,0,0:0:0:0:
64,192,26629,1,0,0:0:0:0:
320,192,26805,1,0,0:0:0:0:
448,192,26805,1,0,0:0:0:0:
320,192,26982,1,0,0:0:0:0:
64,192,27070,1,0,0:0:0:0:
192,192,27158,1,0,0:0:0:0:
448,192,27158,1,0,0:0:0:0:
448,192,27335,1,0,0:0:0:0:
64,192,27511,1,0,0:0:0:0:
192,192,27511,1,0,0:0:0:0:
64,192,27688,1,0,0:0:0:0:
448,192,27776,1,0,0:0:0:0:
192,192,27864,1,0,0:0:0:0:
320,192,27864,1,0,0:0:0:0:
192,192,28041,1,0,0:0:0:0:
320,192,28217,1,0,0:0:0:0:
448,192,28217,1,0,0:0:0:0:
448,192,28393,1,0,0:0:0:0:
192,192,28482,5,0,0:0:0:0:
320,192,28570,1,0,0:0:0:0:
64,192,28570,1,0,0:0:0:0:
320,192,28746,1,0,0:0:0:0:
64,192,28923,1,0,0:0:0:0:
192,192,28923,1,0,0:0:0:0:
320,192,29011,1,0,0:0:0:0:
448,192,29011,1,0,0:0:0:0:
192,192,29099,1,0,0:0:0:0:
448,192,29188,1,0,0:0:0:0:
64,192,29276,1,0,0:0:0:0:
320,192,29276,1,0,0:0:0:0:
64,192,29452,1,0,0:0:0:0:
192,192,29629,5,0,0:0:0:0:
448,192,29629,1,0,0:0:0:0:
64,192,29717,1,0,0:0:0:0:
448,192,29805,1,0,0:0:0:0:
192,192,29893,1,0,0:0:0:0:
64,192,29982,1,0,0:0:0:0:
320,192,29982,1,0,0:0:0:0:
448,192,30070,1,0,0:0:0:0:
64,192,30158,1,0,0:0:0:0:
320,192,30335,1,0,0:0:0:0:
448,192,30335,1,0,0:0:0:0:
64,192,30423,1,0,0:0:0:0:
320,192,30511,1,0,0:0:0:0:
448,192,30599,1,0,0:0:0:0:
64,192,30688,1,0,0:0:0:0:
192,192,30688,1,0,0:0:0:0:
448,192,30776,1,0,0:0:0:0:
192,192,30864,1,0,0:0:0:0:
64,192,31041,1,0,0:0:0:0:
320,192,31041,1,0,0:0:0:0:
448,192,31129,1,0,0:0:0:0:
64,192,31217,1,0,0:0:0:0:
320,192,31305,1,0,0:0:0:0:
192,192,31393,1,0,0:0:0:0:
448,192,31393,1,0,0:0:0:0:
64,192,31482,1,0,0:0:0:0:
448,192,31570,1,0,0:0:0:0:
64,192,31746,1,0,0:0:0:0:
448,192,31746,1,0,0:0:0:0:
320,192,31835,1,0,0:0:0:0:
192,192,31923,1,0,0:0:0:0:
64,192,32011,1,0,0:0:0:0:
448,192,32011,1,0,0:0:0:0:
320,192,32099,1,0,0:0:0:0:
192,192,32099,1,0,0:0:0:0:
448,192,32188,1,0,0:0:0:0:
64,192,32276,1,0,0:0:0:0:
320,192,32452,1,0,0:0:0:0:
448,192,32452,1,0,0:0:0:0:
192,192,32541,1,0,0:0:0:0:
448,192,32629,1,0,0:0:0:0:
64,192,32717,1,0,0:0:0:0:
192,192,32805,1,0,0:0:0:0:
320,192,32805,1,0,0:0:0:0:
64,192,32893,1,0,0:0:0:0:
320,192,32982,1,0,0:0:0:0:
448,192,33158,1,0,0:0:0:0:
192,192,33158,1,0,0:0:0:0:
64,192,33246,1,0,0:0:0:0:
448,192,33335,1,0,0:0:0:0:
192,192,33423,1,0,0:0:0:0:
64,192,33511,1,0,0:0:0:0:
320,192,33511,1,0,0:0:0:0:
448,192,33599,1,0,0:0:0:0:
64,192,33688,1,0,0:0:0:0:
192,192,33864,1,0,0:0:0:0:
320,192,33864,1,0,0:0:0:0:
448,192,33952,1,0,0:0:0:0:
320,192,34041,1,0,0:0:0:0:
64,192,34129,1,0,0:0:0:0:
192,192,34217,1,0,0:0:0:0:
448,192,34217,1,0,0:0:0:0:
64,192,34305,1,0,0:0:0:0:
320,192,34393,1,0,0:0:0:0:
64,192,34570,1,0,0:0:0:0:
192,192,34570,1,0,0:0:0:0:
320,192,34658,1,0,0:0:0:0:
448,192,34658,1,0,0:0:0:0:
64,192,34746,1,0,0:0:0:0:
320,192,34835,1,0,0:0:0:0:
192,192,34923,1,0,0:0:0:0:
448,192,34923,1,0,0:0:0:0:
64,192,35011,1,0,0:0:0:0:
448,192,35099,1,0,0:0:0:0:
320,192,35276,1,0,0:0:0:0:
64,192,35276,1,0,0:0:0:0:
448,192,35364,1,0,0:0:0:0:
64,192,35452,1,0,0:0:0:0:
320,192,35541,1,0,0:0:0:0:
448,192,35629,1,0,0:0:0:0:
192,192,35629,1,0,0:0:0:0:
64,192,35717,1,0,0:0:0:0:
448,192,35805,1,0,0:0:0:0:
192,192,35982,1,0,0:0:0:0:
64,192,35982,1,0,0:0:0:0:
448,192,36070,1,0,0:0:0:0:
192,192,36158,1,0,0:0:0:0:
64,192,36246,1,0,0:0:0:0:
448,192,36335,1,0,0:0:0:0:
320,192,36335,1,0,0:0:0:0:
64,192,36423,1,0,0:0:0:0:
320,192,36511,1,0,0:0:0:0:
448,192,36688,1,0,0:0:0:0:
192,192,36688,1,0,0:0:0:0:
64,192,36776,1,0,0:0:0:0:
448,192,36864,1,0,0:0:0:0:
192,192,36952,1,0,0:0:0:0:
320,192,37041,1,0,0:0:0:0:
64,192,37041,1,0,0:0:0:0:
448,192,37129,1,0,0:0:0:0:
64,192,37217,1,0,0:0:0:0:
448,192,37393,1,0,0:0:0:0:
64,192,37393,1,0,0:0:0:0:
192,192,37482,1,0,0:0:0:0:
320,192,37570,1,0,0:0:0:0:
448,192,37658,1,0,0:0:0:0:
64,192,37658,1,0,0:0:0:0:
192,192,37746,1,0,0:0:0:0:
320,192,37746,1,0,0:0:0:0:
64,192,37835,1,0,0:0:0:0:
448,192,37923,1,0,0:0:0:0:
192,192,38099,1,0,0:0:0:0:
64,192,38099,1,0,0:0:0:0:
320,192,38188,1,0,0:0:0:0:
64,192,38276,1,0,0:0:0:0:
448,192,38364,1,0,0:0:0:0:
320,192,38452,1,0,0:0:0:0:
192,192,38452,1,0,0:0:0:0:
448,192,38541,1,0,0:0:0:0:
192,192,38629,1,0,0:0:0:0:
64,192,38805,1,0,0:0:0:0:
320,192,38805,1,0,0:0:0:0:
448,192,38893,1,0,0:0:0:0:
64,192,38982,1,0,0:0:0:0:
320,192,39070,1,0,0:0:0:0:
448,192,39158,1,0,0:0:0:0:
192,192,39158,1,0,0:0:0:0:
64,192,39246,1,0,0:0:0:0:
448,192,39335,1,0,0:0:0:0:
320,192,39511,1,0,0:0:0:0:
192,192,39511,1,0,0:0:0:0:
64,192,39599,1,0,0:0:0:0:
192,192,39688,1,0,0:0:0:0:
448,192,39776,1,0,0:0:0:0:
320,192,39864,1,0,0:0:0:0:
64,192,39864,1,0,0:0:0:0:
448,192,39952,1,0,0:0:0:0:
192,192,40041,1,0,0:0:0:0:
448,192,40217,1,0,0:0:0:0:
320,192,40217,1,0,0:0:0:0:
192,192,40305,1,0,0:0:0:0:
64,192,40305,1,0,0:0:0:0:
448,192,40393,1,0,0:0:0:0:
192,192,40482,1,0,0:0:0:0:
320,192,40570,1,0,0:0:0:0:
64,192,40570,1,0,0:0:0:0:
448,192,40658,1,0,0:0:0:0:
64,192,40746,1,0,0:0:0:0:
192,192,40923,1,0,0:0:0:0:
448,192,40923,1,0,0:0:0:0:
64,192,41011,1,0,0:0:0:0:
448,192,41099,1,0,0:0:0:0:
192,192,41188,1,0,0:0:0:0:
64,192,41276,1,0,0:0:0:0:
320,192,41276,1,0,0:0:0:0:
448,192,41364,1,0,0:0:0:0:
64,192,41452,1,0,0:0:0:0:
320,192,41629,1,0,0:0:0:0:
448,192,41629,1,0,0:0:0:0:
64,192,41717,1,0,0:0:0:0:
320,192,41805,1,0,0:0:0:0:
448,192,41893,1,0,0:0:0:0:
64,192,41982,1,0,0:0:0:0:
192,192,41982,1,0,0:0:0:0:
448,192,42070,1,0,0:0:0:0:
192,192,42158,1,0,0:0:0:0:
64,192,42335,1,0,0:0:0:0:
320,192,42335,1,0,0:0:0:0:
448,192,42423,1,0,0:0:0:0:
64,192,42511,1,0,0:0:0:0:
320,192,42599,1,0,0:0:0:0:
192,192,42688,1,0,0:0:0:0:
448,192,42688,1,0,0:0:0:0:
64,192,42776,1,0,0:0:0:0:
448,192,42864,1,0,0:0:0:0:
64,192,43041,1,0,0:0:0:0:
448,192,43041,1,0,0:0:0:0:
320,192,43129,1,0,0:0:0:0:
192,192,43217,1,0,0:0:0:0:
64,192,43305,1,0,0:0:0:0:
448,192,43305,1,0,0:0:0:0:
320,192,43393,1,0,0:0:0:0:
192,192,43393,1,0,0:0:0:0:
448,192,43482,1,0,0:0:0:0:
64,192,43570,1,0,0:0:0:0:
320,192,43746,1,0,0:0:0:0:
448,192,43746,1,0,0:0:0:0:
192,192,43835,1,0,0:0:0:0:
448,192,43923,1,0,0:0:0:0:
64,192,44011,1,0,0:0:0:0:
192,192,44099,1,0,0:0:0:0:
320,192,44099,1,0,0:0:0:0:
64,192,44188,1,0,0:0:0:0:
320,192,44276,1,0,0:0:0:0:
448,192,44452,1,0,0:0:0:0:
192,192,44452,1,0,0:0:0:0:
64,192,44541,1,0,0:0:0:0:
448,192,44629,1,0,0:0:0:0:
192,192,44717,1,0,0:0:0:0:
64,192,44805,1,0,0:0:0:0:
320,192,44805,1,0,0:0:0:0:
448,192,44893,1,0,0:0:0:0:
64,192,44982,1,0,0:0:0:0:
192,192,45158,1,0,0:0:0:0:
320,192,45158,1,0,0:0:0:0:
448,192,45246,1,0,0:0:0:0:
320,192,45335,1,0,0:0:0:0:
64,192,45423,1,0,0:0:0:0:
192,192,45511,1,0,0:0:0:0:
448,192,45511,1,0,0:0:0:0:
64,192,45599,1,0,0:0:0:0:
320,192,45688,1,0,0:0:0:0:
64,192,45864,1,0,0:0:0:0:
192,192,45864,1,0,0:0:0:0:
320,192,45952,1,0,0:0:0:0:
448,192,45952,1,0,0:0:0:0:
64,192,46041,1,0,0:0:0:0:
320,192,46129,1,0,0:0:0:0:
192,192,46217,1,0,0:0:0:0:
448,192,46217,1,0,0:0:0:0:
64,192,46305,1,0,0:0:0:0:
448,192,46393,1,0,0:0:0:0:
320,192,46570,1,0,0:0:0:0:
64,192,46570,1,0,0:0:0:0:
448,192,46658,1,0,0:0:0:0:
64,192,46746,1,0,0:0:0:0:
320,192,46835,1,0,0:0:0:0:
448,192,46923,1,0,0:0:0:0:
192,192,46923,1,0,0:0:0:0:
64,192,47011,1,0,0:0:0:0:
448,192,47099,1,0,0:0:0:0:
192,192,47276,1,0,0:0:0:0:
64,192,47276,1,0,0:0:0:0:
448,192,47364,1,0,0:0:0:0:
192,192,47452,1,0,0:0:0:0:
64,192,47541,1,0,0:0:0:0:
448,192,47629,1,0,0:0:0:0:
320,192,47629,1,0,0:0:0:0:
64,192,47717,1,0,0:0:0:0:
320,192,47805,1,0,0:0:0:0:
448,192,47982,1,0,0:0:0:0:
192,192,47982,1,0,0:0:0:0:
64,192,48070,1,0,0:0:0:0:
448,192,48158,1,0,0:0:0:0:
192,192,48246,1,0,0:0:0:0:
320,192,48335,1,0,0:0:0:0:
64,192,48335,1,0,0:0:0:0:
448,192,48423,1,0,0:0:0:0:
64,192,48511,1,0,0:0:0:0:
448,192,48688,1,0,0:0:0:0:
64,192,48688,1,0,0:0:0:0:
192,192,48776,1,0,0:0:0:0:
320,192,48864,1,0,0:0:0:0:
448,192,48952,1,0,0:0:0:0:
64,192,48952,1,0,0:0:0:0:
192,192,49041,1,0,0:0:0:0:
320,192,49041,1,0,0:0:0:0:
64,192,49129,1,0,0:0:0:0:
448,192,49217,1,0,0:0:0:0:
192,192,49393,1,0,0:0:0:0:
64,192,49393,1,0,0:0:0:0:
320,192,49482,1,0,0:0:0:0:
64,192,49570,1,0,0:0:0:0:
448,192,49658,1,0,0:0:0:0:
320,192,49746,1,0,0:0:0:0:
192,192,49746,1,0,0:0:0:0:
448,192,49835,1,0,0:0:0:0:
192,192,49923,1,0,0:0:0:0:
64,192,50099,1,0,0:0:0:0:
320,192,50099,1,0,0:0:0:0:
448,192,50188,1,0,0:0:0:0:
64,192,50276,1,0,0:0:0:0:
320,192,50364,1,0,0:0:0:0:
448,192,50452,1,0,0:0:0:0:
192,192,50452,1,0,0:0:0:0:
64,192,50541,1,0,0:0:0:0:
448,192,50629,1,0,0:0:0:0:
320,192,50805,1,0,0:0:0:0:
192,192,50805,1,0,0:0:0:0:
64,192,50893,1,0,0:0:0:0:
192,192,50982,1,0,0:0:0:0:
448,192,51070,1,0,0:0:0:0:
320,192,51158,1,0,0:0:0:0:
64,192,51158,1,0,0:0:0:0:
448,192,51246,1,0,0:0:0:0:
192,192,51335,1,0,0:0:0:0:
320,192,51423,1,0,0:0:0:0:
64,192,51511,1,0,0:0:0:0:
448,192,51599,1,0,0:0:0:0:
192,192,51688,1,0,0:0:0:0:
448,192,51776,1,0,0:0:0:0:
64,192,51864,1,0,0:0:0:0:
320,192,51952,1,0,0:0:0:0:
64,192,52041,1,0,0:0:0:0:
448,192,52129,1,0,0:0:0:0:
192,192,52217,1,0,0:0:0:0:
320,192,52217,1,0,0:0:0:0:
192,192,52393,1,0,0:0:0:0:
64,192,52482,1,0,0:0:0:0:
320,192,52570,1,0,0:0:0:0:
448,192,52570,1,0,0:0:0:0:
192,192,52746,1,0,0:0:0:0:
448,192,52835,1,0,0:0:0:0:
320,192,52923,1,0,0:0:0:0:
192,192,53011,1,0,0:0:0:0:
320,192,53099,1,0,0:0:0:0:
64,192,53188,1,0,0:0:0:0:
192,192,53276,1,0,0:0:0:0:
448,192,53276,1,0,0:0:0:0:
320,192,53452,1,0,0:0:0:0:
192,192,53452,1,0,0:0:0:0:
448,192,53629,1,0,0:0:0:0:
64,192,53805,1,0,0:0:0:0:
192,192,53893,1,0,0:0:0:0:
320,192,53982,1,0,0:0:0:0:
448,192,53982,1,0,0:0:0:0:
192,192,54158,1,0,0:0:0:0:
448,192,54246,1,0,0:0:0:0:
64,192,54335,1,0,0:0:0:0:
320,192,54335,1,0,0:0:0:0:
192,192,54423,1,0,0:0:0:0:
64,192,54511,1,0,0:0:0:0:
320,192,54599,1,0,0:0:0:0:
448,192,54599,1,0,0:0:0:0:
64,192,54688,1,0,0:0:0:0:
192,192,54688,1,0,0:0:0:0:
448,192,54864,1,0,0:0:0:0:
192,192,54864,1,0,0:0:0:0:
320,192,55041,1,0,0:0:0:0:
448,192,55041,1,0,0:0:0:0:
192,192,55217,1,0,0:0:0:0:
448,192,55305,1,0,0:0:0:0:
64,192,55393,1,0,0:0:0:0:
320,192,55393,1,0,0:0:0:0:
192,192,55570,1,0,0:0:0:0:
320,192,55658,1,0,0:0:0:0:
64,192,55746,1,0,0:0:0:0:
192,192,55746,1,0,0:0:0:0:
448,192,55835,1,0,0:0:0:0:
64,192,55923,1,0,0:0:0:0:
448,192,56011,1,0,0:0:0:0:
64,192,56099,1,0,0:0:0:0:
320,192,56099,1,0,0:0:0:0:
192,192,56276,1,0,0:0:0:0:
448,192,56276,1,0,0:0:0:0:
64,192,56452,1,0,0:0:0:0:
320,192,56629,1,0,0:0:0:0:
64,192,56717,1,0,0:0:0:0:
192,192,56805,1,0,0:0:0:0:
448,192,56805,1,0,0:0:0:0:
64,192,56893,1,0,0:0:0:0:
320,192,56893,1,0,0:0:0:0:
448,192,56982,1,0,0:0:0:0:
192,192,57158,1,0,0:0:0:0:
448,192,57246,1,0,0:0:0:0:
192,192,57335,1,0,0:0:0:0:
64,192,57423,1,0,0:0:0:0:
448,192,57511,1,0,0:0:0:0:
320,192,57511,1,0,0:0:0:0:
192,192,57599,1,0,0:0:0:0:
448,192,57688,1,0,0:0:0:0:
64,192,57776,1,0,0:0:0:0:
192,192,57864,1,0,0:0:0:0:
320,192,57864,1,0,0:0:0:0:
448,192,58041,1,0,0:0:0:0:
64,192,58129,1,0,0:0:0:0:
192,192,58217,1,0,0:0:0:0:
448,192,58217,1,0,0:0:0:0:
320,192,58393,1,0,0:0:0:0:
64,192,58482,1,0,0:0:0:0:
320,192,58570,1,0,0:0:0:0:
448,192,58658,1,0,0:0:0:0:
64,192,58746,1,0,0:0:0:0:
320,192,58835,1,0,0:0:0:0:
448,192,58923,1,0,0:0:0:0:
192,192,58923,1,0,0:0:0:0:
64,192,59099,1,0,0:0:0:0:
320,192,59099,1,0,0:0:0:0:
192,192,59276,1,0,0:0:0:0:
320,192,59452,1,0,0:0:0:0:
448,192,59541,1,0,0:0:0:0:
64,192,59629,1,0,0:0:0:0:
192,192,59629,1,0,0:0:0:0:
320,192,59805,1,0,0:0:0:0:
64,192,59893,1,0,0:0:0:0:
448,192,59982,1,0,0:0:0:0:
192,192,60070,1,0,0:0:0:0:
320,192,60158,1,0,0:0:0:0:
64,192,60246,1,0,0:0:0:0:
192,192,60246,1,0,0:0:0:0:
320,192,60335,1,0,0:0:0:0:
448,192,60335,1,0,0:0:0:0:
64,192,60511,1,0,0:0:0:0:
448,192,60511,1,0,0:0:0:0:
64,192,60688,1,0,0:0:0:0:
192,192,60688,1,0,0:0:0:0:
320,192,60864,1,0,0:0:0:0:
192,192,60952,1,0,0:0:0:0:
64,192,61041,1,0,0:0:0:0:
448,192,61041,1,0,0:0:0:0:
320,192,61217,1,0,0:0:0:0:
448,192,61305,1,0,0:0:0:0:
64,192,61393,1,0,0:0:0:0:
320,192,61482,1,0,0:0:0:0:
192,192,61570,1,0,0:0:0:0:
448,192,61658,1,0,0:0:0:0:
64,192,61746,1,0,0:0:0:0:
320,192,61746,1,0,0:0:0:0:
320,192,61923,1,0,0:0:0:0:
192,192,62011,1,0,0:0:0:0:
448,192,62011,1,0,0:0:0:0:
64,192,62099,1,0,0:0:0:0:
320,192,62099,1,0,0:0:0:0:
448,192,62276,1,0,0:0:0:0:
64,192,62452,1,0,0:0:0:0:
192,192,62452,1,0,0:0:0:0:
320,192,62541,1,0,0:0:0:0:
448,192,62541,1,0,0:0:0:0:
192,192,62629,1,0,0:0:0:0:
320,192,62717,1,0,0:0:0:0:
64,192,62805,1,0,0:0:0:0:
448,192,62893,1,0,0:0:0:0:
192,192,62982,1,0,0:0:0:0:
320,192,63070,1,0,0:0:0:0:
192,192,63158,1,0,0:0:0:0:
448,192,63158,1,0,0:0:0:0:
64,192,63335,1,0,0:0:0:0:
320,192,63335,1,0,0:0:0:0:
320,192,63511,1,0,0:0:0:0:
192,192,63511,1,0,0:0:0:0:
320,192,63688,1,0,0:0:0:0:
448,192,63776,1,0,0:0:0:0:
192,192,63864,1,0,0:0:0:0:
64,192,63864,1,0,0:0:0:0:
320,192,64041,1,0,0:0:0:0:
64,192,64129,1,0,0:0:0:0:
192,192,64217,1,0,0:0:0:0:
320,192,64305,1,0,0:0:0:0:
192,192,64393,1,0,0:0:0:0:
448,192,64482,1,0,0:0:0:0:
320,192,64570,1,0,0:0:0:0:
64,192,64570,1,0,0:0:0:0:
192,192,64746,1,0,0:0:0:0:
320,192,64746,1,0,0:0:0:0:
64,192,64923,1,0,0:0:0:0:
448,192,65099,1,0,0:0:0:0:
320,192,65188,1,0,0:0:0:0:
192,192,65276,1,0,0:0:0:0:
64,192,65276,1,0,0:0:0:0:
320,192,65452,1,0,0:0:0:0:
64,192,65541,1,0,0:0:0:0:
448,192,65629,1,0,0:0:0:0:
192,192,65629,1,0,0:0:0:0:
320,192,65717,1,0,0:0:0:0:
448,192,65805,1,0,0:0:0:0:
192,192,65893,1,0,0:0:0:0:
64,192,65893,1,0,0:0:0:0:
448,192,65982,1,0,0:0:0:0:
320,192,65982,1,0,0:0:0:0:
64,192,66158,1,0,0:0:0:0:
320,192,66158,1,0,0:0:0:0:
192,192,66335,1,0,0:0:0:0:
64,192,66335,1,0,0:0:0:0:
320,192,66511,1,0,0:0:0:0:
64,192,66599,1,0,0:0:0:0:
448,192,66688,1,0,0:0:0:0:
192,192,66688,1,0,0:0:0:0:
320,192,66864,1,0,0:0:0:0:
192,192,66952,1,0,0:0:0:0:
448,192,67041,1,0,0:0:0:0:
320,192,67041,1,0,0:0:0:0:
64,192,67129,1,0,0:0:0:0:
448,192,67217,1,0,0:0:0:0:
64,192,67305,1,0,0:0:0:0:
448,192,67393,1,0,0:0:0:0:
192,192,67393,1,0,0:0:0:0:
320,192,67570,1,0,0:0:0:0:
64,192,67570,1,0,0:0:0:0:
448,192,67746,1,0,0:0:0:0:
192,192,67923,1,0,0:0:0:0:
448,192,68011,1,0,0:0:0:0:
320,192,68099,1,0,0:0:0:0:
64,192,68099,1,0,0:0:0:0:
448,192,68188,1,0,0:0:0:0:
192,192,68188,1,0,0:0:0:0:
64,192,68276,1,0,0:0:0:0:
320,192,68452,1,0,0:0:0:0:
64,192,68541,1,0,0:0:0:0:
320,192,68629,1,0,0:0:0:0:
448,192,68717,1,0,0:0:0:0:
64,192,68805,1,0,0:0:0:0:
192,192,68805,1,0,0:0:0:0:
320,192,68893,1,0,0:0:0:0:
64,192,68982,1,0,0:0:0:0:
448,192,69070,1,0,0:0:0:0:
320,192,69158,1,0,0:0:0:0:
192,192,69158,1,0,0:0:0:0:
64,192,69335,1,0,0:0:0:0:
448,192,69423,1,0,0:0:0:0:
320,192,69511,1,0,0:0:0:0:
64,192,69511,1,0,0:0:0:0:
192,192,69688,1,0,0:0:0:0:
448,192,69776,1,0,0:0:0:0:
192,192,69864,1,0,0:0:0:0:
64,192,69952,1,0,0:0:0:0:
448,192,70041,1,0,0:0:0:0:
192,192,70129,1,0,0:0:0:0:
64,192,70217,1,0,0:0:0:0:
320,192,70217,1,0,0:0:0:0:
448,192,70393,1,0,0:0:0:0:
192,192,70393,1,0,0:0:0:0:
320,192,70570,1,0,0:0:0:0:
192,192,70746,1,0,0:0:0:0:
64,192,70835,1,0,0:0:0:0:
448,192,70923,1,0,0:0:0:0:
320,192,70923,1,0,0:0:0:0:
192,192,71099,1,0,0:0:0:0:
448,192,71188,1,0,0:0:0:0:
64,192,71276,1,0,0:0:0:0:
320,192,71364,1,0,0:0:0:0:
192,192,71452,1,0,0:0:0:0:
448,192,71541,1,0,0:0:0:0:
320,192,71541,1,0,0:0:0:0:
192,192,71629,1,0,0:0:0:0:
64,192,71629,1,0,0:0:0:0:
448,192,71805,1,0,0:0:0:0:
64,192,71805,1,0,0:0:0:0:
448,192,71982,1,0,0:0:0:0:
320,192,71982,1,0,0:0:0:0:
192,192,72158,1,0,0:0:0:0:
320,192,72246,1,0,0:0:0:0:
448,192,72335,1,0,0:0:0:0:
64,192,72335,1,0,0:0:0:0:
192,192,72511,1,0,0:0:0:0:
64,192,72599,1,0,0:0:0:0:
448,192,72688,1,0,0:0:0:0:
192,192,72776,1,0,0:0:0:0:
320,192,72864,1,0,0:0:0:0:
64,192,72952,1,0,0:0:0:0:
448,192,73041,1,0,0:0:0:0:
192,192,73041,1,0,0:0:0:0:
192,192,73217,1,0,0:0:0:0:
320,192,73305,1,0,0:0:0:0:
64,192,73305,1,0,0:0:0:0:
448,192,73393,1,0,0:0:0:0:
192,192,73393,1,0,0:0:0:0:
64,192,73570,1,0,0:0:0:0:
448,192,73746,1,0,0:0:0:0:
320,192,73746,1,0,0:0:0:0:
192,192,73835,1,0,0:0:0:0:
64,192,73835,1,0,0:0:0:0:
320,192,73923,1,0,0:0:0:0:
192,192,74011,1,0,0:0:0:0:
448,192,74099,1,0,0:0:0:0:
64,192,74188,1,0,0:0:0:0:
320,192,74276,1,0,0:0:0:0:
192,192,74364,1,0,0:0:0:0:
320,192,74452,1,0,0:0:0:0:
64,192,74452,1,0,0:0:0:0:
448,192,74629,1,0,0:0:0:0:
192,192,74629,1,0,0:0:0:0:
64,192,74805,1,0,0:0:0:0:
192,192,74805,1,0,0:0:0:0:
448,192,74893,1,0,0:0:0:0:
320,192,74982,1,0,0:0:0:0:
192,192,75070,1,0,0:0:0:0:
64,192,75158,1,0,0:0:0:0:
448,192,75158,1,0,0:0:0:0:
192,192,75246,1,0,0:0:0:0:
320,192,75335,1,0,0:0:0:0:
192,192,75511,1,0,0:0:0:0:
448,192,75511,1,0,0:0:0:0:
64,192,75599,1,0,0:0:0:0:
448,192,75688,1,0,0:0:0:0:
320,192,75776,1,0,0:0:0:0:
64,192,75864,1,0,0:0:0:0:
192,192,75864,1,0,0:0:0:0:
448,192,75952,1,0,0:0:0:0:
192,192,76041,1,0,0:0:0:0:
320,192,76041,1,0,0:0:0:0:
448,192,76217,1,0,0:0:0:0:
64,192,76217,1,0,0:0:0:0:
320,192,76305,1,0,0:0:0:0:
192,192,76393,1,0,0:0:0:0:
448,192,76482,1,0,0:0:0:0:
64,192,76570,1,0,0:0:0:0:
320,192,76570,1,0,0:0:0:0:
448,192,76658,1,0,0:0:0:0:
64,192,76746,1,0,0:0:0:0:
192,192,76923,1,0,0:0:0:0:
448,192,76923,1,0,0:0:0:0:
320,192,77011,1,0,0:0:0:0:
192,192,77099,1,0,0:0:0:0:
64,192,77188,1,0,0:0:0:0:
448,192,77188,1,0,0:0:0:0:
320,192,77276,1,0,0:0:0:0:
192,192,77276,1,0,0:0:0:0:
448,192,77364,1,0,0:0:0:0:
64,192,77452,1,0,0:0:0:0:
320,192,77452,1,0,0:0:0:0:
64,192,77629,1,0,0:0:0:0:
192,192,77629,1,0,0:0:0:0:
320,192,77717,1,0,0:0:0:0:
192,192,77805,1,0,0:0:0:0:
448,192,77893,1,0,0:0:0:0:
64,192,77982,1,0,0:0:0:0:
320,192,77982,1,0,0:0:0:0:
448,192,78070,1,0,0:0:0:0:
192,192,78158,1,0,0:0:0:0:
64,192,78335,1,0,0:0:0:0:
448,192,78335,1,0,0:0:0:0:
320,192,78423,1,0,0:0:0:0:
64,192,78511,1,0,0:0:0:0:
320,192,78599,1,0,0:0:0:0:
192,192,78688,1,0,0:0:0:0:
448,192,78688,1,0,0:0:0:0:
64,192,78776,1,0,0:0:0:0:
320,192,78864,1,0,0:0:0:0:
448,192,78864,1,0,0:0:0:0:
64,192,79041,1,0,0:0:0:0:
192,192,79041,1,0,0:0:0:0:
448,192,79129,1,0,0:0:0:0:
64,192,79217,1,0,0:0:0:0:
320,192,79305,1,0,0:0:0:0:
192,192,79393,1,0,0:0:0:0:
448,192,79393,1,0,0:0:0:0:
64,192,79482,1,0,0:0:0:0:
320,192,79482,1,0,0:0:0:0:
192,192,79570,1,0,0:0:0:0:
448,192,79746,1,0,0:0:0:0:
64,192,79746,1,0,0:0:0:0:
320,192,79835,1,0,0:0:0:0:
192,192,79923,1,0,0:0:0:0:
64,192,80011,1,0,0:0:0:0:
320,192,80099,1,0,0:0:0:0:
448,192,80099,1,0,0:0:0:0:
192,192,80188,1,0,0:0:0:0:
448,192,80276,1,0,0:0:0:0:
64,192,80452,1,0,0:0:0:0:
192,192,80452,1,0,0:0:0:0:
320,192,80541,1,0,0:0:0:0:
64,192,80629,1,0,0:0:0:0:
320,192,80717,1,0,0:0:0:0:
192,192,80805,1,0,0:0:0:0:
448,192,80805,1,0,0:0:0:0:
64,192,80893,1,0,0:0:0:0:
320,192,80982,1,0,0:0:0:0:
320,192,81158,1,0,0:0:0:0:
448,192,81158,1,0,0:0:0:0:
192,192,81246,1,0,0:0:0:0:
448,192,81335,1,0,0:0:0:0:
192,192,81423,1,0,0:0:0:0:
64,192,81511,1,0,0:0:0:0:
320,192,81511,1,0,0:0:0:0:
448,192,81599,1,0,0:0:0:0:
64,192,81688,1,0,0:0:0:0:
192,192,81688,1,0,0:0:0:0:
64,192,81864,1,0,0:0:0:0:
320,192,81864,1,0,0:0:0:0:
448,192,81952,1,0,0:0:0:0:
320,192,82041,1,0,0:0:0:0:
192,192,82129,1,0,0:0:0:0:
64,192,82217,1,0,0:0:0:0:
448,192,82217,1,0,0:0:0:0:
192,192,82305,1,0,0:0:0:0:
320,192,82393,1,0,0:0:0:0:
192,192,82570,1,0,0:0:0:0:
448,192,82570,1,0,0:0:0:0:
64,192,82658,1,0,0:0:0:0:
192,192,82746,1,0,0:0:0:0:
320,192,82835,1,0,0:0:0:0:
448,192,82835,1,0,0:0:0:0:
64,192,82923,1,0,0:0:0:0:
192,192,82923,1,0,0:0:0:0:
320,192,83011,1,0,0:0:0:0:
64,192,83099,1,0,0:0:0:0:
448,192,83099,1,0,0:0:0:0:
192,192,83276,1,0,0:0:0:0:
320,192,83276,1,0,0:0:0:0:
64,192,83364,1,0,0:0:0:0:
192,192,83452,1,0,0:0:0:0:
320,192,83541,1,0,0:0:0:0:
64,192,83629,1,0,0:0:0:0:
448,192,83629,1,0,0:0:0:0:
192,192,83717,1,0,0:0:0:0:
64,192,83805,1,0,0:0:0:0:
192,192,83982,1,0,0:0:0:0:
320,192,83982,1,0,0:0:0:0:
448,192,84070,1,0,0:0:0:0:
320,192,84158,1,0,0:0:0:0:
192,192,84246,1,0,0:0:0:0:
64,192,84335,1,0,0:0:0:0:
448,192,84335,1,0,0:0:0:0:
448,192,84511,1,0,0:0:0:0:
64,192,84599,1,0,0:0:0:0:
320,192,84599,1,0,0:0:0:0:
192,192,84688,1,0,0:0:0:0:
448,192,84688,1,0,0:0:0:0:
64,192,84776,1,0,0:0:0:0:
320,192,84864,1,0,0:0:0:0:
192,192,84952,1,0,0:0:0:0:
320,192,85041,1,0,0:0:0:0:
448,192,85041,1,0,0:0:0:0:
64,192,85129,1,0,0:0:0:0:
192,192,85129,1,0,0:0:0:0:
320,192,85217,1,0,0:0:0:0:
192,192,85393,1,0,0:0:0:0:
448,192,85393,1,0,0:0:0:0:
64,192,85482,1,0,0:0:0:0:
448,192,85570,1,0,0:0:0:0:
192,192,85658,1,0,0:0:0:0:
64,192,85746,1,0,0:0:0:0:
448,192,85746,1,0,0:0:0:0:
320,192,85835,1,0,0:0:0:0:
64,192,85923,1,0,0:0:0:0:
192,192,85923,1,0,0:0:0:0:
448,192,86099,1,0,0:0:0:0:
320,192,86099,1,0,0:0:0:0:
64,192,86188,1,0,0:0:0:0:
192,192,86276,1,0,0:0:0:0:
320,192,86364,1,0,0:0:0:0:
448,192,86452,1,0,0:0:0:0:
64,192,86452,1,0,0:0:0:0:
320,192,86541,1,0,0:0:0:0:
192,192,86629,1,0,0:0:0:0:
320,192,86805,1,0,0:0:0:0:
64,192,86805,1,0,0:0:0:0:
448,192,86893,1,0,0:0:0:0:
64,192,86982,1,0,0:0:0:0:
320,192,87070,1,0,0:0:0:0:
448,192,87158,1,0,0:0:0:0:
192,192,87158,1,0,0:0:0:0:
64,192,87246,1,0,0:0:0:0:
320,192,87335,1,0,0:0:0:0:
192,192,87335,1,0,0:0:0:0:
448,192,87511,1,0,0:0:0:0:
64,192,87511,1,0,0:0:0:0:
192,192,87599,1,0,0:0:0:0:
320,192,87688,1,0,0:0:0:0:
64,192,87776,1,0,0:0:0:0:
448,192,87864,1,0,0:0:0:0:
192,192,87864,1,0,0:0:0:0:
64,192,87952,1,0,0:0:0:0:
448,192,88041,1,0,0:0:0:0:
320,192,88217,1,0,0:0:0:0:
64,192,88217,1,0,0:0:0:0:
192,192,88305,1,0,0:0:0:0:
320,192,88393,1,0,0:0:0:0:
448,192,88482,1,0,0:0:0:0:
64,192,88482,1,0,0:0:0:0:
192,192,88570,1,0,0:0:0:0:
320,192,88570,1,0,0:0:0:0:
64,192,88658,1,0,0:0:0:0:
448,192,88746,1,0,0:0:0:0:
192,192,88746,1,0,0:0:0:0:
448,192,88923,1,0,0:0:0:0:
320,192,88923,1,0,0:0:0:0:
192,192,89011,1,0,0:0:0:0:
320,192,89099,1,0,0:0:0:0:
64,192,89188,1,0,0:0:0:0:
448,192,89276,1,0,0:0:0:0:
192,192,89276,1,0,0:0:0:0:
64,192,89364,1,0,0:0:0:0:
320,192,89452,1,0,0:0:0:0:
448,192,89629,1,0,0:0:0:0:
64,192,89629,1,0,0:0:0:0:
192,192,89717,1,0,0:0:0:0:
448,192,89805,1,0,0:0:0:0:
192,192,89893,1,0,0:0:0:0:
320,192,89982,1,0,0:0:0:0:
64,192,89982,1,0,0:0:0:0:
448,192,90070,1,0,0:0:0:0:
192,192,90158,1,0,0:0:0:0:
64,192,90158,1,0,0:0:0:0:
448,192,90335,1,0,0:0:0:0:
320,192,90335,1,0,0:0:0:0:
64,192,90423,1,0,0:0:0:0:
448,192,90511,1,0,0:0:0:0:
192,192,90599,1,0,0:0:0:0:
320,192,90688,1,0,0:0:0:0:
64,192,90688,1,0,0:0:0:0:
448,192,90776,1,0,0:0:0:0:
192,192,90776,1,0,0:0:0:0:
320,192,90864,1,0,0:0:0:0:
64,192,91041,1,0,0:0:0:0:
448,192,91041,1,0,0:0:0:0:
192,192,91129,1,0,0:0:0:0:
320,192,91217,1,0,0:0:0:0:
448,192,91305,1,0,0:0:0:0:
192,192,91393,1,0,0:0:0:0:
64,192,91393,1,0,0:0:0:0:
320,192,91482,1,0,0:0:0:0:
64,192,91570,1,0,0:0:0:0:
448,192,91746,1,0,0:0:0:0:
320,192,91746,1,0,0:0:0:0:
192,192,91835,1,0,0:0:0:0:
448,192,91923,1,0,0:0:0:0:
192,192,92011,1,0,0:0:0:0:
320,192,92099,1,0,0:0:0:0:
64,192,92099,1,0,0:0:0:0:
448,192,92188,1,0,0:0:0:0:
192,192,92276,1,0,0:0:0:0:
192,192,92452,1,0,0:0:0:0:
64,192,92452,1,0,0:0:0:0:
320,192,92541,1,0,0:0:0:0:
64,192,92629,1,0,0:0:0:0:
320,192,92717,1,0,0:0:0:0:
448,192,92805,1,0,0:0:0:0:
192,192,92805,1,0,0:0:0:0:
64,192,92893,1,0,0:0:0:0:
448,192,92982,1,0,0:0:0:0:
320,192,92982,1,0,0:0:0:0:
448,192,93158,1,0,0:0:0:0:
192,192,93158,1,0,0:0:0:0:
64,192,93246,1,0,0:0:0:0:
192,192,93335,1,0,0:0:0:0:
320,192,93423,1,0,0:0:0:0:
448,192,93511,1,0,0:0:0:0:
64,192,93511,1,0,0:0:0:0:
320,192,93599,1,0,0:0:0:0:
192,192,93688,1,0,0:0:0:0:
320,192,93864,1,0,0:0:0:0:
64,192,93864,1,0,0:0:0:0:
448,192,93952,1,0,0:0:0:0:
320,192,94041,1,0,0:0:0:0:
192,192,94129,1,0,0:0:0:0:
64,192,94129,1,0,0:0:0:0:
448,192,94217,1,0,0:0:0:0:
320,192,94217,1,0,0:0:0:0:
192,192,94305,1,0,0:0:0:0:
448,192,94393,1,0,0:0:0:0:
64,192,94393,1,0,0:0:0:0:
320,192,94570,1,0,0:0:0:0:
192,192,94570,1,0,0:0:0:0:
448,192,94658,1,0,0:0:0:0:
320,192,94746,1,0,0:0:0:0:
192,192,94835,1,0,0:0:0:0:
448,192,94923,1,0,0:0:0:0:
64,192,94923,1,0,0:0:0:0:
320,192,95011,1,0,0:0:0:0:
448,192,95099,1,0,0:0:0:0:
320,192,95276,1,0,0:0:0:0:
192,192,95276,1,0,0:0:0:0:
64,192,95364,1,0,0:0:0:0:
192,192,95452,1,0,0:0:0:0:
320,192,95541,1,0,0:0:0:0:
448,192,95629,1,0,0:0:0:0:
64,192,95629,1,0,0:0:0:0:
64,192,95805,1,0,0:0:0:0:
448,192,95893,1,0,0:0:0:0:
192,192,95893,1,0,0:0:0:0:
320,192,95982,1,0,0:0:0:0:
64,192,95982,1,0,0:0:0:0:
448,192,96070,1,0,0:0:0:0:
192,192,96158,1,0,0:0:0:0:
320,192,96246,5,0,0:0:0:0:
192,192,96335,1,0,0:0:0:0:
64,192,96335,1,0,0:0:0:0:
448,192,96423,1,0,0:0:0:0:
320,192,96423,1,0,0:0:0:0:
192,192,96511,1,0,0:0:0:0:
320,192,96688,1,0,0:0:0:0:
64,192,96688,1,0,0:0:0:0:
448,192,96776,1,0,0:0:0:0:
320,192,96864,1,0,0:0:0:0:
192,192,96952,1,0,0:0:0:0:
448,192,97041,1,0,0:0:0:0:
64,192,97041,1,0,0:0:0:0:
320,192,97129,1,0,0:0:0:0:
64,192,97217,1,0,0:0:0:0:
192,192,97217,1,0,0:0:0:0:
320,192,97305,1,0,0:0:0:0:
64,192,97393,5,0,0:0:0:0:
448,192,97393,1,0,0:0:0:0:
192,192,97393,1,0,0:0:0:0:
64,192,97746,1,0,0:0:0:0:
192,192,98099,1,0,0:0:0:0:
448,192,98099,1,0,0:0:0:0:
64,192,98452,1,0,0:0:0:0:
192,192,98629,1,0,0:0:0:0:
448,192,98805,1,0,0:0:0:0:
320,192,98982,1,0,0:0:0:0:
192,192,99158,1,0,0:0:0:0:
448,192,99335,1,0,0:0:0:0:
64,192,99511,1,0,0:0:0:0:
320,192,99511,1,0,0:0:0:0:
448,192,99688,1,0,0:0:0:0:
64,192,99864,1,0,0:0:0:0:
320,192,99864,1,0,0:0:0:0:
192,192,100041,1,0,0:0:0:0:
448,192,100217,1,0,0:0:0:0:
64,192,100217,1,0,0:0:0:0:
320,192,100393,1,0,0:0:0:0:
192,192,100570,1,0,0:0:0:0:
64,192,100923,1,0,0:0:0:0:
448,192,100923,1,0,0:0:0:0:
320,192,101099,1,0,0:0:0:0:
192,192,101276,1,0,0:0:0:0:
320,192,101452,1,0,0:0:0:0:
64,192,101629,1,0,0:0:0:0:
192,192,101805,1,0,0:0:0:0:
448,192,101805,1,0,0:0:0:0:
320,192,101982,1,0,0:0:0:0:
192,192,102158,1,0,0:0:0:0:
64,192,102335,1,0,0:0:0:0:
320,192,102335,1,0,0:0:0:0:
448,192,102511,1,0,0:0:0:0:
64,192,102688,1,0,0:0:0:0:
192,192,102864,1,0,0:0:0:0:
320,192,103041,1,0,0:0:0:0:
448,192,103041,1,0,0:0:0:0:
64,192,103393,1,0,0:0:0:0:
64,192,103746,1,0,0:0:0:0:
320,192,103746,1,0,0:0:0:0:
192,192,104099,1,0,0:0:0:0:
320,192,104276,1,0,0:0:0:0:
448,192,104452,1,0,0:0:0:0:
192,192,104629,1,0,0:0:0:0:
64,192,104805,1,0,0:0:0:0:
192,192,104982,1,0,0:0:0:0:
64,192,105158,1,0,0:0:0:0:
320,192,105158,1,0,0:0:0:0:
448,192,105335,1,0,0:0:0:0:
64,192,105511,1,0,0:0:0:0:
320,192,105511,1,0,0:0:0:0:
448,192,105688,1,0,0:0:0:0:
64,192,105864,1,0,0:0:0:0:
192,192,105864,1,0,0:0:0:0:
192,192,106217,1,0,0:0:0:0:
64,192,106570,1,0,0:0:0:0:
320,192,106570,1,0,0:0:0:0:
64,192,106746,1,0,0:0:0:0:
448,192,107276,1,0,0:0:0:0:
192,192,107452,1,0,0:0:0:0:
320,192,107629,1,0,0:0:0:0:
192,192,107805,1,0,0:0:0:0:
448,192,107982,1,0,0:0:0:0:
320,192,108041,1,0,0:0:0:0:
192,192,108099,1,0,0:0:0:0:
64,192,108158,1,0,0:0:0:0:
320,192,108335,1,0,0:0:0:0:
192,192,108511,1,0,0:0:0:0:
64,192,108688,1,0,0:0:0:0:
448,192,108688,1,0,0:0:0:0:
64,192,109041,1,0,0:0:0:0:
192,192,109393,1,0,0:0:0:0:
448,192,109393,1,0,0:0:0:0:
320,192,109570,1,0,0:0:0:0:
64,192,109746,1,0,0:0:0:0:
192,192,109923,1,0,0:0:0:0:
448,192,110099,1,0,0:0:0:0:
320,192,110276,1,0,0:0:0:0:
192,192,110452,1,0,0:0:0:0:
448,192,110629,1,0,0:0:0:0:
64,192,110805,1,0,0:0:0:0:
320,192,110805,1,0,0:0:0:0:
448,192,110982,1,0,0:0:0:0:
64,192,111158,1,0,0:0:0:0:
320,192,111158,1,0,0:0:0:0:
192,192,111335,1,0,0:0:0:0:
448,192,111511,1,0,0:0:0:0:
64,192,111511,1,0,0:0:0:0:
320,192,111688,1,0,0:0:0:0:
192,192,111864,1,0,0:0:0:0:
64,192,112217,1,0,0:0:0:0:
448,192,112217,1,0,0:0:0:0:
320,192,112393,1,0,0:0:0:0:
192,192,112570,1,0,0:0:0:0:
320,192,112746,1,0,0:0:0:0:
64,192,112923,1,0,0:0:0:0:
192,192,113099,1,0,0:0:0:0:
448,192,113099,1,0,0:0:0:0:
320,192,113276,1,0,0:0:0:0:
192,192,113452,1,0,0:0:0:0:
64,192,113629,1,0,0:0:0:0:
320,192,113629,1,0,0:0:0:0:
448,192,113805,1,0,0:0:0:0:
64,192,113982,1,0,0:0:0:0:
192,192,114158,1,0,0:0:0:0:
320,192,114335,1,0,0:0:0:0:
448,192,114335,1,0,0:0:0:0:
192,192,114511,1,0,0:0:0:0:
64,192,114688,1,0,0:0:0:0:
64,192,115041,1,0,0:0:0:0:
320,192,115041,1,0,0:0:0:0:
192,192,115393,1,0,0:0:0:0:
320,192,115570,1,0,0:0:0:0:
448,192,115746,1,0,0:0:0:0:
192,192,115923,1,0,0:0:0:0:
64,192,116099,1,0,0:0:0:0:
192,192,116276,1,0,0:0:0:0:
64,192,116452,1,0,0:0:0:0:
320,192,116452,1,0,0:0:0:0:
448,192,116629,1,0,0:0:0:0:
320,192,116805,1,0,0:0:0:0:
192,192,116982,1,0,0:0:0:0:
64,192,116982,1,0,0:0:0:0:
320,192,117158,1,0,0:0:0:0:
448,192,117158,1,0,0:0:0:0:
64,192,117864,1,0,0:0:0:0:
320,192,117864,1,0,0:0:0:0:
192,192,118041,1,0,0:0:0:0:
448,192,118041,1,0,0:0:0:0:
320,192,118217,1,0,0:0:0:0:
192,192,118393,1,0,0:0:0:0:
448,192,118570,1,0,0:0:0:0:
64,192,118570,1,0,0:0:0:0:
64,192,118746,1,0,0:0:0:0:
448,192,118746,1,0,0:0:0:0:
320,192,118923,1,0,0:0:0:0:
192,192,119011,1,0,0:0:0:0:
448,192,119099,1,0,0:0:0:0:
192,192,119188,1,0,0:0:0:0:
64,192,119276,1,0,0:0:0:0:
320,192,119276,1,0,0:0:0:0:
448,192,119364,1,0,0:0:0:0:
64,192,119452,1,0,0:0:0:0:
320,192,119541,1,0,0:0:0:0:
192,192,119629,1,0,0:0:0:0:
448,192,119629,1,0,0:0:0:0:
64,192,119717,1,0,0:0:0:0:
448,192,119805,1,0,0:0:0:0:
320,192,119893,1,0,0:0:0:0:
64,192,119982,1,0,0:0:0:0:
192,192,119982,1,0,0:0:0:0:
192,192,120158,1,0,0:0:0:0:
64,192,120246,1,0,0:0:0:0:
320,192,120335,1,0,0:0:0:0:
448,192,120335,1,0,0:0:0:0:
192,192,120511,1,0,0:0:0:0:
448,192,120599,1,0,0:0:0:0:
320,192,120688,1,0,0:0:0:0:
192,192,120776,1,0,0:0:0:0:
320,192,120864,1,0,0:0:0:0:
64,192,120952,1,0,0:0:0:0:
192,192,121041,1,0,0:0:0:0:
448,192,121041,1,0,0:0:0:0:
320,192,121217,1,0,0:0:0:0:
192,192,121217,1,0,0:0:0:0:
448,192,121393,1,0,0:0:0:0:
64,192,121570,1,0,0:0:0:0:
192,192,121658,1,0,0:0:0:0:
320,192,121746,1,0,0:0:0:0:
448,192,121746,1,0,0:0:0:0:
192,192,121923,1,0,0:0:0:0:
448,192,122011,1,0,0:0:0:0:
64,192,122099,1,0,0:0:0:0:
320,192,122099,1,0,0:0:0:0:
192,192,122188,1,0,0:0:0:0:
64,192,122276,1,0,0:0:0:0:
320,192,122364,1,0,0:0:0:0:
448,192,122364,1,0,0:0:0:0:
64,192,122452,1,0,0:0:0:0:
192,192,122452,1,0,0:0:0:0:
64,192,122629,1,0,0:0:0:0:
448,192,122629,1,0,0:0:0:0:
320,192,122805,1,0,0:0:0:0:
448,192,122805,1,0,0:0:0:0:
192,192,122982,1,0,0:0:0:0:
448,192,123070,1,0,0:0:0:0:
64,192,123158,1,0,0:0:0:0:
320,192,123158,1,0,0:0:0:0:
192,192,123335,1,0,0:0:0:0:
320,192,123423,1,0,0:0:0:0:
64,192,123511,1,0,0:0:0:0:
192,192,123511,1,0,0:0:0:0:
448,192,123599,1,0,0:0:0:0:
64,192,123688,1,0,0:0:0:0:
448,192,123776,1,0,0:0:0:0:
64,192,123864,1,0,0:0:0:0:
320,192,123864,1,0,0:0:0:0:
192,192,124041,1,0,0:0:0:0:
448,192,124041,1,0,0:0:0:0:
64,192,124217,1,0,0:0:0:0:
320,192,124393,1,0,0:0:0:0:
64,192,124482,1,0,0:0:0:0:
192,192,124570,1,0,0:0:0:0:
448,192,124570,1,0,0:0:0:0:
64,192,124658,1,0,0:0:0:0:
320,192,124658,1,0,0:0:0:0:
448,192,124746,1,0,0:0:0:0:
192,192,124923,1,0,0:0:0:0:
448,192,125011,1,0,0:0:0:0:
192,192,125099,1,0,0:0:0:0:
64,192,125188,1,0,0:0:0:0:
448,192,125276,1,0,0:0:0:0:
320,192,125276,1,0,0:0:0:0:
192,192,125364,1,0,0:0:0:0:
448,192,125452,1,0,0:0:0:0:
64,192,125541,1,0,0:0:0:0:
192,192,125629,1,0,0:0:0:0:
320,192,125629,1,0,0:0:0:0:
448,192,125805,1,0,0:0:0:0:
64,192,125893,1,0,0:0:0:0:
192,192,125982,1,0,0:0:0:0:
448,192,125982,1,0,0:0:0:0:
320,192,126158,1,0,0:0:0:0:
64,192,126246,1,0,0:0:0:0:
320,192,126335,1,0,0:0:0:0:
448,192,126423,1,0,0:0:0:0:
64,192,126511,1,0,0:0:0:0:
320,192,126599,1,0,0:0:0:0:
448,192,126688,1,0,0:0:0:0:
192,192,126688,1,0,0:0:0:0:
64,192,126864,1,0,0:0:0:0:
320,192,126864,1,0,0:0:0:0:
192,192,127041,1,0,0:0:0:0:
320,192,127217,1,0,0:0:0:0:
448,192,127305,1,0,0:0:0:0:
64,192,127393,1,0,0:0:0:0:
192,192,127393,1,0,0:0:0:0:
320,192,127570,1,0,0:0:0:0:
64,192,127658,1,0,0:0:0:0:
448,192,127746,1,0,0:0:0:0:
192,192,127835,1,0,0:0:0:0:
320,192,127923,1,0,0:0:0:0:
64,192,128011,1,0,0:0:0:0:
192,192,128011,1,0,0:0:0:0:
320,192,128099,1,0,0:0:0:0:
448,192,128099,1,0,0:0:0:0:
64,192,128276,1,0,0:0:0:0:
448,192,128276,1,0,0:0:0:0:
64,192,128452,1,0,0:0:0:0:
192,192,128452,1,0,0:0:0:0:
320,192,128629,1,0,0:0:0:0:
192,192,128717,1,0,0:0:0:0:
64,192,128805,1,0,0:0:0:0:
448,192,128805,1,0,0:0:0:0:
320,192,128982,1,0,0:0:0:0:
448,192,129070,1,0,0:0:0:0:
64,192,129158,1,0,0:0:0:0:
320,192,129246,1,0,0:0:0:0:
192,192,129335,1,0,0:0:0:0:
448,192,129423,1,0,0:0:0:0:
64,192,129511,1,0,0:0:0:0:
320,192,129511,1,0,0:0:0:0:
320,192,129688,1,0,0:0:0:0:
192,192,129776,1,0,0:0:0:0:
448,192,129776,1,0,0:0:0:0:
64,192,129864,1,0,0:0:0:0:
320,192,129864,1,0,0:0:0:0:
448,192,130041,1,0,0:0:0:0:
64,192,130217,1,0,0:0:0:0:
192,192,130217,1,0,0:0:0:0:
320,192,130305,1,0,0:0:0:0:
448,192,130305,1,0,0:0:0:0:
192,192,130393,1,0,0:0:0:0:
320,192,130482,1,0,0:0:0:0:
64,192,130570,1,0,0:0:0:0:
448,192,130658,1,0,0:0:0:0:
192,192,130746,1,0,0:0:0:0:
320,192,130835,1,0,0:0:0:0:
192,192,130923,1,0,0:0:0:0:
448,192,130923,1,0,0:0:0:0:
64,192,131099,1,0,0:0:0:0:
320,192,131099,1,0,0:0:0:0:
320,192,131276,1,0,0:0:0:0:
192,192,131276,1,0,0:0:0:0:
320,192,131452,1,0,0:0:0:0:
448,192,131541,1,0,0:0:0:0:
192,192,131629,1,0,0:0:0:0:
64,192,131629,1,0,0:0:0:0:
320,192,131805,1,0,0:0:0:0:
64,192,131893,1,0,0:0:0:0:
192,192,131982,1,0,0:0:0:0:
320,192,132070,1,0,0:0:0:0:
192,192,132158,1,0,0:0:0:0:
448,192,132246,1,0,0:0:0:0:
320,192,132335,1,0,0:0:0:0:
64,192,132335,1,0,0:0:0:0:
192,192,132511,1,0,0:0:0:0:
320,192,132511,1,0,0:0:0:0:
64,192,132688,1,0,0:0:0:0:
448,192,132864,1,0,0:0:0:0:
320,192,132952,1,0,0:0:0:0:
192,192,133041,1,0,0:0:0:0:
64,192,133041,1,0,0:0:0:0:
320,192,133217,1,0,0:0:0:0:
64,192,133305,1,0,0:0:0:0:
448,192,133393,1,0,0:0:0:0:
192,192,133393,1,0,0:0:0:0:
320,192,133482,1,0,0:0:0:0:
448,192,133570,1,0,0:0:0:0:
192,192,133658,1,0,0:0:0:0:
64,192,133658,1,0,0:0:0:0:
448,192,133746,1,0,0:0:0:0:
320,192,133746,1,0,0:0:0:0:
448,192,133923,1,0,0:0:0:0:
64,192,133923,1,0,0:0:0:0:
192,192,134099,1,0,0:0:0:0:
64,192,134099,1,0,0:0:0:0:
320,192,134276,1,0,0:0:0:0:
64,192,134364,1,0,0:0:0:0:
448,192,134452,1,0,0:0:0:0:
192,192,134452,1,0,0:0:0:0:
320,192,134629,1,0,0:0:0:0:
192,192,134717,1,0,0:0:0:0:
448,192,134805,1,0,0:0:0:0:
320,192,134805,1,0,0:0:0:0:
64,192,134893,1,0,0:0:0:0:
448,192,134982,1,0,0:0:0:0:
64,192,135070,1,0,0:0:0:0:
448,192,135158,1,0,0:0:0:0:
192,192,135158,1,0,0:0:0:0:
320,192,135335,1,0,0:0:0:0:
64,192,135335,1,0,0:0:0:0:
448,192,135511,1,0,0:0:0:0:
192,192,135688,1,0,0:0:0:0:
448,192,135776,1,0,0:0:0:0:
320,192,135864,1,0,0:0:0:0:
64,192,135864,1,0,0:0:0:0:
448,192,135952,1,0,0:0:0:0:
192,192,135952,1,0,0:0:0:0:
64,192,136041,1,0,0:0:0:0:
320,192,136217,1,0,0:0:0:0:
64,192,136305,1,0,0:0:0:0:
320,192,136393,1,0,0:0:0:0:
448,192,136482,1,0,0:0:0:0:
64,192,136570,1,0,0:0:0:0:
192,192,136570,1,0,0:0:0:0:
320,192,136658,1,0,0:0:0:0:
64,192,136746,1,0,0:0:0:0:
448,192,136835,1,0,0:0:0:0:
320,192,136923,1,0,0:0:0:0:
192,192,136923,1,0,0:0:0:0:
64,192,137099,1,0,0:0:0:0:
448,192,137188,1,0,0:0:0:0:
320,192,137276,1,0,0:0:0:0:
64,192,137276,1,0,0:0:0:0:
192,192,137452,1,0,0:0:0:0:
448,192,137541,1,0,0:0:0:0:
192,192,137629,1,0,0:0:0:0:
64,192,137717,1,0,0:0:0:0:
448,192,137805,1,0,0:0:0:0:
192,192,137893,1,0,0:0:0:0:
64,192,137982,1,0,0:0:0:0:
320,192,137982,1,0,0:0:0:0:
448,192,138158,1,0,0:0:0:0:
192,192,138158,1,0,0:0:0:0:
320,192,138335,1,0,0:0:0:0:
192,192,138511,1,0,0:0:0:0:
64,192,138599,1,0,0:0:0:0:
448,192,138688,1,0,0:0:0:0:
320,192,138688,1,0,0:0:0:0:
192,192,138864,1,0,0:0:0:0:
448,192,138952,1,0,0:0:0:0:
64,192,139041,1,0,0:0:0:0:
320,192,139129,1,0,0:0:0:0:
192,192,139217,1,0,0:0:0:0:
448,192,139305,1,0,0:0:0:0:
320,192,139305,1,0,0:0:0:0:
192,192,139393,1,0,0:0:0:0:
64,192,139393,1,0,0:0:0:0:
448,192,139570,1,0,0:0:0:0:
64,192,139570,1,0,0:0:0:0:
448,192,139746,1,0,0:0:0:0:
320,192,139746,1,0,0:0:0:0:
192,192,139923,1,0,0:0:0:0:
320,192,140011,1,0,0:0:0:0:
448,192,140099,1,0,0:0:0:0:
64,192,140099,1,0,0:0:0:0:
192,192,140276,1,0,0:0:0:0:
64,192,140364,1,0,0:0:0:0:
448,192,140452,1,0,0:0:0:0:
192,192,140541,1,0,0:0:0:0:
320,192,140629,1,0,0:0:0:0:
64,192,140717,1,0,0:0:0:0:
448,192,140805,1,0,0:0:0:0:
192,192,140805,1,0,0:0:0:0:
192,192,140982,1,0,0:0:0:0:
320,192,141070,1,0,0:0:0:0:
64,192,141070,1,0,0:0:0:0:
448,192,141158,1,0,0:0:0:0:
192,192,141158,1,0,0:0:0:0:
64,192,141335,1,0,0:0:0:0:
448,192,141511,1,0,0:0:0:0:
320,192,141511,1,0,0:0:0:0:
192,192,141599,1,0,0:0:0:0:
64,192,141599,1,0,0:0:0:0:
320,192,141688,1,0,0:0:0:0:
192,192,141776,1,0,0:0:0:0:
448,192,141864,1,0,0:0:0:0:
64,192,141952,1,0,0:0:0:0:
320,192,142041,1,0,0:0:0:0:
192,192,142129,1,0,0:0:0:0:
320,192,142217,1,0,0:0:0:0:
64,192,142217,1,0,0:0:0:0:
448,192,142393,1,0,0:0:0:0:
192,192,142393,1,0,0:0:0:0:
320,192,142570,1,0,0:0:0:0:
448,192,142570,1,0,0:0:0:0:
320,192,142746,1,0,0:0:0:0:
448,192,142835,1,0,0:0:0:0:
192,192,142923,1,0,0:0:0:0:
64,192,142923,1,0,0:0:0:0:
320,192,143099,1,0,0:0:0:0:
64,192,143188,1,0,0:0:0:0:
192,192,143276,1,0,0:0:0:0:
320,192,143364,1,0,0:0:0:0:
192,192,143452,1,0,0:0:0:0:
448,192,143541,1,0,0:0:0:0:
320,192,143629,1,0,0:0:0:0:
64,192,143629,1,0,0:0:0:0:
192,192,143805,1,0,0:0:0:0:
320,192,143805,1,0,0:0:0:0:
64,192,143982,1,0,0:0:0:0:
448,192,144158,1,0,0:0:0:0:
320,192,144246,1,0,0:0:0:0:
192,192,144335,1,0,0:0:0:0:
64,192,144335,1,0,0:0:0:0:
320,192,144511,1,0,0:0:0:0:
64,192,144599,1,0,0:0:0:0:
448,192,144688,1,0,0:0:0:0:
192,192,144688,1,0,0:0:0:0:
320,192,144776,1,0,0:0:0:0:
448,192,144864,1,0,0:0:0:0:
192,192,144952,1,0,0:0:0:0:
64,192,144952,1,0,0:0:0:0:
448,192,145041,1,0,0:0:0:0:
320,192,145041,1,0,0:0:0:0:
448,192,145217,1,0,0:0:0:0:
64,192,145217,1,0,0:0:0:0:
192,192,145393,1,0,0:0:0:0:
64,192,145393,1,0,0:0:0:0:
320,192,145570,1,0,0:0:0:0:
64,192,145658,1,0,0:0:0:0:
448,192,145746,1,0,0:0:0:0:
192,192,145746,1,0,0:0:0:0:
320,192,145923,1,0,0:0:0:0:
192,192,146011,1,0,0:0:0:0:
448,192,146099,1,0,0:0:0:0:
320,192,146099,1,0,0:0:0:0:
64,192,146188,1,0,0:0:0:0:
448,192,146276,1,0,0:0:0:0:
64,192,146364,1,0,0:0:0:0:
448,192,146452,1,0,0:0:0:0:
192,192,146452,1,0,0:0:0:0:
320,192,146629,1,0,0:0:0:0:
64,192,146629,1,0,0:0:0:0:
448,192,146805,1,0,0:0:0:0:
192,192,146982,1,0,0:0:0:0:
448,192,147070,1,0,0:0:0:0:
320,192,147158,1,0,0:0:0:0:
64,192,147158,1,0,0:0:0:0:
448,192,147246,1,0,0:0:0:0:
192,192,147246,1,0,0:0:0:0:
64,192,147335,1,0,0:0:0:0:
320,192,147511,1,0,0:0:0:0:
64,192,147599,1,0,0:0:0:0:
320,192,147688,1,0,0:0:0:0:
448,192,147776,1,0,0:0:0:0:
64,192,147864,1,0,0:0:0:0:
192,192,147864,1,0,0:0:0:0:
320,192,147952,1,0,0:0:0:0:
64,192,148041,1,0,0:0:0:0:
448,192,148129,1,0,0:0:0:0:
320,192,148217,1,0,0:0:0:0:
192,192,148217,1,0,0:0:0:0:
64,192,148393,1,0,0:0:0:0:
448,192,148482,1,0,0:0:0:0:
320,192,148570,1,0,0:0:0:0:
64,192,148570,1,0,0:0:0:0:
192,192,148746,1,0,0:0:0:0:
448,192,148835,1,0,0:0:0:0:
192,192,148923,1,0,0:0:0:0:
64,192,149011,1,0,0:0:0:0:
448,192,149099,1,0,0:0:0:0:
192,192,149188,1,0,0:0:0:0:
64,192,149276,1,0,0:0:0:0:
320,192,149276,1,0,0:0:0:0:
448,192,149452,1,0,0:0:0:0:
192,192,149452,1,0,0:0:0:0:
320,192,149629,1,0,0:0:0:0:
192,192,149805,1,0,0:0:0:0:
64,192,149893,1,0,0:0:0:0:
448,192,149982,1,0,0:0:0:0:
320,192,149982,1,0,0:0:0:0:
192,192,150158,1,0,0:0:0:0:
448,192,150246,1,0,0:0:0:0:
64,192,150335,1,0,0:0:0:0:
320,192,150423,1,0,0:0:0:0:
192,192,150511,1,0,0:0:0:0:
448,192,150599,1,0,0:0:0:0:
320,192,150599,1,0,0:0:0:0:
192,192,150688,1,0,0:0:0:0:
64,192,150688,1,0,0:0:0:0:
448,192,150864,1,0,0:0:0:0:
64,192,150864,1,0,0:0:0:0:
448,192,151041,1,0,0:0:0:0:
320,192,151041,1,0,0:0:0:0:
192,192,151217,1,0,0:0:0:0:
320,192,151305,1,0,0:0:0:0:
448,192,151393,1,0,0:0:0:0:
64,192,151393,1,0,0:0:0:0:
192,192,151570,1,0,0:0:0:0:
64,192,151658,1,0,0:0:0:0:
448,192,151746,1,0,0:0:0:0:
192,192,151835,1,0,0:0:0:0:
320,192,151923,1,0,0:0:0:0:
64,192,152011,1,0,0:0:0:0:
448,192,152099,1,0,0:0:0:0:
192,192,152099,1,0,0:0:0:0:
192,192,152276,1,0,0:0:0:0:
320,192,152364,1,0,0:0:0:0:
64,192,152364,1,0,0:0:0:0:
448,192,152452,1,0,0:0:0:0:
192,192,152452,1,0,0:0:0:0:
64,192,152629,1,0,0:0:0:0:
448,192,152805,1,0,0:0:0:0:
320,192,152805,1,0,0:0:0:0:
192,192,152893,1,0,0:0:0:0:
64,192,152893,1,0,0:0:0:0:
320,192,152982,1,0,0:0:0:0:
192,192,153070,1,0,0:0:0:0:
448,192,153158,1,0,0:0:0:0:
64,192,153246,1,0,0:0:0:0:
320,192,153335,1,0,0:0:0:0:
192,192,153423,1,0,0:0:0:0:
320,192,153511,1,0,0:0:0:0:
64,192,153511,1,0,0:0:0:0:
448,192,153688,1,0,0:0:0:0:
192,192,153688,1,0,0:0:0:0:
192,192,153864,1,0,0:0:0:0:
320,192,153864,1,0,0:0:0:0:
192,192,154041,1,0,0:0:0:0:
64,192,154129,1,0,0:0:0:0:
320,192,154217,1,0,0:0:0:0:
448,192,154217,1,0,0:0:0:0:
192,192,154393,1,0,0:0:0:0:
448,192,154482,1,0,0:0:0:0:
320,192,154570,1,0,0:0:0:0:
192,192,154658,1,0,0:0:0:0:
320,192,154746,1,0,0:0:0:0:
64,192,154835,1,0,0:0:0:0:
192,192,154923,1,0,0:0:0:0:
448,192,154923,1,0,0:0:0:0:
320,192,155099,1,0,0:0:0:0:
192,192,155099,1,0,0:0:0:0:
448,192,155276,1,0,0:0:0:0:
64,192,155452,1,0,0:0:0:0:
192,192,155541,1,0,0:0:0:0:
320,192,155629,1,0,0:0:0:0:
448,192,155629,1,0,0:0:0:0:
192,192,155805,1,0,0:0:0:0:
448,192,155893,1,0,0:0:0:0:
64,192,155982,1,0,0:0:0:0:
320,192,155982,1,0,0:0:0:0:
192,192,156070,1,0,0:0:0:0:
64,192,156158,1,0,0:0:0:0:
320,192,156246,1,0,0:0:0:0:
448,192,156246,1,0,0:0:0:0:
64,192,156335,1,0,0:0:0:0:
192,192,156335,1,0,0:0:0:0:
64,192,156511,1,0,0:0:0:0:
448,192,156511,1,0,0:0:0:0:
320,192,156688,1,0,0:0:0:0:
448,192,156688,1,0,0:0:0:0:
192,192,156864,1,0,0:0:0:0:
448,192,156952,1,0,0:0:0:0:
64,192,157041,1,0,0:0:0:0:
320,192,157041,1,0,0:0:0:0:
192,192,157217,1,0,0:0:0:0:
320,192,157305,1,0,0:0:0:0:
64,192,157393,1,0,0:0:0:0:
192,192,157393,1,0,0:0:0:0:
448,192,157482,1,0,0:0:0:0:
64,192,157570,1,0,0:0:0:0:
448,192,157658,1,0,0:0:0:0:
64,192,157746,1,0,0:0:0:0:
320,192,157746,1,0,0:0:0:0:
192,192,157923,1,0,0:0:0:0:
448,192,157923,1,0,0:0:0:0:
64,192,158099,1,0,0:0:0:0:
320,192,158276,1,0,0:0:0:0:
64,192,158364,1,0,0:0:0:0:
192,192,158452,1,0,0:0:0:0:
448,192,158452,1,0,0:0:0:0:
64,192,158541,1,0,0:0:0:0:
320,192,158541,1,0,0:0:0:0:
448,192,158629,1,0,0:0:0:0:
192,192,158805,1,0,0:0:0:0:
448,192,158893,1,0,0:0:0:0:
192,192,158982,1,0,0:0:0:0:
64,192,159070,1,0,0:0:0:0:
448,192,159158,1,0,0:0:0:0:
320,192,159158,1,0,0:0:0:0:
192,192,159246,1,0,0:0:0:0:
448,192,159335,1,0,0:0:0:0:
64,192,159423,1,0,0:0:0:0:
192,192,159511,1,0,0:0:0:0:
320,192,159511,1,0,0:0:0:0:
448,192,159688,1,0,0:0:0:0:
64,192,159776,1,0,0:0:0:0:
192,192,159864,1,0,0:0:0:0:
448,192,159864,1,0,0:0:0:0:
320,192,160041,1,0,0:0:0:0:
64,192,160129,1,0,0:0:0:0:
320,192,160217,1,0,0:0:0:0:
448,192,160305,1,0,0:0:0:0:
64,192,160393,1,0,0:0:0:0:
320,192,160482,1,0,0:0:0:0:
448,192,160570,1,0,0:0:0:0:
192,192,160570,1,0,0:0:0:0:
64,192,160746,1,0,0:0:0:0:
320,192,160746,1,0,0:0:0:0:
192,192,160923,1,0,0:0:0:0:
320,192,161099,1,0,0:0:0:0:
448,192,161188,1,0,0:0:0:0:
64,192,161276,1,0,0:0:0:0:
192,192,161276,1,0,0:0:0:0:
320,192,161452,1,0,0:0:0:0:
64,192,161541,1,0,0:0:0:0:
448,192,161629,1,0,0:0:0:0:
192,192,161717,1,0,0:0:0:0:
320,192,161805,1,0,0:0:0:0:
64,192,161893,1,0,0:0:0:0:
192,192,161893,1,0,0:0:0:0:
320,192,161982,1,0,0:0:0:0:
448,192,161982,1,0,0:0:0:0:
64,192,162158,1,0,0:0:0:0:
448,192,162158,1,0,0:0:0:0:
64,192,162335,1,0,0:0:0:0:
192,192,162335,1,0,0:0:0:0:
320,192,162511,1,0,0:0:0:0:
192,192,162599,1,0,0:0:0:0:
64,192,162688,1,0,0:0:0:0:
448,192,162688,1,0,0:0:0:0:
320,192,162864,1,0,0:0:0:0:
448,192,162952,1,0,0:0:0:0:
64,192,163041,1,0,0:0:0:0:
320,192,163129,1,0,0:0:0:0:
192,192,163217,1,0,0:0:0:0:
448,192,163305,1,0,0:0:0:0:
64,192,163393,1,0,0:0:0:0:
320,192,163393,1,0,0:0:0:0:
320,192,163570,1,0,0:0:0:0:
192,192,163658,1,0,0:0:0:0:
448,192,163658,1,0,0:0:0:0:
64,192,163746,1,0,0:0:0:0:
320,192,163746,1,0,0:0:0:0:
448,192,163923,1,0,0:0:0:0:
64,192,164099,1,0,0:0:0:0:
192,192,164099,1,0,0:0:0:0:
320,192,164188,1,0,0:0:0:0:
448,192,164188,1,0,0:0:0:0:
192,192,164276,1,0,0:0:0:0:
320,192,164364,1,0,0:0:0:0:
64,192,164452,1,0,0:0:0:0:
448,192,164541,1,0,0:0:0:0:
192,192,164629,1,0,0:0:0:0:
320,192,164717,1,0,0:0:0:0:
192,192,164805,1,0,0:0:0:0:
448,192,164805,1,0,0:0:0:0:
64,192,164982,1,0,0:0:0:0:
320,192,164982,1,0,0:0:0:0:
64,192,165158,1,0,0:0:0:0:
192,192,165158,1,0,0:0:0:0:
448,192,165158,1,0,0:0:0:0:
