osu file format v14

[General]
AudioFilename: hachito.mp3
AudioLeadIn: 0
PreviewTime: 88948
Countdown: 1
SampleSet: Normal
StackLeniency: 0.7
Mode: 1
LetterboxInBreaks: 0
WidescreenStoryboard: 0

[Editor]
DistanceSpacing: 1
BeatDivisor: 4
GridSize: 32
TimelineZoom: 3.799998

[Metadata]
Title:Express 0805 (Katagiri Mashup Remix)
TitleUnicode:Express 0805 (かたぎり Mashup Remix)
Artist:Hatito
ArtistUnicode:ハチト
Creator:Raphalge
Version:Inner Oni
Source:
Tags:
BeatmapID:1937923
BeatmapSetID:927802

[Difficulty]
HPDrainRate:6
CircleSize:2
OverallDifficulty:7
ApproachRate:10
SliderMultiplier:1.4
SliderTickRate:1

[Events]
//Background and Video events
0,0,"artworks-000347989320-o9m91d-t500x500.jpg",0,-10
//Break Periods
//Storyboard Layer 0 (Background)
//Storyboard Layer 1 (Fail)
//Storyboard Layer 2 (Pass)
//Storyboard Layer 3 (Foreground)
//Storyboard Sound Samples

[TimingPoints]
7681,352.941176470588,4,1,0,80,1,0
7681,-76.9230769230769,4,1,0,80,0,0
9358,-76.3358778625954,4,1,0,80,0,0
9446,-75.7575757575758,4,1,0,80,0,0
9534,-75.187969924812,4,1,0,80,0,0
9623,-74.6268656716418,4,1,0,80,0,0
9711,-74.0740740740741,4,1,0,80,0,0
9799,-73.5294117647059,4,1,0,80,0,0
9890,352.941176470588,4,1,0,80,1,0
9890,-72.992700729927,4,1,0,80,0,0
10066,-86.9565217391304,4,1,0,80,0,0
10684,-86.2068965517241,4,1,0,80,0,0
10772,-85.4700854700855,4,1,0,80,0,0
10860,-84.7457627118644,4,1,0,80,0,0
10948,-84.0336134453781,4,1,0,80,0,0
11037,-82.6446280991736,4,1,0,80,0,0
11125,-81.3008130081301,4,1,0,80,0,0
11213,-80,4,1,0,80,0,0
11301,-78.7401574803149,4,1,0,80,0,0
12889,-86.9565217391304,4,1,0,80,0,0
13507,-86.2068965517241,4,1,0,80,0,0
13595,-85.4700854700855,4,1,0,80,0,0
13684,-84.7457627118644,4,1,0,80,0,0
13772,-84.0336134453781,4,1,0,80,0,0
13860,-82.6446280991736,4,1,0,80,0,0
13948,-81.3008130081301,4,1,0,80,0,0
14037,-80,4,1,0,80,0,0
14125,-78.7401574803149,4,1,0,80,0,0
15713,-86.9565217391304,4,1,0,80,0,0
16331,-86.2068965517241,4,1,0,80,0,0
16419,-85.4700854700855,4,1,0,80,0,0
16507,-84.7457627118644,4,1,0,80,0,0
16595,-84.0336134453781,4,1,0,80,0,0
16684,-82.6446280991736,4,1,0,80,0,0
16772,-81.3008130081301,4,1,0,80,0,0
16860,-80,4,1,0,80,0,0
16948,-78.7401574803149,4,1,0,80,0,0
18537,-86.9565217391304,4,1,0,80,0,0
18889,-86.2068965517241,4,1,0,80,0,0
18934,-85.4700854700855,4,1,0,80,0,0
18978,-84.7457627118644,4,1,0,80,0,0
19022,-84.0336134453781,4,1,0,80,0,0
19066,-83.3333333333333,4,1,0,80,0,0
19125,-84.0336134453781,4,1,0,80,0,0
19184,-84.7457627118644,4,1,0,80,0,0
19242,-85.4700854700855,4,1,0,80,0,0
19331,-84.7457627118644,4,1,0,80,0,0
19419,-84.0336134453781,4,1,0,80,0,0
19507,-82.6446280991736,4,1,0,80,0,0
19595,-81.3008130081301,4,1,0,80,0,0
19684,-80,4,1,0,80,0,0
19772,-78.7401574803149,4,1,0,80,0,0
20301,-78.125,4,1,0,80,0,0
20389,-77.5193798449612,4,1,0,80,0,0
20478,-76.9230769230769,4,1,0,80,0,0
20566,-76.3358778625954,4,1,0,80,0,0
20654,-75.7575757575758,4,1,0,80,0,0
20742,-75.187969924812,4,1,0,80,0,0
20831,-74.6268656716418,4,1,0,80,0,0
21007,-74.0740740740741,4,1,0,80,0,0
21095,-73.5294117647059,4,1,0,80,0,0
21184,-72.992700729927,4,1,0,80,0,0
21360,-86.9565217391304,4,1,0,80,0,0
21978,-86.2068965517241,4,1,0,80,0,0
22066,-85.4700854700855,4,1,0,80,0,0
22154,-84.7457627118644,4,1,0,80,0,0
22242,-84.0336134453781,4,1,0,80,0,0
22331,-82.6446280991736,4,1,0,80,0,0
22419,-81.3008130081301,4,1,0,80,0,0
22507,-80,4,1,0,80,0,0
22595,-78.7401574803149,4,1,0,80,0,0
24184,-86.9565217391304,4,1,0,80,0,0
24801,-86.2068965517241,4,1,0,80,0,0
24889,-85.4700854700855,4,1,0,80,0,0
24978,-84.7457627118644,4,1,0,80,0,0
25066,-84.0336134453781,4,1,0,80,0,0
25154,-82.6446280991736,4,1,0,80,0,0
25242,-81.3008130081301,4,1,0,80,0,0
25331,-80,4,1,0,80,0,0
25419,-78.7401574803149,4,1,0,80,0,0
27007,-86.9565217391304,4,1,0,80,0,0
27625,-86.2068965517241,4,1,0,80,0,0
27713,-85.4700854700855,4,1,0,80,0,0
27801,-84.7457627118644,4,1,0,80,0,0
27889,-84.0336134453781,4,1,0,80,0,0
27978,-82.6446280991736,4,1,0,80,0,0
28066,-81.3008130081301,4,1,0,80,0,0
28154,-80,4,1,0,80,0,0
28242,-78.7401574803149,4,1,0,80,0,0
29831,-86.9565217391304,4,1,0,80,0,0
30360,-86.2068965517241,4,1,0,80,0,0
30404,-85.4700854700855,4,1,0,80,0,0
30448,-84.7457627118644,4,1,0,80,0,0
30492,-84.0336134453781,4,1,0,80,0,0
30537,-83.3333333333333,4,1,0,80,0,0
30595,-84.0336134453781,4,1,0,80,0,0
30654,-84.7457627118644,4,1,0,80,0,0
30713,-85.4700854700855,4,1,0,80,0,0
30801,-84.7457627118644,4,1,0,80,0,0
30889,-84.0336134453781,4,1,0,80,0,0
30978,-83.3333333333333,4,1,0,80,0,0
31066,-82.6446280991736,4,1,0,80,0,0
31242,-81.9672131147541,4,1,0,80,0,0
31331,-81.3008130081301,4,1,0,80,0,0
31419,-80.6451612903226,4,1,0,80,0,0
31595,-80,4,1,0,80,0,0
31684,-79.3650793650794,4,1,0,80,0,0
31772,-78.7401574803149,4,1,0,80,0,0
31860,-78.125,4,1,0,80,0,0
31948,-77.5193798449612,4,1,0,80,0,0
32037,-76.9230769230769,4,1,0,80,0,0
32125,-76.3358778625954,4,1,0,80,0,0
32301,-75.187969924812,4,1,0,80,0,0
32478,-74.0740740740741,4,1,0,80,0,0
32654,-86.9565217391304,4,1,0,80,0,0
33272,-86.2068965517241,4,1,0,80,0,0
33360,-85.4700854700855,4,1,0,80,0,0
33448,-84.7457627118644,4,1,0,80,0,0
33537,-84.0336134453781,4,1,0,80,0,0
33625,-82.6446280991736,4,1,0,80,0,0
33713,-81.3008130081301,4,1,0,80,0,0
33801,-80,4,1,0,80,0,0
33889,-78.7401574803149,4,1,0,80,0,0
35478,-86.9565217391304,4,1,0,80,0,0
36095,-86.2068965517241,4,1,0,80,0,0
36184,-85.4700854700855,4,1,0,80,0,0
36272,-84.7457627118644,4,1,0,80,0,0
36360,-84.0336134453781,4,1,0,80,0,0
36448,-82.6446280991736,4,1,0,80,0,0
36537,-81.3008130081301,4,1,0,80,0,0
36625,-80,4,1,0,80,0,0
36713,-78.7401574803149,4,1,0,80,0,0
38301,-86.9565217391304,4,1,0,80,0,0
38919,-86.2068965517241,4,1,0,80,0,0
39007,-85.4700854700855,4,1,0,80,0,0
39095,-84.7457627118644,4,1,0,80,0,0
39184,-84.0336134453781,4,1,0,80,0,0
39272,-82.6446280991736,4,1,0,80,0,0
39360,-81.3008130081301,4,1,0,80,0,0
39448,-80,4,1,0,80,0,0
39537,-78.7401574803149,4,1,0,80,0,0
41125,-86.9565217391304,4,1,0,80,0,0
41478,-86.2068965517241,4,1,0,80,0,0
41522,-85.4700854700855,4,1,0,80,0,0
41566,-84.7457627118644,4,1,0,80,0,0
41610,-84.0336134453781,4,1,0,80,0,0
41654,-83.3333333333333,4,1,0,80,0,0
41713,-84.0336134453781,4,1,0,80,0,0
41772,-84.7457627118644,4,1,0,80,0,0
41831,-85.4700854700855,4,1,0,80,0,0
41919,-84.7457627118644,4,1,0,80,0,0
42007,-84.0336134453781,4,1,0,80,0,0
42095,-82.6446280991736,4,1,0,80,0,0
42184,-81.3008130081301,4,1,0,80,0,0
42272,-80,4,1,0,80,0,0
42360,-78.7401574803149,4,1,0,80,0,0
42537,-81.9672131147541,4,1,0,80,0,0
42625,-81.3008130081301,4,1,0,80,0,0
42713,-80.6451612903226,4,1,0,80,0,0
42889,-80,4,1,0,80,0,0
42978,-79.3650793650794,4,1,0,80,0,0
43066,-78.7401574803149,4,1,0,80,0,0
43154,-78.125,4,1,0,80,0,0
43242,-77.5193798449612,4,1,0,80,0,0
43331,-76.9230769230769,4,1,0,80,0,0
43419,-76.3358778625954,4,1,0,80,0,0
43507,-75.7575757575758,4,1,0,80,0,0
43595,-75.187969924812,4,1,0,80,0,0
43684,-74.6268656716418,4,1,0,80,0,0
43772,-74.0740740740741,4,1,0,80,0,0
43948,-86.9565217391304,4,1,0,80,0,0
44301,-86.2068965517241,4,1,0,80,0,0
44360,-85.4700854700855,4,1,0,80,0,0
44419,-84.7457627118644,4,1,0,80,0,0
44478,-84.0336134453781,4,1,0,80,0,0
44566,-83.3333333333333,4,1,0,80,0,0
44654,-82.6446280991736,4,1,0,80,0,0
44742,-81.9672131147541,4,1,0,80,0,0
44831,-81.3008130081301,4,1,0,80,0,0
46772,-86.9565217391304,4,1,0,80,0,0
47125,-86.2068965517241,4,1,0,80,0,0
47184,-85.4700854700855,4,1,0,80,0,0
47242,-84.7457627118644,4,1,0,80,0,0
47301,-84.0336134453781,4,1,0,80,0,0
47389,-83.3333333333333,4,1,0,80,0,0
47478,-82.6446280991736,4,1,0,80,0,0
47566,-81.9672131147541,4,1,0,80,0,0
47654,-81.3008130081301,4,1,0,80,0,0
49595,-86.9565217391304,4,1,0,80,0,0
49948,-86.2068965517241,4,1,0,80,0,0
50007,-85.4700854700855,4,1,0,80,0,0
50066,-84.7457627118644,4,1,0,80,0,0
50125,-84.0336134453781,4,1,0,80,0,0
50213,-83.3333333333333,4,1,0,80,0,0
50301,-82.6446280991736,4,1,0,80,0,0
50389,-81.9672131147541,4,1,0,80,0,0
50478,-81.3008130081301,4,1,0,80,0,0
52419,-86.9565217391304,4,1,0,80,0,0
52948,-86.2068965517241,4,1,0,80,0,0
52992,-85.4700854700855,4,1,0,80,0,0
53037,-84.7457627118644,4,1,0,80,0,0
53081,-84.0336134453781,4,1,0,80,0,0
53125,-83.3333333333333,4,1,0,80,0,0
53184,-84.0336134453781,4,1,0,80,0,0
53242,-84.7457627118644,4,1,0,80,0,0
53301,-85.4700854700855,4,1,0,80,0,0
53389,-84.7457627118644,4,1,0,80,0,0
53478,-84.0336134453781,4,1,0,80,0,0
53566,-83.3333333333333,4,1,0,80,0,0
53654,-82.6446280991736,4,1,0,80,0,0
53831,-81.9672131147541,4,1,0,80,0,0
53919,-81.3008130081301,4,1,0,80,0,0
54007,-80.6451612903226,4,1,0,80,0,0
54184,-80,4,1,0,80,0,0
54272,-79.3650793650794,4,1,0,80,0,0
54360,-78.7401574803149,4,1,0,80,0,0
54448,-78.125,4,1,0,80,0,0
54537,-77.5193798449612,4,1,0,80,0,0
54625,-76.9230769230769,4,1,0,80,0,0
54713,-76.3358778625954,4,1,0,80,0,0
54889,-75.187969924812,4,1,0,80,0,0
55066,-74.0740740740741,4,1,0,80,0,0
55242,-86.9565217391304,4,1,0,80,0,0
55860,-86.2068965517241,4,1,0,80,0,0
55948,-85.4700854700855,4,1,0,80,0,0
56037,-84.7457627118644,4,1,0,80,0,0
56125,-84.0336134453781,4,1,0,80,0,0
56213,-82.6446280991736,4,1,0,80,0,0
56301,-81.3008130081301,4,1,0,80,0,0
56389,-80,4,1,0,80,0,0
56478,-78.7401574803149,4,1,0,80,0,0
58066,-86.9565217391304,4,1,0,80,0,0
58684,-86.2068965517241,4,1,0,80,0,0
58772,-85.4700854700855,4,1,0,80,0,0
58860,-84.7457627118644,4,1,0,80,0,0
58948,-84.0336134453781,4,1,0,80,0,0
59037,-82.6446280991736,4,1,0,80,0,0
59125,-81.3008130081301,4,1,0,80,0,0
59213,-80,4,1,0,80,0,0
59301,-78.7401574803149,4,1,0,80,0,0
60889,-86.9565217391304,4,1,0,80,0,0
61507,-86.2068965517241,4,1,0,80,0,0
61595,-85.4700854700855,4,1,0,80,0,0
61684,-84.7457627118644,4,1,0,80,0,0
61772,-84.0336134453781,4,1,0,80,0,0
61860,-82.6446280991736,4,1,0,80,0,0
61948,-81.3008130081301,4,1,0,80,0,0
62037,-80,4,1,0,80,0,0
62125,-78.7401574803149,4,1,0,80,0,0
62478,-74.0740740740741,4,1,0,80,0,0
62654,-76.9230769230769,4,1,0,80,0,0
62831,-80,4,1,0,80,0,0
63007,-83.3333333333333,4,1,0,80,0,0
63184,-86.9565217391304,4,1,0,80,0,0
64242,-86.2068965517241,4,1,0,80,0,0
64287,-85.4700854700855,4,1,0,80,0,0
64331,-84.7457627118644,4,1,0,80,0,0
64375,-84.0336134453781,4,1,0,80,0,0
64419,-83.3333333333333,4,1,0,80,0,0
64478,-84.0336134453781,4,1,0,80,0,0
64537,-84.7457627118644,4,1,0,80,0,0
64595,-85.4700854700855,4,1,0,80,0,0
64684,-84.7457627118644,4,1,0,80,0,0
64772,-84.0336134453781,4,1,0,80,0,0
64860,-83.3333333333333,4,1,0,80,0,0
64948,-82.6446280991736,4,1,0,80,0,0
65125,-81.9672131147541,4,1,0,80,0,0
65213,-81.3008130081301,4,1,0,80,0,0
65301,-80.6451612903226,4,1,0,80,0,0
65478,-80,4,1,0,80,0,0
65566,-79.3650793650794,4,1,0,80,0,0
65654,-78.7401574803149,4,1,0,80,0,0
65742,-78.125,4,1,0,80,0,0
65831,-77.5193798449612,4,1,0,80,0,0
65919,-76.9230769230769,4,1,0,80,0,0
66007,-76.3358778625954,4,1,0,80,0,0
66184,-75.187969924812,4,1,0,80,0,0
66272,-74.6268656716418,4,1,0,80,0,0
66360,-74.0740740740741,4,1,0,80,0,0
66537,-86.9565217391304,4,1,0,80,0,0
66625,-86.2068965517241,4,1,0,80,0,0
66713,-85.4700854700855,4,1,0,80,0,0
66801,-84.0336134453781,4,1,0,80,0,0
66889,-82.6446280991736,4,1,0,80,0,0
66978,-81.3008130081301,4,1,0,80,0,0
67066,-80,4,1,0,80,0,0
67242,-86.9565217391304,4,1,0,80,0,0
67331,-86.2068965517241,4,1,0,80,0,0
67419,-85.4700854700855,4,1,0,80,0,0
67507,-84.0336134453781,4,1,0,80,0,0
67595,-82.6446280991736,4,1,0,80,0,0
67684,-81.3008130081301,4,1,0,80,0,0
67772,-80,4,1,0,80,0,0
67948,-86.9565217391304,4,1,0,80,0,0
68037,-86.2068965517241,4,1,0,80,0,0
68213,-85.4700854700855,4,1,0,80,0,0
68301,-84.7457627118644,4,1,0,80,0,0
68389,-84.0336134453781,4,1,0,80,0,0
68478,-83.3333333333333,4,1,0,80,0,0
68654,-82.6446280991736,4,1,0,80,0,0
68742,-81.9672131147541,4,1,0,80,0,0
68919,-81.3008130081301,4,1,0,80,0,0
69007,-80.6451612903226,4,1,0,80,0,0
69184,-80,4,1,0,80,0,0
69360,-86.9565217391304,4,1,0,80,0,0
69448,-86.2068965517241,4,1,0,80,0,0
69537,-85.4700854700855,4,1,0,80,0,0
69625,-84.0336134453781,4,1,0,80,0,0
69713,-82.6446280991736,4,1,0,80,0,0
69801,-81.3008130081301,4,1,0,80,0,0
69889,-80,4,1,0,80,0,0
70066,-86.9565217391304,4,1,0,80,0,0
70154,-86.2068965517241,4,1,0,80,0,0
70242,-85.4700854700855,4,1,0,80,0,0
70331,-84.0336134453781,4,1,0,80,0,0
70419,-82.6446280991736,4,1,0,80,0,0
70507,-81.3008130081301,4,1,0,80,0,0
70595,-80,4,1,0,80,0,0
70772,-86.9565217391304,4,1,0,80,0,0
70860,-86.2068965517241,4,1,0,80,0,0
70948,-85.4700854700855,4,1,0,80,0,0
71125,-84.7457627118644,4,1,0,80,0,0
71213,-84.0336134453781,4,1,0,80,0,0
71301,-83.3333333333333,4,1,0,80,0,0
71389,-82.6446280991736,4,1,0,80,0,0
71478,-81.9672131147541,4,1,0,80,0,0
71566,-81.3008130081301,4,1,0,80,0,0
71654,-80.6451612903226,4,1,0,80,0,0
71742,-80,4,1,0,80,0,0
71831,-79.3650793650794,4,1,0,80,0,0
71919,-78.7401574803149,4,1,0,80,0,0
72007,-78.125,4,1,0,80,0,0
72184,-86.9565217391304,4,1,0,80,0,0
72272,-86.2068965517241,4,1,0,80,0,0
72360,-85.4700854700855,4,1,0,80,0,0
72448,-84.0336134453781,4,1,0,80,0,0
72537,-82.6446280991736,4,1,0,80,0,0
72625,-81.3008130081301,4,1,0,80,0,0
72713,-80,4,1,0,80,0,0
72889,-86.9565217391304,4,1,0,80,0,0
72978,-86.2068965517241,4,1,0,80,0,0
73066,-85.4700854700855,4,1,0,80,0,0
73154,-84.0336134453781,4,1,0,80,0,0
73242,-82.6446280991736,4,1,0,80,0,0
73331,-81.3008130081301,4,1,0,80,0,0
73419,-80,4,1,0,80,0,0
73595,-86.9565217391304,4,1,0,80,0,0
73684,-86.2068965517241,4,1,0,80,0,0
73860,-85.4700854700855,4,1,0,80,0,0
73948,-84.7457627118644,4,1,0,80,0,0
74037,-84.0336134453781,4,1,0,80,0,0
74125,-83.3333333333333,4,1,0,80,0,0
74301,-82.6446280991736,4,1,0,80,0,0
74389,-81.9672131147541,4,1,0,80,0,0
74566,-81.3008130081301,4,1,0,80,0,0
74654,-80.6451612903226,4,1,0,80,0,0
74831,-80,4,1,0,80,0,0
75007,-86.9565217391304,4,1,0,80,0,0
75095,-86.2068965517241,4,1,0,80,0,0
75184,-85.4700854700855,4,1,0,80,0,0
75272,-84.0336134453781,4,1,0,80,0,0
75360,-82.6446280991736,4,1,0,80,0,0
75448,-81.3008130081301,4,1,0,80,0,0
75537,-80,4,1,0,80,0,0
75713,-86.9565217391304,4,1,0,80,0,0
75801,-86.2068965517241,4,1,0,80,0,0
75889,-85.4700854700855,4,1,0,80,0,0
75978,-84.7457627118644,4,1,0,80,0,0
76066,-84.0336134453781,4,1,0,80,0,0
76154,-83.3333333333333,4,1,0,80,0,0
76242,-82.6446280991736,4,1,0,80,0,0
76331,-81.3008130081301,4,1,0,80,0,0
76419,-80,4,1,0,80,0,0
76507,-78.7401574803149,4,1,0,80,0,0
76595,-77.5193798449612,4,1,0,80,0,0
76684,-76.3358778625954,4,1,0,80,0,0
76772,-75.187969924812,4,1,0,80,0,0
76860,-73.5294117647059,4,1,0,80,0,0
76948,-71.9424460431655,4,1,0,80,0,0
77037,-70.4225352112676,4,1,0,80,0,0
77125,-68.9655172413793,4,1,0,80,0,0
77213,-67.5675675675676,4,1,0,80,0,0
77301,-66.2251655629139,4,1,0,80,0,0
77389,-64.9350649350649,4,1,0,80,0,0
77478,-63.6942675159236,4,1,0,80,0,0
77566,-62.5,4,1,0,80,0,0
77654,-61.3496932515337,4,1,0,80,0,0
77831,-100,4,1,0,80,0,0
81889,-100.502512562814,4,1,0,80,0,0
81978,-101.010101010101,4,1,0,80,0,0
82066,-101.522842639594,4,1,0,80,0,0
82154,-102.040816326531,4,1,0,80,0,0
82242,-102.564102564103,4,1,0,80,0,0
82331,-103.092783505155,4,1,0,80,0,0
82419,-104.166666666667,4,1,0,80,0,0
82507,-104.712041884817,4,1,0,80,0,0
82595,-105.263157894737,4,1,0,80,0,0
82772,-100,4,1,0,80,0,0
87537,-100.502512562814,4,1,0,80,0,0
87625,-101.010101010101,4,1,0,80,0,0
87713,-101.522842639594,4,1,0,80,0,0
87801,-102.040816326531,4,1,0,80,0,0
87889,-102.564102564103,4,1,0,80,0,0
87978,-103.092783505155,4,1,0,80,0,0
88066,-103.626943005181,4,1,0,80,0,0
88154,-104.166666666667,4,1,0,80,0,0
88242,-104.712041884817,4,1,0,80,0,0
88331,-105.263157894737,4,1,0,80,0,0
88419,-105.820105820106,4,1,0,80,0,0
88507,-106.382978723404,4,1,0,80,0,0
88595,-106.951871657754,4,1,0,80,0,0
88948,-100,4,1,0,80,0,0
93184,-100.502512562814,4,1,0,80,0,0
93272,-101.010101010101,4,1,0,80,0,0
93360,-101.522842639594,4,1,0,80,0,0
93448,-102.040816326531,4,1,0,80,0,0
93537,-102.564102564103,4,1,0,80,0,0
93625,-103.092783505155,4,1,0,80,0,0
93713,-104.166666666667,4,1,0,80,0,0
93801,-104.712041884817,4,1,0,80,0,0
93889,-105.263157894737,4,1,0,80,0,0
94066,-100,4,1,0,80,0,0
98831,-100.502512562814,4,1,0,80,0,0
98919,-101.010101010101,4,1,0,80,0,0
99007,-101.522842639594,4,1,0,80,0,0
99095,-102.040816326531,4,1,0,80,0,0
99184,-102.564102564103,4,1,0,80,0,0
99272,-103.092783505155,4,1,0,80,0,0
99360,-104.166666666667,4,1,0,80,0,0
99448,-104.712041884817,4,1,0,80,0,0
99537,-105.263157894737,4,1,0,80,0,0
99713,-100,4,1,0,80,0,0
101125,-101.010101010101,4,1,0,80,0,0
101213,-102.040816326531,4,1,0,80,0,0
101301,-103.092783505155,4,1,0,80,0,0
101478,-100,4,1,0,80,0,0
102537,-101.010101010101,4,1,0,80,0,0
102625,-102.040816326531,4,1,0,80,0,0
102713,-103.092783505155,4,1,0,80,0,0
102801,-104.166666666667,4,1,0,80,0,0
102889,-105.263157894737,4,1,0,80,0,0
103066,-100,4,1,0,80,0,0
103948,-101.010101010101,4,1,0,80,0,0
104037,-102.040816326531,4,1,0,80,0,0
104125,-103.092783505155,4,1,0,80,0,0
104301,-100,4,1,0,80,0,0
104478,-100.502512562814,4,1,0,80,0,0
104566,-101.010101010101,4,1,0,80,0,0
104654,-101.522842639594,4,1,0,80,0,0
104742,-102.040816326531,4,1,0,80,0,0
104831,-102.564102564103,4,1,0,80,0,0
104919,-103.092783505155,4,1,0,80,0,0
105007,-104.166666666667,4,1,0,80,0,0
105095,-104.712041884817,4,1,0,80,0,0
105184,-105.263157894737,4,1,0,80,0,0
105360,-100,4,1,0,80,0,0
105537,-101.010101010101,4,1,0,80,0,0
105625,-102.040816326531,4,1,0,80,0,0
105713,-103.092783505155,4,1,0,80,0,0
105801,-104.166666666667,4,1,0,80,0,0
105889,-105.263157894737,4,1,0,80,0,0
106066,-100,4,1,0,80,0,0
106772,-101.010101010101,4,1,0,80,0,0
106860,-102.040816326531,4,1,0,80,0,0
106948,-103.092783505155,4,1,0,80,0,0
107125,-100,4,1,0,80,0,0
108184,-101.010101010101,4,1,0,80,0,0
108272,-102.040816326531,4,1,0,80,0,0
108360,-103.092783505155,4,1,0,80,0,0
108448,-104.166666666667,4,1,0,80,0,0
108537,-105.263157894737,4,1,0,80,0,0
108713,-100,4,1,0,80,0,0
109595,-101.010101010101,4,1,0,80,0,0
109684,-102.040816326531,4,1,0,80,0,0
109772,-103.092783505155,4,1,0,80,0,0
109948,-100,4,1,0,80,0,0
110125,-100.502512562814,4,1,0,80,0,0
110213,-101.010101010101,4,1,0,80,0,0
110301,-101.522842639594,4,1,0,80,0,0
110389,-102.040816326531,4,1,0,80,0,0
110478,-102.564102564103,4,1,0,80,0,0
110566,-103.092783505155,4,1,0,80,0,0
110654,-103.626943005181,4,1,0,80,0,0
110742,-104.166666666667,4,1,0,80,0,0
110831,-104.712041884817,4,1,0,80,0,0
110919,-105.263157894737,4,1,0,80,0,0
111007,-105.820105820106,4,1,0,80,0,0
111095,-106.382978723404,4,1,0,80,0,0
111184,-106.951871657754,4,1,0,80,0,0
111360,-86.9565217391304,4,1,0,80,0,0
111713,-81.9672131147541,4,1,0,80,0,0
111772,-83.3333333333333,4,1,0,80,0,0
111831,-84.7457627118644,4,1,0,80,0,0
111889,-86.2068965517241,4,1,0,80,0,0
112066,-86.9565217391304,4,1,0,80,0,0
112154,-86.2068965517241,4,1,0,80,0,0
112242,-79.3650793650794,4,1,0,80,0,0
112301,-80.6451612903226,4,1,0,80,0,0
112360,-81.9672131147541,4,1,0,80,0,0
112419,-83.3333333333333,4,1,0,80,0,0
112507,-86.2068965517241,4,1,0,80,0,0
112595,-79.3650793650794,4,1,0,80,0,0
112654,-80.6451612903226,4,1,0,80,0,0
112713,-81.9672131147541,4,1,0,80,0,0
112772,-83.3333333333333,4,1,0,80,0,0
112860,-86.2068965517241,4,1,0,80,0,0
112948,-79.3650793650794,4,1,0,80,0,0
113007,-80.6451612903226,4,1,0,80,0,0
113066,-81.9672131147541,4,1,0,80,0,0
113125,-83.3333333333333,4,1,0,80,0,0
113213,-85.4700854700855,4,1,0,80,0,0
113301,-84.7457627118644,4,1,0,80,0,0
113478,-86.9565217391304,4,1,0,80,0,0
113566,-86.2068965517241,4,1,0,80,0,0
113654,-85.4700854700855,4,1,0,80,0,0
113742,-84.7457627118644,4,1,0,80,0,0
113831,-84.0336134453781,4,1,0,80,0,0
113919,-83.3333333333333,4,1,0,80,0,0
114007,-82.6446280991736,4,1,0,80,0,0
114184,-86.9565217391304,4,1,0,80,0,0
114272,-86.2068965517241,4,1,0,80,0,0
114360,-79.3650793650794,4,1,0,80,0,0
114419,-80.6451612903226,4,1,0,80,0,0
114478,-81.9672131147541,4,1,0,80,0,0
114537,-83.3333333333333,4,1,0,80,0,0
114625,-86.2068965517241,4,1,0,80,0,0
114889,-86.9565217391304,4,1,0,80,0,0
115772,-74.0740740740741,4,1,0,80,0,0
116301,-86.9565217391304,4,1,0,80,0,0
117360,-81.9672131147541,4,1,0,80,0,0
117419,-83.3333333333333,4,1,0,80,0,0
117478,-84.7457627118644,4,1,0,80,0,0
117537,-86.2068965517241,4,1,0,80,0,0
117713,-86.9565217391304,4,1,0,80,0,0
117801,-86.2068965517241,4,1,0,80,0,0
117889,-79.3650793650794,4,1,0,80,0,0
117948,-80.6451612903226,4,1,0,80,0,0
118007,-81.9672131147541,4,1,0,80,0,0
118066,-83.3333333333333,4,1,0,80,0,0
118154,-86.2068965517241,4,1,0,80,0,0
118242,-79.3650793650794,4,1,0,80,0,0
118301,-80.6451612903226,4,1,0,80,0,0
118360,-81.9672131147541,4,1,0,80,0,0
118419,-83.3333333333333,4,1,0,80,0,0
118507,-86.2068965517241,4,1,0,80,0,0
118595,-79.3650793650794,4,1,0,80,0,0
118654,-80.6451612903226,4,1,0,80,0,0
118713,-81.9672131147541,4,1,0,80,0,0
118772,-83.3333333333333,4,1,0,80,0,0
118860,-85.4700854700855,4,1,0,80,0,0
118948,-84.7457627118644,4,1,0,80,0,0
119125,-86.9565217391304,4,1,0,80,0,0
119213,-86.2068965517241,4,1,0,80,0,0
119301,-85.4700854700855,4,1,0,80,0,0
119389,-84.7457627118644,4,1,0,80,0,0
119478,-84.0336134453781,4,1,0,80,0,0
119566,-83.3333333333333,4,1,0,80,0,0
119654,-82.6446280991736,4,1,0,80,0,0
119831,-86.9565217391304,4,1,0,80,0,0
119919,-86.2068965517241,4,1,0,80,0,0
120007,-79.3650793650794,4,1,0,80,0,0
120066,-80.6451612903226,4,1,0,80,0,0
120125,-81.9672131147541,4,1,0,80,0,0
120184,-83.3333333333333,4,1,0,80,0,0
120272,-86.2068965517241,4,1,0,80,0,0
120537,-86.9565217391304,4,1,0,80,0,0
121419,-74.0740740740741,4,1,0,80,0,0
121948,-86.9565217391304,4,1,0,80,0,0
123007,-81.9672131147541,4,1,0,80,0,0
123066,-83.3333333333333,4,1,0,80,0,0
123125,-84.7457627118644,4,1,0,80,0,0
123184,-86.2068965517241,4,1,0,80,0,0
123360,-86.9565217391304,4,1,0,80,0,0
123448,-86.2068965517241,4,1,0,80,0,0
123537,-80,4,1,0,80,0,0
123581,-81.9672131147541,4,1,0,80,0,0
123625,-84.0336134453781,4,1,0,80,0,0
123713,-86.2068965517241,4,1,0,80,0,0
123889,-80,4,1,0,80,0,0
123934,-81.9672131147541,4,1,0,80,0,0
123978,-84.0336134453781,4,1,0,80,0,0
124066,-86.2068965517241,4,1,0,80,0,0
124242,-79.3650793650794,4,1,0,80,0,0
124301,-80.6451612903226,4,1,0,80,0,0
124360,-81.9672131147541,4,1,0,80,0,0
124419,-83.3333333333333,4,1,0,80,0,0
124507,-85.4700854700855,4,1,0,80,0,0
124595,-84.7457627118644,4,1,0,80,0,0
124772,-86.9565217391304,4,1,0,80,0,0
124860,-86.2068965517241,4,1,0,80,0,0
124948,-85.4700854700855,4,1,0,80,0,0
125036,-84.7457627118644,4,1,0,80,0,0
125125,-84.0336134453781,4,1,0,80,0,0
125213,-83.3333333333333,4,1,0,80,0,0
125301,-82.6446280991736,4,1,0,80,0,0
125478,-86.9565217391304,4,1,0,80,0,0
125566,-86.2068965517241,4,1,0,80,0,0
125654,-79.3650793650794,4,1,0,80,0,0
125713,-80.6451612903226,4,1,0,80,0,0
125772,-81.9672131147541,4,1,0,80,0,0
125831,-83.3333333333333,4,1,0,80,0,0
125919,-86.2068965517241,4,1,0,80,0,0
126183,-86.9565217391304,4,1,0,80,0,0
127066,-74.0740740740741,4,1,0,80,0,0
127595,-86.9565217391304,4,1,0,80,0,0
128654,-81.9672131147541,4,1,0,80,0,0
128713,-83.3333333333333,4,1,0,80,0,0
128772,-84.7457627118644,4,1,0,80,0,0
128831,-86.2068965517241,4,1,0,80,0,0
129007,-86.9565217391304,4,1,0,80,0,0
129095,-86.2068965517241,4,1,0,80,0,0
129184,-80,4,1,0,80,0,0
129228,-81.9672131147541,4,1,0,80,0,0
129272,-84.0336134453781,4,1,0,80,0,0
129360,-86.2068965517241,4,1,0,80,0,0
129537,-80,4,1,0,80,0,0
129581,-81.9672131147541,4,1,0,80,0,0
129625,-84.0336134453781,4,1,0,80,0,0
129713,-86.2068965517241,4,1,0,80,0,0
129889,-79.3650793650794,4,1,0,80,0,0
129948,-80.6451612903226,4,1,0,80,0,0
130007,-81.9672131147541,4,1,0,80,0,0
130066,-83.3333333333333,4,1,0,80,0,0
130154,-85.4700854700855,4,1,0,80,0,0
130242,-84.7457627118644,4,1,0,80,0,0
130419,-86.9565217391304,4,1,0,80,0,0
130507,-86.2068965517241,4,1,0,80,0,0
130595,-85.4700854700855,4,1,0,80,0,0
130684,-84.7457627118644,4,1,0,80,0,0
130772,-84.0336134453781,4,1,0,80,0,0
130860,-83.3333333333333,4,1,0,80,0,0
130948,-82.6446280991736,4,1,0,80,0,0
131125,-86.9565217391304,4,1,0,80,0,0
131213,-86.2068965517241,4,1,0,80,0,0
131301,-79.3650793650794,4,1,0,80,0,0
131360,-80.6451612903226,4,1,0,80,0,0
131419,-81.9672131147541,4,1,0,80,0,0
131478,-83.3333333333333,4,1,0,80,0,0
131566,-86.2068965517241,4,1,0,80,0,0
131831,-86.9565217391304,4,1,0,80,0,0
132889,-86.2068965517241,4,1,0,80,0,0
132978,-85.4700854700855,4,1,0,80,0,0
133066,-84.7457627118644,4,1,0,80,0,0
133242,-84.0336134453781,4,1,0,80,0,0
133331,-83.3333333333333,4,1,0,80,0,0
133419,-82.6446280991736,4,1,0,80,0,0
133507,-81.9672131147541,4,1,0,80,0,0
133595,-81.3008130081301,4,1,0,80,0,0
133684,-80.6451612903226,4,1,0,80,0,0
133772,-80,4,1,0,80,0,0
133948,-78.7401574803149,4,1,0,80,0,0
134125,-77.5193798449612,4,1,0,80,0,0
134301,-81.9672131147541,4,1,0,80,0,0
134360,-83.3333333333333,4,1,0,80,0,0
134419,-84.7457627118644,4,1,0,80,0,0
134478,-86.2068965517241,4,1,0,80,0,0
134654,-86.9565217391304,4,1,0,80,0,0
134742,-86.2068965517241,4,1,0,80,0,0
134831,-79.3650793650794,4,1,0,80,0,0
134889,-80.6451612903226,4,1,0,80,0,0
134948,-81.9672131147541,4,1,0,80,0,0
135007,-83.3333333333333,4,1,0,80,0,0
135095,-86.2068965517241,4,1,0,80,0,0
135184,-79.3650793650794,4,1,0,80,0,0
135242,-80.6451612903226,4,1,0,80,0,0
135301,-81.9672131147541,4,1,0,80,0,0
135360,-83.3333333333333,4,1,0,80,0,0
135448,-86.2068965517241,4,1,0,80,0,0
135537,-80,4,1,0,80,0,0
135581,-81.9672131147541,4,1,0,80,0,0
135625,-84.0336134453781,4,1,0,80,0,0
135713,-86.2068965517241,4,1,0,80,0,0
135801,-85.4700854700855,4,1,0,80,0,0
135889,-84.7457627118644,4,1,0,80,0,0
136066,-86.9565217391304,4,1,0,80,0,0
136154,-86.2068965517241,4,1,0,80,0,0
136242,-85.4700854700855,4,1,0,80,0,0
136331,-84.7457627118644,4,1,0,80,0,0
136419,-84.0336134453781,4,1,0,80,0,0
136507,-83.3333333333333,4,1,0,80,0,0
136595,-82.6446280991736,4,1,0,80,0,0
136772,-86.9565217391304,4,1,0,80,0,0
136860,-86.2068965517241,4,1,0,80,0,0
136948,-79.3650793650794,4,1,0,80,0,0
137007,-80.6451612903226,4,1,0,80,0,0
137066,-81.9672131147541,4,1,0,80,0,0
137125,-83.3333333333333,4,1,0,80,0,0
137213,-86.2068965517241,4,1,0,80,0,0
137478,-86.9565217391304,4,1,0,80,0,0
137566,-86.2068965517241,4,1,0,80,0,0
137654,-79.3650793650794,4,1,0,80,0,0
137713,-80.6451612903226,4,1,0,80,0,0
137772,-81.9672131147541,4,1,0,80,0,0
137831,-83.3333333333333,4,1,0,80,0,0
137919,-86.2068965517241,4,1,0,80,0,0
138007,-79.3650793650794,4,1,0,80,0,0
138066,-80.6451612903226,4,1,0,80,0,0
138125,-81.9672131147541,4,1,0,80,0,0
138184,-83.3333333333333,4,1,0,80,0,0
138272,-86.2068965517241,4,1,0,80,0,0
138360,-85.4700854700855,4,1,0,80,0,0
138478,-74.0740740740741,4,1,0,80,0,0
138889,-86.9565217391304,4,1,0,80,0,0
139948,-81.9672131147541,4,1,0,80,0,0
140007,-83.3333333333333,4,1,0,80,0,0
140066,-84.7457627118644,4,1,0,80,0,0
140125,-86.2068965517241,4,1,0,80,0,0
140301,-86.9565217391304,4,1,0,80,0,0
140389,-86.2068965517241,4,1,0,80,0,0
140478,-79.3650793650794,4,1,0,80,0,0
140537,-80.6451612903226,4,1,0,80,0,0
140595,-81.9672131147541,4,1,0,80,0,0
140654,-83.3333333333333,4,1,0,80,0,0
140742,-86.2068965517241,4,1,0,80,0,0
140831,-79.3650793650794,4,1,0,80,0,0
140889,-80.6451612903226,4,1,0,80,0,0
140948,-81.9672131147541,4,1,0,80,0,0
141007,-83.3333333333333,4,1,0,80,0,0
141095,-86.2068965517241,4,1,0,80,0,0
141184,-80,4,1,0,80,0,0
141228,-81.9672131147541,4,1,0,80,0,0
141272,-84.0336134453781,4,1,0,80,0,0
141360,-86.2068965517241,4,1,0,80,0,0
141448,-85.4700854700855,4,1,0,80,0,0
141537,-84.7457627118644,4,1,0,80,0,0
141713,-86.9565217391304,4,1,0,80,0,0
141801,-86.2068965517241,4,1,0,80,0,0
141889,-85.4700854700855,4,1,0,80,0,0
141978,-84.7457627118644,4,1,0,80,0,0
142066,-84.0336134453781,4,1,0,80,0,0
142154,-83.3333333333333,4,1,0,80,0,0
142242,-82.6446280991736,4,1,0,80,0,0
142419,-86.9565217391304,4,1,0,80,0,0
142507,-86.2068965517241,4,1,0,80,0,0
142595,-79.3650793650794,4,1,0,80,0,0
142654,-80.6451612903226,4,1,0,80,0,0
142713,-81.9672131147541,4,1,0,80,0,0
142772,-83.3333333333333,4,1,0,80,0,0
142860,-86.2068965517241,4,1,0,80,0,0
143125,-86.9565217391304,4,1,0,80,0,0
143213,-86.2068965517241,4,1,0,80,0,0
143301,-79.3650793650794,4,1,0,80,0,0
143360,-80.6451612903226,4,1,0,80,0,0
143419,-81.9672131147541,4,1,0,80,0,0
143478,-83.3333333333333,4,1,0,80,0,0
143566,-86.2068965517241,4,1,0,80,0,0
143654,-79.3650793650794,4,1,0,80,0,0
143713,-80.6451612903226,4,1,0,80,0,0
143772,-81.9672131147541,4,1,0,80,0,0
143831,-83.3333333333333,4,1,0,80,0,0
143919,-86.2068965517241,4,1,0,80,0,0
144007,-85.4700854700855,4,1,0,80,0,0
144125,-74.0740740740741,4,1,0,80,0,0
144537,-86.9565217391304,4,1,0,80,0,0
145595,-81.9672131147541,4,1,0,80,0,0
145654,-83.3333333333333,4,1,0,80,0,0
145713,-84.7457627118644,4,1,0,80,0,0
145772,-86.2068965517241,4,1,0,80,0,0
145948,-86.9565217391304,4,1,0,80,0,0
146037,-86.2068965517241,4,1,0,80,0,0
146125,-79.3650793650794,4,1,0,80,0,0
146184,-80.6451612903226,4,1,0,80,0,0
146242,-81.9672131147541,4,1,0,80,0,0
146301,-83.3333333333333,4,1,0,80,0,0
146389,-86.2068965517241,4,1,0,80,0,0
146478,-79.3650793650794,4,1,0,80,0,0
146537,-80.6451612903226,4,1,0,80,0,0
146595,-81.9672131147541,4,1,0,80,0,0
146654,-83.3333333333333,4,1,0,80,0,0
146742,-86.2068965517241,4,1,0,80,0,0
146831,-79.3650793650794,4,1,0,80,0,0
146889,-80.6451612903226,4,1,0,80,0,0
146948,-81.9672131147541,4,1,0,80,0,0
147007,-83.3333333333333,4,1,0,80,0,0
147095,-85.4700854700855,4,1,0,80,0,0
147184,-84.7457627118644,4,1,0,80,0,0
147360,-86.9565217391304,4,1,0,80,0,0
147448,-86.2068965517241,4,1,0,80,0,0
147537,-85.4700854700855,4,1,0,80,0,0
147625,-84.7457627118644,4,1,0,80,0,0
147713,-84.0336134453781,4,1,0,80,0,0
147801,-83.3333333333333,4,1,0,80,0,0
147889,-82.6446280991736,4,1,0,80,0,0
148066,-86.9565217391304,4,1,0,80,0,0
148154,-86.2068965517241,4,1,0,80,0,0
148242,-79.3650793650794,4,1,0,80,0,0
148301,-80.6451612903226,4,1,0,80,0,0
148360,-81.9672131147541,4,1,0,80,0,0
148419,-83.3333333333333,4,1,0,80,0,0
148507,-86.2068965517241,4,1,0,80,0,0
148772,-86.9565217391304,4,1,0,80,0,0
148860,-86.2068965517241,4,1,0,80,0,0
148948,-79.3650793650794,4,1,0,80,0,0
149007,-80.6451612903226,4,1,0,80,0,0
149066,-81.9672131147541,4,1,0,80,0,0
149125,-83.3333333333333,4,1,0,80,0,0
149213,-86.2068965517241,4,1,0,80,0,0
149301,-79.3650793650794,4,1,0,80,0,0
149360,-80.6451612903226,4,1,0,80,0,0
149419,-81.9672131147541,4,1,0,80,0,0
149478,-83.3333333333333,4,1,0,80,0,0
149566,-86.2068965517241,4,1,0,80,0,0
149654,-85.4700854700855,4,1,0,80,0,0
149772,-74.0740740740741,4,1,0,80,0,0
150184,-86.9565217391304,4,1,0,80,0,0
151242,-81.9672131147541,4,1,0,80,0,0
151301,-83.3333333333333,4,1,0,80,0,0
151360,-84.7457627118644,4,1,0,80,0,0
151419,-86.2068965517241,4,1,0,80,0,0
151595,-86.9565217391304,4,1,0,80,0,0
151684,-86.2068965517241,4,1,0,80,0,0
151772,-79.3650793650794,4,1,0,80,0,0
151831,-80.6451612903226,4,1,0,80,0,0
151889,-81.9672131147541,4,1,0,80,0,0
151948,-83.3333333333333,4,1,0,80,0,0
152037,-86.2068965517241,4,1,0,80,0,0
152125,-79.3650793650794,4,1,0,80,0,0
152184,-80.6451612903226,4,1,0,80,0,0
152242,-81.9672131147541,4,1,0,80,0,0
152301,-83.3333333333333,4,1,0,80,0,0
152389,-86.2068965517241,4,1,0,80,0,0
152478,-79.3650793650794,4,1,0,80,0,0
152537,-80.6451612903226,4,1,0,80,0,0
152595,-81.9672131147541,4,1,0,80,0,0
152654,-83.3333333333333,4,1,0,80,0,0
152742,-85.4700854700855,4,1,0,80,0,0
152831,-84.7457627118644,4,1,0,80,0,0
153007,-86.9565217391304,4,1,0,80,0,0
153095,-86.2068965517241,4,1,0,80,0,0
153184,-85.4700854700855,4,1,0,80,0,0
153272,-84.7457627118644,4,1,0,80,0,0
153360,-84.0336134453781,4,1,0,80,0,0
153448,-83.3333333333333,4,1,0,80,0,0
153537,-82.6446280991736,4,1,0,80,0,0
153713,-86.9565217391304,4,1,0,80,0,0
153801,-86.2068965517241,4,1,0,80,0,0
153889,-79.3650793650794,4,1,0,80,0,0
153948,-80.6451612903226,4,1,0,80,0,0
154007,-81.9672131147541,4,1,0,80,0,0
154066,-83.3333333333333,4,1,0,80,0,0
154154,-86.2068965517241,4,1,0,80,0,0
154419,-86.9565217391304,4,1,0,80,0,0
154507,-86.2068965517241,4,1,0,80,0,0
154595,-79.3650793650794,4,1,0,80,0,0
154654,-80.6451612903226,4,1,0,80,0,0
154713,-81.9672131147541,4,1,0,80,0,0
154772,-83.3333333333333,4,1,0,80,0,0
154860,-86.2068965517241,4,1,0,80,0,0
154948,-79.3650793650794,4,1,0,80,0,0
155007,-80.6451612903226,4,1,0,80,0,0
155066,-81.9672131147541,4,1,0,80,0,0
155125,-83.3333333333333,4,1,0,80,0,0
155213,-86.2068965517241,4,1,0,80,0,0
155301,-85.4700854700855,4,1,0,80,0,0
155478,-84.7457627118644,4,1,0,80,0,0
155566,-84.0336134453781,4,1,0,80,0,0
155654,-83.3333333333333,4,1,0,80,0,0
155831,-82.6446280991736,4,1,0,80,0,0
155919,-81.9672131147541,4,1,0,80,0,0
156007,-81.3008130081301,4,1,0,80,0,0
156095,-80.6451612903226,4,1,0,80,0,0
156184,-80,4,1,0,80,0,0
156272,-79.3650793650794,4,1,0,80,0,0
156360,-78.7401574803149,4,1,0,80,0,0
156448,-78.125,4,1,0,80,0,0
156537,-77.5193798449612,4,1,0,80,0,0
156625,-76.9230769230769,4,1,0,80,0,0
156713,-76.3358778625954,4,1,0,80,0,0
156889,-83.3333333333333,4,1,0,80,0,0
157066,-81.9672131147541,4,1,0,80,0,0
157110,-80.6451612903226,4,1,0,80,0,0
157154,-79.3650793650794,4,1,0,80,0,0
157198,-78.125,4,1,0,80,0,0
157242,-76.9230769230769,4,1,0,80,0,0
157419,-83.3333333333333,4,1,0,80,0,0
159448,-82.6446280991736,4,1,0,80,0,0
159537,-76.3358778625954,4,1,0,80,0,0
159595,-77.5193798449612,4,1,0,80,0,0
159654,-78.7401574803149,4,1,0,80,0,0
159713,-80,4,1,0,80,0,0
159801,-82.6446280991736,4,1,0,80,0,0
160066,-83.3333333333333,4,1,0,80,0,0
162184,-82.6446280991736,4,1,0,80,0,0
162713,-76.9230769230769,4,1,0,80,0,0
162757,-78.7401574803149,4,1,0,80,0,0
162801,-80.6451612903226,4,1,0,80,0,0
162889,-82.6446280991736,4,1,0,80,0,0
163419,-76.9230769230769,4,1,0,80,0,0
163463,-78.7401574803149,4,1,0,80,0,0
163507,-80.6451612903226,4,1,0,80,0,0
163595,-82.6446280991736,4,1,0,80,0,0
164478,-76.3358778625954,4,1,0,80,0,0
164537,-77.5193798449612,4,1,0,80,0,0
164595,-78.7401574803149,4,1,0,80,0,0
164654,-80,4,1,0,80,0,0
164742,-82.6446280991736,4,1,0,80,0,0
164831,-76.3358778625954,4,1,0,80,0,0
164889,-77.5193798449612,4,1,0,80,0,0
164948,-78.7401574803149,4,1,0,80,0,0
165007,-80,4,1,0,80,0,0
165095,-82.6446280991736,4,1,0,80,0,0
165537,-76.9230769230769,4,1,0,80,0,0
165581,-78.7401574803149,4,1,0,80,0,0
165625,-80.6451612903226,4,1,0,80,0,0
165713,-82.6446280991736,4,1,0,80,0,0
166242,-76.9230769230769,4,1,0,80,0,0
166286,-78.7401574803149,4,1,0,80,0,0
166330,-80.6451612903226,4,1,0,80,0,0
166418,-82.6446280991736,4,1,0,80,0,0
167478,-76.3358778625954,4,1,0,80,0,0
167537,-77.5193798449612,4,1,0,80,0,0
167595,-78.7401574803149,4,1,0,80,0,0
167654,-80,4,1,0,80,0,0
167742,-82.6446280991736,4,1,0,80,0,0
167831,-76.3358778625954,4,1,0,80,0,0
167889,-77.5193798449612,4,1,0,80,0,0
167948,-78.7401574803149,4,1,0,80,0,0
168007,-80,4,1,0,80,0,0
168184,-86.9565217391304,4,1,0,80,0,0
168801,-86.2068965517241,4,1,0,80,0,0
168889,-85.4700854700855,4,1,0,80,0,0
168978,-84.7457627118644,4,1,0,80,0,0
169066,-84.0336134453781,4,1,0,80,0,0
169154,-82.6446280991736,4,1,0,80,0,0
169242,-81.3008130081301,4,1,0,80,0,0
169331,-80,4,1,0,80,0,0
169419,-78.7401574803149,4,1,0,80,0,0
171007,-86.9565217391304,4,1,0,80,0,0
171625,-86.2068965517241,4,1,0,80,0,0
171713,-85.4700854700855,4,1,0,80,0,0
171801,-84.7457627118644,4,1,0,80,0,0
171889,-84.0336134453781,4,1,0,80,0,0
171978,-82.6446280991736,4,1,0,80,0,0
172066,-81.3008130081301,4,1,0,80,0,0
172154,-80,4,1,0,80,0,0
172242,-78.7401574803149,4,1,0,80,0,0
173831,-86.9565217391304,4,1,0,80,0,0
174448,-86.2068965517241,4,1,0,80,0,0
174537,-85.4700854700855,4,1,0,80,0,0
174625,-84.7457627118644,4,1,0,80,0,0
174713,-84.0336134453781,4,1,0,80,0,0
174801,-82.6446280991736,4,1,0,80,0,0
174889,-81.3008130081301,4,1,0,80,0,0
174978,-80,4,1,0,80,0,0
175066,-78.7401574803149,4,1,0,80,0,0
176654,-86.9565217391304,4,1,0,80,0,0
177007,-86.2068965517241,4,1,0,80,0,0
177051,-85.4700854700855,4,1,0,80,0,0
177095,-84.7457627118644,4,1,0,80,0,0
177139,-84.0336134453781,4,1,0,80,0,0
177184,-83.3333333333333,4,1,0,80,0,0
177242,-84.0336134453781,4,1,0,80,0,0
177301,-84.7457627118644,4,1,0,80,0,0
177360,-85.4700854700855,4,1,0,80,0,0
177448,-84.7457627118644,4,1,0,80,0,0
177537,-84.0336134453781,4,1,0,80,0,0
177625,-82.6446280991736,4,1,0,80,0,0
177713,-81.3008130081301,4,1,0,80,0,0
177801,-80,4,1,0,80,0,0
177889,-78.7401574803149,4,1,0,80,0,0
178066,-86.9565217391304,4,1,0,80,0,0
178154,-86.2068965517241,4,1,0,80,0,0
178242,-85.4700854700855,4,1,0,80,0,0
178331,-84.7457627118644,4,1,0,80,0,0
178419,-84.0336134453781,4,1,0,80,0,0
178507,-83.3333333333333,4,1,0,80,0,0
178595,-82.6446280991736,4,1,0,80,0,0
178684,-81.3008130081301,4,1,0,80,0,0
178772,-80,4,1,0,80,0,0
178860,-78.7401574803149,4,1,0,80,0,0
178948,-77.5193798449612,4,1,0,80,0,0
179037,-76.3358778625954,4,1,0,80,0,0
179125,-75.187969924812,4,1,0,80,0,0
179213,-74.0740740740741,4,1,0,80,0,0
179301,-72.992700729927,4,1,0,80,0,0
179478,-86.9565217391304,4,1,0,80,0,0
180095,-86.2068965517241,4,1,0,80,0,0
180184,-85.4700854700855,4,1,0,80,0,0
180272,-84.7457627118644,4,1,0,80,0,0
180360,-84.0336134453781,4,1,0,80,0,0
180448,-82.6446280991736,4,1,0,80,0,0
180537,-81.3008130081301,4,1,0,80,0,0
180625,-80,4,1,0,80,0,0
180713,-78.7401574803149,4,1,0,80,0,0
182301,-86.9565217391304,4,1,0,80,0,0
182919,-86.2068965517241,4,1,0,80,0,0
183007,-85.4700854700855,4,1,0,80,0,0
183095,-84.7457627118644,4,1,0,80,0,0
183184,-84.0336134453781,4,1,0,80,0,0
183272,-82.6446280991736,4,1,0,80,0,0
183360,-81.3008130081301,4,1,0,80,0,0
183448,-80,4,1,0,80,0,0
183537,-78.7401574803149,4,1,0,80,0,0
185125,-86.9565217391304,4,1,0,80,0,0
185742,-86.2068965517241,4,1,0,80,0,0
185831,-85.4700854700855,4,1,0,80,0,0
185919,-84.7457627118644,4,1,0,80,0,0
186007,-84.0336134453781,4,1,0,80,0,0
186095,-82.6446280991736,4,1,0,80,0,0
186184,-81.3008130081301,4,1,0,80,0,0
186272,-80,4,1,0,80,0,0
186360,-78.7401574803149,4,1,0,80,0,0
187948,-86.9565217391304,4,1,0,80,0,0
188301,-86.2068965517241,4,1,0,80,0,0
188345,-85.4700854700855,4,1,0,80,0,0
188389,-84.7457627118644,4,1,0,80,0,0
188434,-84.0336134453781,4,1,0,80,0,0
188478,-83.3333333333333,4,1,0,80,0,0
188537,-84.0336134453781,4,1,0,80,0,0
188595,-84.7457627118644,4,1,0,80,0,0
188654,-85.4700854700855,4,1,0,80,0,0
188742,-84.7457627118644,4,1,0,80,0,0
188831,-84.0336134453781,4,1,0,80,0,0
188919,-82.6446280991736,4,1,0,80,0,0
189007,-81.3008130081301,4,1,0,80,0,0
189095,-80,4,1,0,80,0,0
189184,-78.7401574803149,4,1,0,80,0,0
189360,-86.9565217391304,4,1,0,80,0,0
189448,-86.2068965517241,4,1,0,80,0,0
189537,-85.4700854700855,4,1,0,80,0,0
189625,-84.7457627118644,4,1,0,80,0,0
189713,-84.0336134453781,4,1,0,80,0,0
189801,-83.3333333333333,4,1,0,80,0,0
189889,-82.6446280991736,4,1,0,80,0,0
189978,-81.3008130081301,4,1,0,80,0,0
190066,-80,4,1,0,80,0,0
190154,-78.7401574803149,4,1,0,80,0,0
190242,-77.5193798449612,4,1,0,80,0,0
190419,-76.3358778625954,4,1,0,80,0,0
190595,-75.187969924812,4,1,0,80,0,0
190772,-86.9565217391304,4,1,0,80,0,0
191389,-86.2068965517241,4,1,0,80,0,0
191478,-85.4700854700855,4,1,0,80,0,0
191566,-84.7457627118644,4,1,0,80,0,0
191654,-84.0336134453781,4,1,0,80,0,0
191742,-82.6446280991736,4,1,0,80,0,0
191831,-81.3008130081301,4,1,0,80,0,0
191919,-80,4,1,0,80,0,0
192007,-78.7401574803149,4,1,0,80,0,0
192184,-86.9565217391304,4,1,0,80,0,0
192272,-86.2068965517241,4,1,0,80,0,0
192360,-85.4700854700855,4,1,0,80,0,0
192448,-84.7457627118644,4,1,0,80,0,0
192537,-84.0336134453781,4,1,0,80,0,0
192625,-83.3333333333333,4,1,0,80,0,0
192713,-82.6446280991736,4,1,0,80,0,0
192801,-81.3008130081301,4,1,0,80,0,0
192889,-80,4,1,0,80,0,0
192978,-78.7401574803149,4,1,0,80,0,0
193066,-77.5193798449612,4,1,0,80,0,0
193242,-76.3358778625954,4,1,0,80,0,0
193419,-75.187969924812,4,1,0,80,0,0
193595,-86.9565217391304,4,1,0,80,0,0
194213,-86.2068965517241,4,1,0,80,0,0
194301,-85.4700854700855,4,1,0,80,0,0
194389,-84.7457627118644,4,1,0,80,0,0
194478,-84.0336134453781,4,1,0,80,0,0
194566,-82.6446280991736,4,1,0,80,0,0
194654,-81.3008130081301,4,1,0,80,0,0
194742,-80,4,1,0,80,0,0
194831,-78.7401574803149,4,1,0,80,0,0
196419,-86.9565217391304,4,1,0,80,0,0
197037,-86.2068965517241,4,1,0,80,0,0
197125,-85.4700854700855,4,1,0,80,0,0
197213,-84.7457627118644,4,1,0,80,0,0
197301,-84.0336134453781,4,1,0,80,0,0
197389,-82.6446280991736,4,1,0,80,0,0
197478,-81.3008130081301,4,1,0,80,0,0
197566,-80,4,1,0,80,0,0
197654,-78.7401574803149,4,1,0,80,0,0
197831,-86.9565217391304,4,1,0,80,0,0
197919,-86.2068965517241,4,1,0,80,0,0
198007,-85.4700854700855,4,1,0,80,0,0
198095,-84.7457627118644,4,1,0,80,0,0
198184,-84.0336134453781,4,1,0,80,0,0
198272,-83.3333333333333,4,1,0,80,0,0
198360,-82.6446280991736,4,1,0,80,0,0
198448,-81.3008130081301,4,1,0,80,0,0
198537,-80,4,1,0,80,0,0
198625,-78.7401574803149,4,1,0,80,0,0
198713,-77.5193798449612,4,1,0,80,0,0
198889,-76.3358778625954,4,1,0,80,0,0
199066,-75.187969924812,4,1,0,80,0,0
199242,-86.9565217391304,4,1,0,80,0,0
199772,-86.2068965517241,4,1,0,80,0,0
199816,-85.4700854700855,4,1,0,80,0,0
199860,-84.7457627118644,4,1,0,80,0,0
199904,-84.0336134453781,4,1,0,80,0,0
199948,-83.3333333333333,4,1,0,80,0,0
200007,-84.0336134453781,4,1,0,80,0,0
200066,-84.7457627118644,4,1,0,80,0,0
200125,-85.4700854700855,4,1,0,80,0,0
200213,-84.7457627118644,4,1,0,80,0,0
200301,-84.0336134453781,4,1,0,80,0,0
200389,-83.3333333333333,4,1,0,80,0,0
200478,-82.6446280991736,4,1,0,80,0,0
200654,-81.9672131147541,4,1,0,80,0,0
200742,-81.3008130081301,4,1,0,80,0,0
200831,-80.6451612903226,4,1,0,80,0,0
201007,-80,4,1,0,80,0,0
201095,-79.3650793650794,4,1,0,80,0,0
201184,-78.7401574803149,4,1,0,80,0,0
201272,-78.125,4,1,0,80,0,0
201360,-77.5193798449612,4,1,0,80,0,0
201448,-76.9230769230769,4,1,0,80,0,0
201537,-76.3358778625954,4,1,0,80,0,0
201625,-75.7575757575758,4,1,0,80,0,0
201713,-75.187969924812,4,1,0,80,0,0
201801,-74.6268656716418,4,1,0,80,0,0
201889,-74.0740740740741,4,1,0,80,0,0
202066,-86.9565217391304,4,1,0,80,0,0
202419,-86.2068965517241,4,1,0,80,0,0
202478,-85.4700854700855,4,1,0,80,0,0
202537,-84.7457627118644,4,1,0,80,0,0
202595,-84.0336134453781,4,1,0,80,0,0
202684,-83.3333333333333,4,1,0,80,0,0
202772,-82.6446280991736,4,1,0,80,0,0
202860,-81.9672131147541,4,1,0,80,0,0
202948,-81.3008130081301,4,1,0,80,0,0
204889,-86.9565217391304,4,1,0,80,0,0
205242,-86.2068965517241,4,1,0,80,0,0
205301,-85.4700854700855,4,1,0,80,0,0
205360,-84.7457627118644,4,1,0,80,0,0
205419,-84.0336134453781,4,1,0,80,0,0
205507,-83.3333333333333,4,1,0,80,0,0
205595,-82.6446280991736,4,1,0,80,0,0
205684,-81.9672131147541,4,1,0,80,0,0
205772,-81.3008130081301,4,1,0,80,0,0
207713,-86.9565217391304,4,1,0,80,0,0
208066,-86.2068965517241,4,1,0,80,0,0
208125,-85.4700854700855,4,1,0,80,0,0
208184,-84.7457627118644,4,1,0,80,0,0
208242,-84.0336134453781,4,1,0,80,0,0
208331,-83.3333333333333,4,1,0,80,0,0
208419,-82.6446280991736,4,1,0,80,0,0
208507,-81.9672131147541,4,1,0,80,0,0
208596,-81.3008130081301,4,1,0,80,0,0
210537,-86.9565217391304,4,1,0,80,0,0
211066,-86.2068965517241,4,1,0,80,0,0
211110,-85.4700854700855,4,1,0,80,0,0
211155,-84.7457627118644,4,1,0,80,0,0
211199,-84.0336134453781,4,1,0,80,0,0
211243,-83.3333333333333,4,1,0,80,0,0
211302,-84.0336134453781,4,1,0,80,0,0
211360,-84.7457627118644,4,1,0,80,0,0
211419,-85.4700854700855,4,1,0,80,0,0
211507,-84.7457627118644,4,1,0,80,0,0
211596,-84.0336134453781,4,1,0,80,0,0
211684,-83.3333333333333,4,1,0,80,0,0
211772,-82.6446280991736,4,1,0,80,0,0
211948,-81.9672131147541,4,1,0,80,0,0
212037,-81.3008130081301,4,1,0,80,0,0
212125,-80.6451612903226,4,1,0,80,0,0
212301,-80,4,1,0,80,0,0
212389,-79.3650793650794,4,1,0,80,0,0
212478,-78.7401574803149,4,1,0,80,0,0
212566,-78.125,4,1,0,80,0,0
212654,-77.5193798449612,4,1,0,80,0,0
212742,-76.9230769230769,4,1,0,80,0,0
212831,-76.3358778625954,4,1,0,80,0,0
213007,-75.187969924812,4,1,0,80,0,0
213184,-74.0740740740741,4,1,0,80,0,0
213360,-86.9565217391304,4,1,0,80,0,0
213978,-86.2068965517241,4,1,0,80,0,0
214066,-85.4700854700855,4,1,0,80,0,0
214154,-84.7457627118644,4,1,0,80,0,0
214242,-84.0336134453781,4,1,0,80,0,0
214331,-82.6446280991736,4,1,0,80,0,0
214419,-81.3008130081301,4,1,0,80,0,0
214507,-80,4,1,0,80,0,0
214595,-78.7401574803149,4,1,0,80,0,0
216184,-86.9565217391304,4,1,0,80,0,0
216801,-86.2068965517241,4,1,0,80,0,0
216889,-85.4700854700855,4,1,0,80,0,0
216978,-84.7457627118644,4,1,0,80,0,0
217066,-84.0336134453781,4,1,0,80,0,0
217154,-82.6446280991736,4,1,0,80,0,0
217242,-81.3008130081301,4,1,0,80,0,0
217331,-80,4,1,0,80,0,0
217419,-78.7401574803149,4,1,0,80,0,0
219007,-86.9565217391304,4,1,0,80,0,0
219625,-86.2068965517241,4,1,0,80,0,0
219713,-85.4700854700855,4,1,0,80,0,0
219801,-84.7457627118644,4,1,0,80,0,0
219889,-84.0336134453781,4,1,0,80,0,0
219978,-82.6446280991736,4,1,0,80,0,0
220066,-81.3008130081301,4,1,0,80,0,0
220154,-80,4,1,0,80,0,0
220242,-78.7401574803149,4,1,0,80,0,0
220595,-74.0740740740741,4,1,0,80,0,0
220772,-76.9230769230769,4,1,0,80,0,0
220948,-80,4,1,0,80,0,0
221125,-83.3333333333333,4,1,0,80,0,0
221301,-86.9565217391304,4,1,0,80,0,0
222360,-86.2068965517241,4,1,0,80,0,0
222404,-85.4700854700855,4,1,0,80,0,0
222448,-84.7457627118644,4,1,0,80,0,0
222492,-84.0336134453781,4,1,0,80,0,0
222537,-83.3333333333333,4,1,0,80,0,0
222595,-84.0336134453781,4,1,0,80,0,0
222654,-84.7457627118644,4,1,0,80,0,0
222713,-85.4700854700855,4,1,0,80,0,0
222801,-84.7457627118644,4,1,0,80,0,0
222889,-84.0336134453781,4,1,0,80,0,0
222978,-83.3333333333333,4,1,0,80,0,0
223066,-82.6446280991736,4,1,0,80,0,0
223242,-81.9672131147541,4,1,0,80,0,0
223331,-81.3008130081301,4,1,0,80,0,0
223419,-80.6451612903226,4,1,0,80,0,0
223595,-80,4,1,0,80,0,0
223684,-79.3650793650794,4,1,0,80,0,0
223772,-78.7401574803149,4,1,0,80,0,0
223860,-78.125,4,1,0,80,0,0
223948,-77.5193798449612,4,1,0,80,0,0
224037,-76.9230769230769,4,1,0,80,0,0
224125,-76.3358778625954,4,1,0,80,0,0
224301,-75.187969924812,4,1,0,80,0,0
224389,-74.6268656716418,4,1,0,80,0,0
224478,-74.0740740740741,4,1,0,80,0,0
224654,-86.9565217391304,4,1,0,80,0,0
224742,-86.2068965517241,4,1,0,80,0,0
224831,-85.4700854700855,4,1,0,80,0,0
224919,-84.0336134453781,4,1,0,80,0,0
225007,-82.6446280991736,4,1,0,80,0,0
225095,-81.3008130081301,4,1,0,80,0,0
225184,-80,4,1,0,80,0,0
225360,-86.9565217391304,4,1,0,80,0,0
225448,-86.2068965517241,4,1,0,80,0,0
225537,-85.4700854700855,4,1,0,80,0,0
225625,-84.0336134453781,4,1,0,80,0,0
225713,-82.6446280991736,4,1,0,80,0,0
225801,-81.3008130081301,4,1,0,80,0,0
225889,-80,4,1,0,80,0,0
226066,-86.9565217391304,4,1,0,80,0,0
226154,-86.2068965517241,4,1,0,80,0,0
226331,-85.4700854700855,4,1,0,80,0,0
226419,-84.7457627118644,4,1,0,80,0,0
226507,-84.0336134453781,4,1,0,80,0,0
226595,-83.3333333333333,4,1,0,80,0,0
226772,-82.6446280991736,4,1,0,80,0,0
226860,-81.9672131147541,4,1,0,80,0,0
227037,-81.3008130081301,4,1,0,80,0,0
227125,-80.6451612903226,4,1,0,80,0,0
227301,-80,4,1,0,80,0,0
227478,-86.9565217391304,4,1,0,80,0,0
227566,-86.2068965517241,4,1,0,80,0,0
227654,-85.4700854700855,4,1,0,80,0,0
227742,-84.0336134453781,4,1,0,80,0,0
227831,-82.6446280991736,4,1,0,80,0,0
227919,-81.3008130081301,4,1,0,80,0,0
228007,-80,4,1,0,80,0,0
228184,-86.9565217391304,4,1,0,80,0,0
228272,-86.2068965517241,4,1,0,80,0,0
228360,-85.4700854700855,4,1,0,80,0,0
228448,-84.0336134453781,4,1,0,80,0,0
228537,-82.6446280991736,4,1,0,80,0,0
228625,-81.3008130081301,4,1,0,80,0,0
228713,-80,4,1,0,80,0,0
228889,-86.9565217391304,4,1,0,80,0,0
228978,-86.2068965517241,4,1,0,80,0,0
229066,-85.4700854700855,4,1,0,80,0,0
229242,-84.7457627118644,4,1,0,80,0,0
229331,-84.0336134453781,4,1,0,80,0,0
229419,-83.3333333333333,4,1,0,80,0,0
229507,-82.6446280991736,4,1,0,80,0,0
229595,-81.9672131147541,4,1,0,80,0,0
229684,-81.3008130081301,4,1,0,80,0,0
229772,-80.6451612903226,4,1,0,80,0,0
229860,-80,4,1,0,80,0,0
229948,-79.3650793650794,4,1,0,80,0,0
230037,-78.7401574803149,4,1,0,80,0,0
230125,-78.125,4,1,0,80,0,0
230301,-86.9565217391304,4,1,0,80,0,0
230389,-86.2068965517241,4,1,0,80,0,0
230478,-85.4700854700855,4,1,0,80,0,0
230566,-84.0336134453781,4,1,0,80,0,0
230654,-82.6446280991736,4,1,0,80,0,0
230742,-81.3008130081301,4,1,0,80,0,0
230831,-80,4,1,0,80,0,0
231007,-86.9565217391304,4,1,0,80,0,0
231095,-86.2068965517241,4,1,0,80,0,0
231184,-85.4700854700855,4,1,0,80,0,0
231272,-84.0336134453781,4,1,0,80,0,0
231360,-82.6446280991736,4,1,0,80,0,0
231448,-81.3008130081301,4,1,0,80,0,0
231537,-80,4,1,0,80,0,0
231713,-86.9565217391304,4,1,0,80,0,0
231801,-86.2068965517241,4,1,0,80,0,0
231978,-85.4700854700855,4,1,0,80,0,0
232066,-84.7457627118644,4,1,0,80,0,0
232154,-84.0336134453781,4,1,0,80,0,0
232242,-83.3333333333333,4,1,0,80,0,0
232419,-82.6446280991736,4,1,0,80,0,0
232507,-81.9672131147541,4,1,0,80,0,0
232684,-81.3008130081301,4,1,0,80,0,0
232772,-80.6451612903226,4,1,0,80,0,0
232948,-80,4,1,0,80,0,0
233125,-86.9565217391304,4,1,0,80,0,0
233213,-86.2068965517241,4,1,0,80,0,0
233301,-85.4700854700855,4,1,0,80,0,0
233389,-84.0336134453781,4,1,0,80,0,0
233478,-82.6446280991736,4,1,0,80,0,0
233566,-81.3008130081301,4,1,0,80,0,0
233654,-80,4,1,0,80,0,0
233831,-86.9565217391304,4,1,0,80,0,0
233919,-86.2068965517241,4,1,0,80,0,0
234007,-85.4700854700855,4,1,0,80,0,0
234095,-84.7457627118644,4,1,0,80,0,0
234184,-84.0336134453781,4,1,0,80,0,0
234272,-83.3333333333333,4,1,0,80,0,0
234360,-82.6446280991736,4,1,0,80,0,0
234448,-81.3008130081301,4,1,0,80,0,0
234537,-80,4,1,0,80,0,0
234625,-78.7401574803149,4,1,0,80,0,0
234713,-77.5193798449612,4,1,0,80,0,0
234801,-76.3358778625954,4,1,0,80,0,0
234889,-75.187969924812,4,1,0,80,0,0
234978,-73.5294117647059,4,1,0,80,0,0
235066,-71.9424460431655,4,1,0,80,0,0
235154,-70.4225352112676,4,1,0,80,0,0
235242,-68.9655172413793,4,1,0,80,0,0
235331,-67.5675675675676,4,1,0,80,0,0
235419,-66.2251655629139,4,1,0,80,0,0
235507,-64.9350649350649,4,1,0,80,0,0
235595,-63.6942675159236,4,1,0,80,0,0
235684,-62.5,4,1,0,80,0,0
235772,-61.3496932515337,4,1,0,80,0,0
235948,-86.9565217391304,4,1,0,80,0,0
236037,-86.2068965517241,4,1,0,80,0,0
236125,-85.4700854700855,4,1,0,80,0,0
236169,-84.7457627118644,4,1,0,80,0,0
236301,-83.3333333333333,4,1,0,80,0,0
236345,-81.9672131147541,4,1,0,80,0,0
236478,-81.3008130081301,4,1,0,80,0,0
236522,-80,4,1,0,80,0,0
236654,-78.7401574803149,4,1,0,80,0,0
236742,-78.125,4,1,0,80,0,0
236831,-77.5193798449612,4,1,0,80,0,0
237007,-76.9230769230769,4,1,0,80,0,0
237184,-86.9565217391304,4,1,0,80,0,0
237272,-86.2068965517241,4,1,0,80,0,0
237360,-85.4700854700855,4,1,0,80,0,0
237448,-84.7457627118644,4,1,0,80,0,0
237537,-84.0336134453781,4,1,0,80,0,0
237625,-83.3333333333333,4,1,0,80,0,0
237713,-82.6446280991736,4,1,0,80,0,0
237801,-81.9672131147541,4,1,0,80,0,0
237889,-81.3008130081301,4,1,0,80,0,0
238066,-80.6451612903226,4,1,0,80,0,0
238154,-80,4,1,0,80,0,0
238242,-79.3650793650794,4,1,0,80,0,0
238331,-78.7401574803149,4,1,0,80,0,0
238419,-78.125,4,1,0,80,0,0
238595,-76.9230769230769,4,1,0,80,0,0
238772,-86.9565217391304,4,1,0,80,0,0
238860,-86.2068965517241,4,1,0,80,0,0
238948,-85.4700854700855,4,1,0,80,0,0
238992,-84.7457627118644,4,1,0,80,0,0
239125,-83.3333333333333,4,1,0,80,0,0
239169,-81.9672131147541,4,1,0,80,0,0
239301,-81.3008130081301,4,1,0,80,0,0
239345,-80,4,1,0,80,0,0
239478,-78.7401574803149,4,1,0,80,0,0
239566,-78.125,4,1,0,80,0,0
239654,-77.5193798449612,4,1,0,80,0,0
239831,-76.9230769230769,4,1,0,80,0,0
240007,-86.9565217391304,4,1,0,80,0,0
240095,-86.2068965517241,4,1,0,80,0,0
240184,-85.4700854700855,4,1,0,80,0,0
240272,-84.7457627118644,4,1,0,80,0,0
240360,-84.0336134453781,4,1,0,80,0,0
240448,-83.3333333333333,4,1,0,80,0,0
240537,-82.6446280991736,4,1,0,80,0,0
240625,-81.9672131147541,4,1,0,80,0,0
240713,-81.3008130081301,4,1,0,80,0,0
240801,-80,4,1,0,80,0,0
240889,-78.7401574803149,4,1,0,80,0,0
240978,-77.5193798449612,4,1,0,80,0,0
241066,-76.3358778625954,4,1,0,80,0,0
241154,-75.187969924812,4,1,0,80,0,0
241242,-74.0740740740741,4,1,0,80,0,0
241331,-72.992700729927,4,1,0,80,0,0
241419,-71.9424460431655,4,1,0,80,0,0
241595,-86.9565217391304,4,1,0,80,0,0
241684,-86.2068965517241,4,1,0,80,0,0
241772,-85.4700854700855,4,1,0,80,0,0
241816,-84.7457627118644,4,1,0,80,0,0
241948,-83.3333333333333,4,1,0,80,0,0
241992,-81.9672131147541,4,1,0,80,0,0
242125,-81.3008130081301,4,1,0,80,0,0
242169,-80,4,1,0,80,0,0
242301,-78.7401574803149,4,1,0,80,0,0
242389,-78.125,4,1,0,80,0,0
242478,-77.5193798449612,4,1,0,80,0,0
242654,-76.9230769230769,4,1,0,80,0,0
242831,-86.9565217391304,4,1,0,80,0,0
242919,-86.2068965517241,4,1,0,80,0,0
243007,-85.4700854700855,4,1,0,80,0,0
243095,-84.7457627118644,4,1,0,80,0,0
243184,-84.0336134453781,4,1,0,80,0,0
243272,-83.3333333333333,4,1,0,80,0,0
243360,-82.6446280991736,4,1,0,80,0,0
243448,-81.9672131147541,4,1,0,80,0,0
243537,-81.3008130081301,4,1,0,80,0,0
243713,-80.6451612903226,4,1,0,80,0,0
243801,-80,4,1,0,80,0,0
243889,-79.3650793650794,4,1,0,80,0,0
243978,-78.7401574803149,4,1,0,80,0,0
244066,-78.125,4,1,0,80,0,0
244242,-76.9230769230769,4,1,0,80,0,0
244419,-86.9565217391304,4,1,0,80,0,0
244507,-86.2068965517241,4,1,0,80,0,0
244595,-85.4700854700855,4,1,0,80,0,0
244639,-84.7457627118644,4,1,0,80,0,0
244772,-83.3333333333333,4,1,0,80,0,0
244816,-81.9672131147541,4,1,0,80,0,0
244948,-81.3008130081301,4,1,0,80,0,0
244992,-80,4,1,0,80,0,0
245125,-78.7401574803149,4,1,0,80,0,0
245213,-78.125,4,1,0,80,0,0
245301,-77.5193798449612,4,1,0,80,0,0
245478,-76.9230769230769,4,1,0,80,0,0
245654,-86.9565217391304,4,1,0,80,0,0
245742,-86.2068965517241,4,1,0,80,0,0
245831,-85.4700854700855,4,1,0,80,0,0
245919,-84.7457627118644,4,1,0,80,0,0
246007,-84.0336134453781,4,1,0,80,0,0
246095,-83.3333333333333,4,1,0,80,0,0
246184,-82.6446280991736,4,1,0,80,0,0
246272,-81.9672131147541,4,1,0,80,0,0
246360,-81.3008130081301,4,1,0,80,0,0
246448,-80,4,1,0,80,0,0
246537,-78.7401574803149,4,1,0,80,0,0
246625,-77.5193798449612,4,1,0,80,0,0
246713,-76.3358778625954,4,1,0,80,0,0
246801,-75.187969924812,4,1,0,80,0,0
246889,-74.0740740740741,4,1,0,80,0,0
246978,-72.992700729927,4,1,0,80,0,0
247066,-71.9424460431655,4,1,0,80,0,0
247331,-100,4,1,0,80,0,0
252713,-101.010101010101,4,1,0,80,0,0
252801,-102.040816326531,4,1,0,80,0,0
252889,-103.092783505155,4,1,0,80,0,0
252978,-104.166666666667,4,1,0,80,0,0
253066,-105.263157894737,4,1,0,80,0,0
253242,-100,4,1,0,80,0,0
253595,-100.502512562814,4,1,0,80,0,0
253683,-101.010101010101,4,1,0,80,0,0
253771,-101.522842639594,4,1,0,80,0,0
253859,-102.040816326531,4,1,0,80,0,0
253947,-102.564102564103,4,1,0,80,0,0
254036,-103.092783505155,4,1,0,80,0,0
254124,-103.626943005181,4,1,0,80,0,0
254212,-104.166666666667,4,1,0,80,0,0
254300,-104.712041884817,4,1,0,80,0,0
254389,-105.263157894737,4,1,0,80,0,0
254477,-105.820105820106,4,1,0,80,0,0
254654,-100,4,1,0,80,0,0
254831,-101.010101010101,4,1,0,80,0,0
255007,-102.040816326531,4,1,0,80,0,0
255095,-103.092783505155,4,1,0,80,0,0
255272,-104.166666666667,4,1,0,80,0,0
255360,-105.263157894737,4,1,0,80,0,0
255537,-101.010101010101,4,1,0,80,0,0
255625,-102.040816326531,4,1,0,80,0,0
255713,-103.092783505155,4,1,0,80,0,0
255801,-104.166666666667,4,1,0,80,0,0
255889,-105.263157894737,4,1,0,80,0,0
256066,-100,4,1,0,80,0,0
256419,-100.502512562814,4,1,0,80,0,0
256507,-101.010101010101,4,1,0,80,0,0
256595,-101.522842639594,4,1,0,80,0,0
256683,-102.040816326531,4,1,0,80,0,0
256771,-102.564102564103,4,1,0,80,0,0
256860,-103.092783505155,4,1,0,80,0,0
256948,-103.626943005181,4,1,0,80,0,0
257066,-100,4,1,0,80,0,0
262595,-101.010101010101,4,1,0,80,0,0
262772,-102.040816326531,4,1,0,80,0,0
262948,-103.092783505155,4,1,0,80,0,0
263125,-104.166666666667,4,1,0,80,0,0
263301,-105.263157894737,4,1,0,80,0,0
263478,-106.382978723404,4,1,0,80,0,0
263654,-107.52688172043,4,1,0,80,0,0
263831,-108.695652173913,4,1,0,80,0,0

[HitObjects]
241,226,7681,5,0,0:0:0:0:
415,173,7726,1,0,0:0:0:0:
415,173,7770,1,8,0:0:0:0:
241,226,7946,1,8,0:0:0:0:
241,226,8034,1,0,0:0:0:0:
336,236,8211,1,0,0:0:0:0:
334,274,8299,1,8,0:0:0:0:
334,274,8343,1,8,0:0:0:0:
334,274,8387,1,0,0:0:0:0:
389,271,8476,1,8,0:0:0:0:
352,257,8564,1,8,0:0:0:0:
352,257,8652,1,0,0:0:0:0:
352,257,8740,1,8,0:0:0:0:
352,257,8829,1,0,0:0:0:0:
345,257,8917,1,8,0:0:0:0:
342,257,9005,1,8,0:0:0:0:
341,257,9093,1,0,0:0:0:0:
345,253,9182,1,8,0:0:0:0:
344,253,9270,1,8,0:0:0:0:
344,253,9358,1,0,0:0:0:0:
342,253,9446,1,8,0:0:0:0:
342,243,9534,1,0,0:0:0:0:
341,239,9623,1,8,0:0:0:0:
341,239,9711,1,8,0:0:0:0:
333,237,9799,1,8,0:0:0:0:
234,207,9887,1,4,0:0:0:0:
361,311,10066,1,8,0:0:0:0:
331,279,10154,1,0,0:0:0:0:
327,297,10242,1,8,0:0:0:0:
302,281,10331,1,8,0:0:0:0:
311,296,10419,1,0,0:0:0:0:
313,295,10478,1,0,0:0:0:0:
312,293,10537,1,0,0:0:0:0:
314,292,10595,1,8,0:0:0:0:
345,316,10684,1,0,0:0:0:0:
345,317,10772,1,8,0:0:0:0:
345,317,10860,1,8,0:0:0:0:
347,283,10948,1,0,0:0:0:0:
332,330,11037,1,8,0:0:0:0:
345,273,11125,1,8,0:0:0:0:
345,273,11213,1,0,0:0:0:0:
345,272,11301,1,12,0:0:0:0:
334,273,11478,1,0,0:0:0:0:
334,273,11566,1,8,0:0:0:0:
334,273,11654,1,8,0:0:0:0:
324,266,11742,1,0,0:0:0:0:
324,266,11831,1,8,0:0:0:0:
324,266,11919,1,0,0:0:0:0:
309,256,12095,1,8,0:0:0:0:
308,258,12184,1,0,0:0:0:0:
320,272,12360,1,8,0:0:0:0:
319,268,12537,1,0,0:0:0:0:
319,268,12625,1,8,0:0:0:0:
324,266,12713,1,4,0:0:0:0:
324,266,12889,1,8,0:0:0:0:
323,263,12978,1,8,0:0:0:0:
323,263,13066,1,0,0:0:0:0:
323,263,13154,1,8,0:0:0:0:
336,287,13242,1,0,0:0:0:0:
336,287,13301,1,8,0:0:0:0:
334,282,13360,1,8,0:0:0:0:
334,282,13419,1,0,0:0:0:0:
391,248,13507,1,0,0:0:0:0:
391,248,13595,1,8,0:0:0:0:
391,248,13684,1,0,0:0:0:0:
391,248,13772,1,8,0:0:0:0:
391,248,13860,1,8,0:0:0:0:
391,248,13948,1,0,0:0:0:0:
391,248,14037,1,0,0:0:0:0:
391,248,14125,1,12,0:0:0:0:
385,242,14301,1,0,0:0:0:0:
385,241,14389,1,8,0:0:0:0:
385,241,14478,1,4,0:0:0:0:
371,248,14654,1,8,0:0:0:0:
371,248,14742,1,8,0:0:0:0:
324,246,14831,1,0,0:0:0:0:
368,258,14919,1,0,0:0:0:0:
368,258,15007,1,8,0:0:0:0:
369,258,15184,1,4,0:0:0:0:
296,257,15360,1,8,0:0:0:0:
297,257,15537,1,4,0:0:0:0:
361,311,15713,1,8,0:0:0:0:
331,279,15801,1,0,0:0:0:0:
327,297,15889,1,8,0:0:0:0:
302,281,15978,1,8,0:0:0:0:
311,296,16066,1,0,0:0:0:0:
313,295,16125,1,0,0:0:0:0:
312,293,16184,1,0,0:0:0:0:
314,292,16242,1,8,0:0:0:0:
345,316,16331,1,0,0:0:0:0:
345,317,16419,1,8,0:0:0:0:
345,317,16507,1,8,0:0:0:0:
347,283,16595,1,0,0:0:0:0:
332,330,16684,1,8,0:0:0:0:
345,273,16772,1,8,0:0:0:0:
345,273,16860,1,0,0:0:0:0:
345,272,16948,1,12,0:0:0:0:
339,288,17125,1,0,0:0:0:0:
387,244,17213,1,8,0:0:0:0:
387,244,17301,1,8,0:0:0:0:
387,244,17389,1,0,0:0:0:0:
395,245,17478,1,8,0:0:0:0:
401,254,17566,1,0,0:0:0:0:
406,253,17742,1,8,0:0:0:0:
406,253,17831,1,0,0:0:0:0:
406,253,17919,1,0,0:0:0:0:
406,253,18007,1,8,0:0:0:0:
399,242,18184,1,0,0:0:0:0:
402,246,18272,1,8,0:0:0:0:
389,286,18360,1,4,0:0:0:0:
389,279,18537,1,8,0:0:0:0:
387,280,18625,1,8,0:0:0:0:
384,280,18713,1,0,0:0:0:0:
390,264,18801,1,8,0:0:0:0:
294,212,18889,1,0,0:0:0:0:
294,212,18934,1,0,0:0:0:0:
294,212,18978,1,0,0:0:0:0:
380,279,19022,1,0,0:0:0:0:
294,212,19066,1,8,0:0:0:0:
392,268,19125,1,8,0:0:0:0:
392,268,19184,1,8,0:0:0:0:
391,248,19242,1,0,0:0:0:0:
411,240,19331,1,8,0:0:0:0:
413,240,19419,1,0,0:0:0:0:
406,242,19507,1,8,0:0:0:0:
406,244,19595,1,8,0:0:0:0:
401,249,19684,1,0,0:0:0:0:
399,249,19772,1,12,0:0:0:0:
391,255,19948,1,0,0:0:0:0:
391,255,20037,1,8,0:0:0:0:
388,242,20125,1,8,0:0:0:0:
326,235,20213,1,0,0:0:0:0:
387,242,20301,1,0,0:0:0:0:
381,244,20389,1,8,0:0:0:0:
377,241,20478,1,0,0:0:0:0:
354,268,20566,1,8,0:0:0:0:
360,263,20654,1,8,0:0:0:0:
422,297,20742,1,0,0:0:0:0:
354,268,20831,1,12,0:0:0:0:
367,242,21007,1,0,0:0:0:0:
420,289,21095,1,8,0:0:0:0:
216,229,21184,5,4,0:0:0:0:
310,232,21360,1,0,0:0:0:0:
310,232,21448,1,8,0:0:0:0:
346,248,21625,1,0,0:0:0:0:
411,207,21713,1,8,0:0:0:0:
411,207,21772,1,8,0:0:0:0:
411,207,21831,1,8,0:0:0:0:
411,207,21889,1,0,0:0:0:0:
420,259,21978,1,8,0:0:0:0:
420,259,22066,1,8,0:0:0:0:
420,259,22154,1,0,0:0:0:0:
420,259,22242,1,8,0:0:0:0:
420,259,22331,1,0,0:0:0:0:
420,259,22419,1,8,0:0:0:0:
420,259,22507,1,8,0:0:0:0:
391,236,22595,1,4,0:0:0:0:
355,234,22772,1,8,0:0:0:0:
355,234,22860,1,0,0:0:0:0:
355,234,23037,1,0,0:0:0:0:
349,241,23125,1,8,0:0:0:0:
347,213,23213,1,8,0:0:0:0:
348,214,23301,1,0,0:0:0:0:
356,212,23389,1,0,0:0:0:0:
356,212,23478,1,8,0:0:0:0:
356,212,23566,1,0,0:0:0:0:
356,212,23654,1,0,0:0:0:0:
327,226,23831,1,8,0:0:0:0:
336,238,24007,1,4,0:0:0:0:
372,264,24184,1,8,0:0:0:0:
372,264,24272,1,0,0:0:0:0:
390,272,24448,1,0,0:0:0:0:
444,295,24537,1,8,0:0:0:0:
365,279,24595,1,8,0:0:0:0:
365,279,24654,1,8,0:0:0:0:
363,279,24713,1,0,0:0:0:0:
441,283,24801,1,8,0:0:0:0:
440,283,24889,1,0,0:0:0:0:
440,283,24978,1,8,0:0:0:0:
440,283,25066,1,8,0:0:0:0:
441,278,25154,1,0,0:0:0:0:
448,274,25242,1,8,0:0:0:0:
446,274,25331,1,8,0:0:0:0:
431,263,25419,1,4,0:0:0:0:
406,245,25595,1,8,0:0:0:0:
404,246,25684,1,0,0:0:0:0:
394,270,25772,1,12,0:0:0:0:
406,246,25948,1,0,0:0:0:0:
406,246,26037,1,8,0:0:0:0:
406,245,26125,1,8,0:0:0:0:
394,263,26213,1,0,0:0:0:0:
394,263,26301,1,0,0:0:0:0:
394,263,26389,1,8,0:0:0:0:
380,237,26478,1,4,0:0:0:0:
381,244,26654,1,8,0:0:0:0:
385,252,26831,1,4,0:0:0:0:
355,219,27007,1,0,0:0:0:0:
355,219,27095,1,8,0:0:0:0:
346,248,27272,1,0,0:0:0:0:
411,207,27360,1,8,0:0:0:0:
411,207,27419,1,8,0:0:0:0:
411,207,27478,1,8,0:0:0:0:
411,207,27537,1,0,0:0:0:0:
420,259,27625,1,8,0:0:0:0:
420,259,27713,1,8,0:0:0:0:
420,259,27801,1,0,0:0:0:0:
420,259,27889,1,8,0:0:0:0:
420,259,27978,1,0,0:0:0:0:
420,259,28066,1,8,0:0:0:0:
420,259,28154,1,8,0:0:0:0:
391,236,28242,5,4,0:0:0:0:
355,234,28419,1,8,0:0:0:0:
355,234,28507,1,0,0:0:0:0:
235,216,28684,5,0,0:0:0:0:
235,216,28772,1,8,0:0:0:0:
267,227,28860,1,8,0:0:0:0:
267,227,28948,1,0,0:0:0:0:
267,227,29037,1,0,0:0:0:0:
267,227,29125,1,8,0:0:0:0:
256,229,29213,1,0,0:0:0:0:
256,229,29301,1,0,0:0:0:0:
291,240,29478,5,8,0:0:0:0:
300,253,29654,5,4,0:0:0:0:
300,253,29831,5,8,0:0:0:0:
300,253,29919,1,0,0:0:0:0:
267,227,30007,1,8,0:0:0:0:
320,256,30184,5,0,0:0:0:0:
320,256,30272,1,8,0:0:0:0:
320,256,30360,1,0,0:0:0:0:
320,256,30404,1,0,0:0:0:0:
320,256,30448,1,0,0:0:0:0:
320,256,30492,1,0,0:0:0:0:
320,256,30537,1,8,0:0:0:0:
384,288,30595,1,8,0:0:0:0:
384,288,30654,1,8,0:0:0:0:
384,288,30713,1,0,0:0:0:0:
480,320,30801,1,0,0:0:0:0:
480,320,30889,1,8,0:0:0:0:
480,320,30978,1,8,0:0:0:0:
480,320,31066,1,4,0:0:0:0:
254,237,31242,1,8,0:0:0:0:
254,237,31331,1,0,0:0:0:0:
254,237,31419,1,8,0:0:0:0:
254,237,31595,1,0,0:0:0:0:
254,237,31684,1,8,0:0:0:0:
254,237,31772,1,8,0:0:0:0:
254,237,31860,1,0,0:0:0:0:
254,237,31948,1,0,0:0:0:0:
254,237,32037,1,8,0:0:0:0:
236,228,32125,1,0,0:0:0:0:
236,227,32301,1,8,0:0:0:0:
230,220,32478,1,4,0:0:0:0:
361,311,32654,1,8,0:0:0:0:
331,279,32742,1,0,0:0:0:0:
327,297,32831,1,8,0:0:0:0:
302,281,32919,1,8,0:0:0:0:
311,296,33007,1,0,0:0:0:0:
313,295,33066,1,0,0:0:0:0:
312,293,33125,1,0,0:0:0:0:
314,292,33184,1,8,0:0:0:0:
345,316,33272,1,0,0:0:0:0:
345,317,33360,1,8,0:0:0:0:
345,317,33448,1,8,0:0:0:0:
347,283,33537,1,0,0:0:0:0:
332,330,33625,1,8,0:0:0:0:
345,273,33713,1,8,0:0:0:0:
345,273,33801,1,0,0:0:0:0:
345,272,33889,1,12,0:0:0:0:
334,273,34066,1,0,0:0:0:0:
334,273,34154,1,8,0:0:0:0:
324,266,34331,1,0,0:0:0:0:
324,266,34419,1,8,0:0:0:0:
324,266,34507,1,8,0:0:0:0:
351,278,34595,1,0,0:0:0:0:
335,251,34684,1,0,0:0:0:0:
335,251,34772,1,8,0:0:0:0:
336,250,34860,1,0,0:0:0:0:
335,251,34948,1,0,0:0:0:0:
319,268,35125,1,8,0:0:0:0:
324,266,35301,1,4,0:0:0:0:
324,266,35478,1,8,0:0:0:0:
323,263,35566,1,8,0:0:0:0:
323,263,35654,1,0,0:0:0:0:
323,263,35742,1,8,0:0:0:0:
336,287,35831,1,0,0:0:0:0:
336,287,35889,1,8,0:0:0:0:
334,282,35948,1,8,0:0:0:0:
334,282,36007,1,0,0:0:0:0:
391,248,36095,1,0,0:0:0:0:
391,248,36184,1,8,0:0:0:0:
391,248,36272,1,0,0:0:0:0:
391,248,36360,1,8,0:0:0:0:
391,248,36448,1,8,0:0:0:0:
391,248,36537,1,0,0:0:0:0:
391,248,36625,1,0,0:0:0:0:
391,248,36713,1,12,0:0:0:0:
385,242,36889,1,0,0:0:0:0:
385,241,36978,1,8,0:0:0:0:
385,241,37066,1,4,0:0:0:0:
371,248,37242,1,8,0:0:0:0:
371,248,37331,1,8,0:0:0:0:
324,246,37419,1,0,0:0:0:0:
368,258,37507,1,0,0:0:0:0:
368,258,37595,1,8,0:0:0:0:
369,258,37772,1,4,0:0:0:0:
296,257,37948,1,8,0:0:0:0:
297,257,38125,1,4,0:0:0:0:
361,311,38301,1,8,0:0:0:0:
331,279,38389,1,0,0:0:0:0:
327,297,38478,1,8,0:0:0:0:
302,281,38566,1,8,0:0:0:0:
311,296,38654,1,0,0:0:0:0:
313,295,38713,1,0,0:0:0:0:
312,293,38772,1,0,0:0:0:0:
314,292,38831,1,8,0:0:0:0:
345,316,38919,1,0,0:0:0:0:
345,317,39007,1,8,0:0:0:0:
345,317,39095,1,8,0:0:0:0:
347,283,39184,1,0,0:0:0:0:
332,330,39272,1,8,0:0:0:0:
345,273,39360,1,8,0:0:0:0:
345,273,39448,1,0,0:0:0:0:
345,272,39537,1,12,0:0:0:0:
339,288,39713,1,0,0:0:0:0:
387,244,39801,1,8,0:0:0:0:
387,244,39978,1,0,0:0:0:0:
395,245,40066,1,8,0:0:0:0:
401,254,40154,1,8,0:0:0:0:
351,242,40242,1,0,0:0:0:0:
237,194,40331,1,0,0:0:0:0:
170,166,40419,1,8,0:0:0:0:
235,243,40507,1,0,0:0:0:0:
235,243,40595,1,0,0:0:0:0:
399,242,40772,1,8,0:0:0:0:
389,286,40948,1,4,0:0:0:0:
389,279,41125,1,8,0:0:0:0:
387,280,41213,1,8,0:0:0:0:
384,280,41301,1,0,0:0:0:0:
390,264,41389,1,8,0:0:0:0:
294,212,41478,1,0,0:0:0:0:
294,212,41522,1,0,0:0:0:0:
294,212,41566,1,0,0:0:0:0:
380,279,41610,1,0,0:0:0:0:
294,212,41654,1,8,0:0:0:0:
392,268,41713,1,8,0:0:0:0:
392,268,41772,1,8,0:0:0:0:
391,248,41831,1,0,0:0:0:0:
411,240,41919,1,8,0:0:0:0:
413,240,42007,1,0,0:0:0:0:
406,242,42095,1,8,0:0:0:0:
406,244,42184,1,8,0:0:0:0:
401,249,42272,1,0,0:0:0:0:
399,249,42360,1,12,0:0:0:0:
305,238,42537,1,8,0:0:0:0:
304,239,42625,1,0,0:0:0:0:
296,238,42713,1,8,0:0:0:0:
311,247,42889,1,0,0:0:0:0:
311,247,42978,1,8,0:0:0:0:
311,247,43066,1,8,0:0:0:0:
305,238,43154,1,0,0:0:0:0:
320,255,43242,1,0,0:0:0:0:
320,255,43331,1,8,0:0:0:0:
320,255,43419,1,0,0:0:0:0:
320,255,43507,1,0,0:0:0:0:
320,255,43595,1,8,0:0:0:0:
320,255,43684,1,8,0:0:0:0:
320,255,43772,1,4,0:0:0:0:
261,191,43948,1,8,0:0:0:0:
276,233,44037,1,0,0:0:0:0:
276,234,44125,1,8,0:0:0:0:
283,252,44301,1,0,0:0:0:0:
342,270,44360,1,0,0:0:0:0:
393,272,44419,1,0,0:0:0:0:
259,254,44478,1,8,0:0:0:0:
284,255,44566,1,0,0:0:0:0:
286,258,44654,1,8,0:0:0:0:
286,260,44742,1,8,0:0:0:0:
286,265,44831,1,0,0:0:0:0:
279,265,45007,1,8,0:0:0:0:
280,270,45184,1,4,0:0:0:0:
252,257,45360,1,8,0:0:0:0:
280,259,45448,1,8,0:0:0:0:
284,255,45537,1,0,0:0:0:0:
286,258,45625,1,8,0:0:0:0:
275,260,45713,1,0,0:0:0:0:
389,251,45772,1,0,0:0:0:0:
389,251,45831,1,0,0:0:0:0:
261,267,45889,1,8,0:0:0:0:
258,273,45978,1,8,0:0:0:0:
305,309,46066,1,0,0:0:0:0:
296,305,46154,1,8,0:0:0:0:
296,305,46242,1,8,0:0:0:0:
286,293,46419,1,0,0:0:0:0:
423,310,46507,1,8,0:0:0:0:
299,281,46595,1,4,0:0:0:0:
272,296,46772,1,8,0:0:0:0:
272,298,46860,1,0,0:0:0:0:
362,256,46948,1,8,0:0:0:0:
271,293,47125,1,0,0:0:0:0:
271,293,47184,1,0,0:0:0:0:
308,263,47242,1,0,0:0:0:0:
308,263,47301,1,8,0:0:0:0:
271,293,47389,1,0,0:0:0:0:
271,293,47478,1,8,0:0:0:0:
271,296,47566,1,8,0:0:0:0:
272,296,47654,1,0,0:0:0:0:
288,315,47831,1,8,0:0:0:0:
215,198,48007,1,4,0:0:0:0:
215,198,48184,1,8,0:0:0:0:
215,198,48272,1,8,0:0:0:0:
215,198,48360,1,4,0:0:0:0:
215,198,48537,1,8,0:0:0:0:
215,198,48625,1,8,0:0:0:0:
215,198,48713,1,0,0:0:0:0:
215,198,48801,1,8,0:0:0:0:
327,251,48889,1,0,0:0:0:0:
327,251,48978,1,0,0:0:0:0:
327,251,49066,1,12,0:0:0:0:
347,240,49242,1,8,0:0:0:0:
346,252,49419,1,4,0:0:0:0:
350,263,49595,1,8,0:0:0:0:
350,263,49684,1,0,0:0:0:0:
350,263,49772,1,8,0:0:0:0:
340,264,49948,1,0,0:0:0:0:
367,259,50007,1,0,0:0:0:0:
363,258,50066,1,0,0:0:0:0:
363,258,50125,1,8,0:0:0:0:
431,284,50213,1,0,0:0:0:0:
431,284,50301,1,8,0:0:0:0:
430,260,50389,1,8,0:0:0:0:
431,268,50478,1,0,0:0:0:0:
436,268,50654,1,8,0:0:0:0:
435,275,50831,1,4,0:0:0:0:
428,265,51007,1,8,0:0:0:0:
428,265,51095,1,8,0:0:0:0:
428,265,51184,1,0,0:0:0:0:
429,266,51272,1,8,0:0:0:0:
446,287,51360,1,0,0:0:0:0:
446,287,51419,1,0,0:0:0:0:
446,284,51478,1,0,0:0:0:0:
450,282,51537,1,8,0:0:0:0:
281,193,51625,1,8,0:0:0:0:
281,193,51713,1,0,0:0:0:0:
281,193,51801,1,8,0:0:0:0:
296,200,51889,1,8,0:0:0:0:
396,264,52066,1,0,0:0:0:0:
396,264,52154,1,8,0:0:0:0:
397,266,52242,1,4,0:0:0:0:
395,253,52419,1,8,0:0:0:0:
395,253,52507,1,0,0:0:0:0:
395,253,52595,1,8,0:0:0:0:
320,256,52772,5,0,0:0:0:0:
320,256,52860,1,8,0:0:0:0:
320,256,52948,1,0,0:0:0:0:
320,256,52992,1,0,0:0:0:0:
320,256,53037,1,0,0:0:0:0:
320,256,53081,1,0,0:0:0:0:
320,256,53125,1,8,0:0:0:0:
384,288,53184,1,8,0:0:0:0:
384,288,53242,1,8,0:0:0:0:
384,288,53301,1,0,0:0:0:0:
480,320,53389,1,0,0:0:0:0:
480,320,53478,1,8,0:0:0:0:
480,320,53566,1,8,0:0:0:0:
480,320,53654,1,0,0:0:0:0:
282,220,53831,1,8,0:0:0:0:
282,220,53919,1,0,0:0:0:0:
282,220,54007,1,8,0:0:0:0:
282,220,54184,1,0,0:0:0:0:
282,220,54272,1,8,0:0:0:0:
282,220,54360,1,8,0:0:0:0:
286,227,54448,1,0,0:0:0:0:
286,227,54537,1,0,0:0:0:0:
282,220,54625,1,8,0:0:0:0:
277,225,54713,1,0,0:0:0:0:
281,241,54889,1,8,0:0:0:0:
234,207,55066,1,4,0:0:0:0:
361,311,55242,1,8,0:0:0:0:
331,279,55331,1,0,0:0:0:0:
327,297,55419,1,8,0:0:0:0:
302,281,55507,1,8,0:0:0:0:
311,296,55595,1,0,0:0:0:0:
313,295,55654,1,0,0:0:0:0:
312,293,55713,1,0,0:0:0:0:
314,292,55772,1,8,0:0:0:0:
345,316,55860,1,0,0:0:0:0:
345,317,55948,1,8,0:0:0:0:
345,317,56037,1,8,0:0:0:0:
347,283,56125,1,0,0:0:0:0:
332,330,56213,1,8,0:0:0:0:
345,273,56301,1,8,0:0:0:0:
345,273,56389,1,0,0:0:0:0:
301,296,56478,1,12,0:0:0:0:
252,257,56654,1,8,0:0:0:0:
280,259,56742,1,8,0:0:0:0:
284,255,56831,1,0,0:0:0:0:
286,258,56919,1,8,0:0:0:0:
275,260,57007,1,0,0:0:0:0:
389,251,57066,1,0,0:0:0:0:
389,251,57125,1,0,0:0:0:0:
261,267,57184,1,8,0:0:0:0:
258,273,57272,1,8,0:0:0:0:
305,309,57360,1,0,0:0:0:0:
296,305,57448,1,8,0:0:0:0:
296,305,57537,1,8,0:0:0:0:
330,262,57713,1,0,0:0:0:0:
330,262,57801,1,8,0:0:0:0:
330,262,57889,1,4,0:0:0:0:
324,266,58066,1,8,0:0:0:0:
323,263,58154,1,8,0:0:0:0:
323,263,58242,1,0,0:0:0:0:
323,263,58331,1,8,0:0:0:0:
336,287,58419,1,0,0:0:0:0:
336,287,58478,1,8,0:0:0:0:
334,282,58537,1,8,0:0:0:0:
334,282,58595,1,0,0:0:0:0:
391,248,58684,1,0,0:0:0:0:
391,248,58772,1,8,0:0:0:0:
391,248,58860,1,0,0:0:0:0:
391,248,58948,1,8,0:0:0:0:
391,248,59037,1,8,0:0:0:0:
391,248,59125,1,0,0:0:0:0:
391,248,59213,1,0,0:0:0:0:
391,248,59301,1,12,0:0:0:0:
271,248,59478,1,0,0:0:0:0:
271,248,59566,1,8,0:0:0:0:
271,248,59654,1,4,0:0:0:0:
252,273,59831,1,8,0:0:0:0:
249,276,59919,1,8,0:0:0:0:
244,294,60007,1,0,0:0:0:0:
250,303,60095,1,8,0:0:0:0:
249,308,60184,1,0,0:0:0:0:
255,309,60272,1,0,0:0:0:0:
274,303,60360,1,12,0:0:0:0:
306,319,60537,1,8,0:0:0:0:
306,319,60713,1,4,0:0:0:0:
361,311,60889,1,8,0:0:0:0:
331,279,60978,1,0,0:0:0:0:
327,297,61066,1,8,0:0:0:0:
302,281,61154,1,8,0:0:0:0:
311,296,61242,1,0,0:0:0:0:
313,295,61301,1,0,0:0:0:0:
312,293,61360,1,0,0:0:0:0:
314,292,61419,1,8,0:0:0:0:
345,316,61507,1,0,0:0:0:0:
345,317,61595,1,8,0:0:0:0:
345,317,61684,1,8,0:0:0:0:
347,283,61772,1,0,0:0:0:0:
332,330,61860,1,8,0:0:0:0:
345,273,61948,1,8,0:0:0:0:
288,224,62037,1,0,0:0:0:0:
324,275,62125,1,12,0:0:0:0:
256,192,62478,1,12,0:0:0:0:
320,288,62654,1,0,0:0:0:0:
256,192,62831,1,4,0:0:0:0:
384,288,63007,1,0,0:0:0:0:
320,256,63184,1,12,0:0:0:0:
320,288,63360,1,8,0:0:0:0:
288,256,63537,1,4,0:0:0:0:
416,288,63713,1,8,0:0:0:0:
448,288,63801,1,0,0:0:0:0:
448,288,63889,1,8,0:0:0:0:
320,256,64066,1,0,0:0:0:0:
320,256,64154,1,8,0:0:0:0:
320,256,64242,1,0,0:0:0:0:
320,256,64287,1,0,0:0:0:0:
320,256,64331,1,0,0:0:0:0:
320,256,64375,1,0,0:0:0:0:
320,256,64419,1,8,0:0:0:0:
384,288,64478,1,8,0:0:0:0:
384,288,64537,1,8,0:0:0:0:
384,288,64595,1,0,0:0:0:0:
480,320,64684,1,0,0:0:0:0:
480,320,64772,1,8,0:0:0:0:
480,320,64860,1,8,0:0:0:0:
480,320,64948,1,0,0:0:0:0:
448,320,65125,1,8,0:0:0:0:
448,320,65213,1,0,0:0:0:0:
448,320,65301,1,8,0:0:0:0:
448,320,65478,1,0,0:0:0:0:
448,320,65566,1,8,0:0:0:0:
448,320,65654,1,8,0:0:0:0:
448,320,65742,1,0,0:0:0:0:
448,320,65831,1,0,0:0:0:0:
448,320,65919,1,8,0:0:0:0:
416,320,66007,1,0,0:0:0:0:
358,305,66184,1,8,0:0:0:0:
358,305,66272,1,8,0:0:0:0:
365,273,66360,1,4,0:0:0:0:
398,288,66537,1,8,0:0:0:0:
398,288,66625,1,0,0:0:0:0:
398,288,66713,1,8,0:0:0:0:
397,289,66801,1,8,0:0:0:0:
401,296,66889,1,0,0:0:0:0:
408,301,66978,1,8,0:0:0:0:
408,301,67066,1,8,0:0:0:0:
410,308,67242,1,0,0:0:0:0:
407,304,67331,1,8,0:0:0:0:
395,313,67419,1,8,0:0:0:0:
369,291,67507,1,0,0:0:0:0:
386,309,67595,1,8,0:0:0:0:
365,275,67684,1,8,0:0:0:0:
380,296,67772,1,4,0:0:0:0:
366,275,67948,1,8,0:0:0:0:
363,281,68037,1,0,0:0:0:0:
376,276,68213,1,0,0:0:0:0:
376,276,68301,1,8,0:0:0:0:
368,263,68389,1,8,0:0:0:0:
374,274,68478,1,0,0:0:0:0:
357,249,68654,1,8,0:0:0:0:
357,249,68742,1,0,0:0:0:0:
359,252,68919,1,0,0:0:0:0:
359,252,69007,1,8,0:0:0:0:
331,251,69184,1,4,0:0:0:0:
321,232,69360,1,8,0:0:0:0:
321,232,69448,1,0,0:0:0:0:
320,232,69537,1,8,0:0:0:0:
311,231,69625,1,8,0:0:0:0:
311,231,69713,1,0,0:0:0:0:
313,233,69801,1,8,0:0:0:0:
313,234,69889,1,8,0:0:0:0:
319,236,70066,1,0,0:0:0:0:
319,236,70154,1,8,0:0:0:0:
321,232,70242,1,8,0:0:0:0:
317,240,70331,1,0,0:0:0:0:
317,240,70419,1,8,0:0:0:0:
317,239,70507,1,8,0:0:0:0:
317,240,70595,1,4,0:0:0:0:
317,227,70772,1,8,0:0:0:0:
317,227,70860,1,0,0:0:0:0:
317,227,70948,1,8,0:0:0:0:
319,236,71125,1,0,0:0:0:0:
321,232,71213,1,8,0:0:0:0:
317,240,71301,1,8,0:0:0:0:
323,230,71389,1,0,0:0:0:0:
323,230,71478,1,0,0:0:0:0:
321,229,71566,1,8,0:0:0:0:
317,227,71654,1,0,0:0:0:0:
317,227,71742,1,0,0:0:0:0:
317,227,71831,1,8,0:0:0:0:
317,227,71919,1,8,0:0:0:0:
326,233,72007,1,4,0:0:0:0:
322,219,72184,1,8,0:0:0:0:
322,219,72272,1,0,0:0:0:0:
321,219,72360,1,8,0:0:0:0:
319,220,72448,1,8,0:0:0:0:
319,220,72537,1,0,0:0:0:0:
319,220,72625,1,8,0:0:0:0:
319,220,72713,1,8,0:0:0:0:
325,224,72889,1,0,0:0:0:0:
325,224,72978,1,8,0:0:0:0:
322,219,73066,1,8,0:0:0:0:
323,231,73154,1,0,0:0:0:0:
321,231,73242,1,8,0:0:0:0:
321,231,73331,1,8,0:0:0:0:
299,237,73419,1,4,0:0:0:0:
287,221,73595,1,8,0:0:0:0:
287,221,73684,1,0,0:0:0:0:
284,225,73860,1,0,0:0:0:0:
284,225,73948,1,8,0:0:0:0:
281,224,74037,1,8,0:0:0:0:
283,230,74125,1,0,0:0:0:0:
286,225,74301,1,8,0:0:0:0:
286,225,74389,1,0,0:0:0:0:
287,221,74566,1,0,0:0:0:0:
287,221,74654,1,8,0:0:0:0:
301,183,74831,5,4,0:0:0:0:
303,174,75007,5,8,0:0:0:0:
303,174,75095,1,0,0:0:0:0:
303,174,75184,1,8,0:0:0:0:
303,174,75272,1,8,0:0:0:0:
303,174,75360,1,0,0:0:0:0:
303,174,75448,1,8,0:0:0:0:
303,174,75537,1,8,0:0:0:0:
276,188,75713,1,0,0:0:0:0:
277,187,75801,1,8,0:0:0:0:
278,187,75889,1,8,0:0:0:0:
271,191,75978,1,0,0:0:0:0:
271,191,76066,1,8,0:0:0:0:
270,189,76154,1,8,0:0:0:0:
270,189,76242,1,0,0:0:0:0:
270,189,76331,1,8,0:0:0:0:
270,189,76419,1,8,0:0:0:0:
270,189,76507,1,0,0:0:0:0:
276,188,76595,1,8,0:0:0:0:
352,226,76684,1,0,0:0:0:0:
352,226,76772,1,8,0:0:0:0:
352,226,76860,1,8,0:0:0:0:
352,226,76948,1,0,0:0:0:0:
352,226,77037,1,0,0:0:0:0:
361,230,77125,1,8,0:0:0:0:
361,230,77213,1,8,0:0:0:0:
359,230,77301,1,0,0:0:0:0:
357,210,77389,1,8,0:0:0:0:
357,210,77478,1,8,0:0:0:0:
436,252,77566,1,8,0:0:0:0:
256,192,77654,5,4,0:0:0:0:
255,202,77831,1,0,0:0:0:0:
255,202,78007,1,8,0:0:0:0:
255,202,78184,1,8,0:0:0:0:
255,202,78360,1,0,0:0:0:0:
256,192,78713,1,0,0:0:0:0:
257,195,78889,1,8,0:0:0:0:
289,211,79066,1,0,0:0:0:0:
289,214,79242,1,0,0:0:0:0:
276,218,79419,1,8,0:0:0:0:
280,208,79595,1,8,0:0:0:0:
279,211,79772,1,0,0:0:0:0:
268,210,79948,1,8,0:0:0:0:
257,195,80478,1,0,0:0:0:0:
269,206,80654,1,0,0:0:0:0:
270,196,80831,1,8,0:0:0:0:
379,258,81007,1,8,0:0:0:0:
369,257,81184,1,0,0:0:0:0:
357,244,81537,1,0,0:0:0:0:
357,244,81713,1,8,0:0:0:0:
257,195,81889,1,0,0:0:0:0:
354,232,81978,1,0,0:0:0:0:
353,225,82066,1,8,0:0:0:0:
300,243,82154,1,0,0:0:0:0:
257,195,82242,1,0,0:0:0:0:
319,237,82331,1,0,0:0:0:0:
319,237,82419,1,8,0:0:0:0:
300,243,82507,1,0,0:0:0:0:
257,195,82595,1,0,0:0:0:0:
307,215,82772,1,0,0:0:0:0:
257,195,82948,1,8,0:0:0:0:
273,208,83125,1,8,0:0:0:0:
257,195,83301,1,0,0:0:0:0:
306,203,83478,1,0,0:0:0:0:
309,205,83654,1,8,0:0:0:0:
306,205,83831,1,8,0:0:0:0:
300,205,84007,1,0,0:0:0:0:
291,192,84360,1,0,0:0:0:0:
295,200,84537,1,8,0:0:0:0:
257,195,84713,1,0,0:0:0:0:
291,199,84889,1,0,0:0:0:0:
291,199,85066,1,8,0:0:0:0:
293,203,85242,1,8,0:0:0:0:
295,200,85419,1,0,0:0:0:0:
292,200,85595,1,8,0:0:0:0:
257,195,86125,1,0,0:0:0:0:
288,192,86301,1,0,0:0:0:0:
257,195,86478,1,8,0:0:0:0:
303,229,86654,1,8,0:0:0:0:
257,195,86831,1,0,0:0:0:0:
257,195,87184,1,0,0:0:0:0:
282,202,87360,1,8,0:0:0:0:
257,195,87537,1,0,0:0:0:0:
276,203,87625,1,0,0:0:0:0:
276,203,87713,1,8,0:0:0:0:
276,203,87801,1,0,0:0:0:0:
276,203,87889,1,0,0:0:0:0:
276,203,87978,1,0,0:0:0:0:
274,202,88066,1,8,0:0:0:0:
274,200,88154,1,0,0:0:0:0:
266,198,88242,1,0,0:0:0:0:
256,192,88331,1,0,0:0:0:0:
257,195,88419,1,8,0:0:0:0:
257,195,88507,1,0,0:0:0:0:
256,192,88595,1,0,0:0:0:0:
256,204,88948,1,0,0:0:0:0:
257,202,89125,1,0,0:0:0:0:
250,172,89301,1,8,0:0:0:0:
266,179,89478,1,8,0:0:0:0:
271,177,89654,1,0,0:0:0:0:
276,200,89831,1,8,0:0:0:0:
263,178,90007,1,0,0:0:0:0:
296,250,90184,1,8,0:0:0:0:
261,173,90360,1,0,0:0:0:0:
270,199,90537,1,0,0:0:0:0:
281,222,90713,1,8,0:0:0:0:
281,208,90889,1,8,0:0:0:0:
288,208,91066,1,0,0:0:0:0:
277,226,91242,1,8,0:0:0:0:
274,209,91419,1,0,0:0:0:0:
277,231,91772,1,0,0:0:0:0:
289,234,91948,1,0,0:0:0:0:
281,239,92125,1,8,0:0:0:0:
281,241,92301,1,8,0:0:0:0:
345,278,92478,1,0,0:0:0:0:
273,203,92654,1,8,0:0:0:0:
360,276,92831,1,0,0:0:0:0:
361,275,93007,1,8,0:0:0:0:
360,257,93184,1,0,0:0:0:0:
360,257,93272,1,0,0:0:0:0:
360,257,93360,1,8,0:0:0:0:
360,260,93448,1,0,0:0:0:0:
360,260,93537,1,0,0:0:0:0:
360,262,93625,1,0,0:0:0:0:
360,262,93713,1,8,0:0:0:0:
363,257,93801,1,0,0:0:0:0:
363,257,93889,1,0,0:0:0:0:
354,262,94066,1,0,0:0:0:0:
336,237,94242,1,8,0:0:0:0:
336,251,94419,1,8,0:0:0:0:
366,270,94595,1,0,0:0:0:0:
366,270,94772,1,0,0:0:0:0:
369,275,94948,1,8,0:0:0:0:
366,270,95125,1,8,0:0:0:0:
342,262,95301,1,0,0:0:0:0:
273,203,95478,1,8,0:0:0:0:
301,263,95654,1,0,0:0:0:0:
345,269,95831,1,8,0:0:0:0:
335,297,96007,1,0,0:0:0:0:
341,293,96184,1,0,0:0:0:0:
346,288,96360,1,8,0:0:0:0:
340,295,96537,1,8,0:0:0:0:
356,299,96713,1,0,0:0:0:0:
354,308,96889,1,8,0:0:0:0:
272,198,97066,1,0,0:0:0:0:
368,308,97419,1,0,0:0:0:0:
369,308,97595,1,0,0:0:0:0:
391,281,97772,1,8,0:0:0:0:
390,287,97948,1,8,0:0:0:0:
389,289,98125,1,0,0:0:0:0:
282,192,98301,1,8,0:0:0:0:
389,287,98478,1,0,0:0:0:0:
391,281,98654,1,8,0:0:0:0:
391,281,98831,1,0,0:0:0:0:
394,273,98919,1,0,0:0:0:0:
394,273,99007,1,8,0:0:0:0:
394,273,99095,1,0,0:0:0:0:
394,273,99184,1,0,0:0:0:0:
394,273,99272,1,0,0:0:0:0:
394,273,99360,1,8,0:0:0:0:
394,273,99448,1,0,0:0:0:0:
395,273,99537,1,0,0:0:0:0:
368,268,99713,1,0,0:0:0:0:
386,269,99889,1,8,0:0:0:0:
386,269,100066,1,8,0:0:0:0:
376,269,100242,1,4,0:0:0:0:
378,270,100419,1,0,0:0:0:0:
382,275,100595,1,8,0:0:0:0:
382,275,100772,1,8,0:0:0:0:
390,280,100948,1,0,0:0:0:0:
350,299,101125,1,8,0:0:0:0:
322,275,101213,1,8,0:0:0:0:
358,316,101301,1,0,0:0:0:0:
393,263,101478,1,8,0:0:0:0:
406,291,101654,1,0,0:0:0:0:
399,286,101831,1,0,0:0:0:0:
399,286,102007,1,8,0:0:0:0:
392,290,102184,1,8,0:0:0:0:
396,288,102360,1,0,0:0:0:0:
397,293,102537,1,8,0:0:0:0:
412,258,102625,1,0,0:0:0:0:
412,258,102713,1,8,0:0:0:0:
412,258,102801,1,8,0:0:0:0:
412,261,102889,1,0,0:0:0:0:
401,254,103066,1,0,0:0:0:0:
401,254,103242,1,0,0:0:0:0:
401,255,103419,1,8,0:0:0:0:
401,255,103595,1,8,0:0:0:0:
400,240,103772,1,0,0:0:0:0:
404,270,103948,1,8,0:0:0:0:
402,264,104037,1,8,0:0:0:0:
377,265,104125,1,0,0:0:0:0:
361,255,104301,1,8,0:0:0:0:
372,257,104478,1,0,0:0:0:0:
372,257,104566,1,0,0:0:0:0:
372,257,104654,1,8,0:0:0:0:
402,287,104742,1,0,0:0:0:0:
405,260,104831,1,0,0:0:0:0:
412,271,104919,1,0,0:0:0:0:
421,318,105007,1,8,0:0:0:0:
419,315,105095,1,0,0:0:0:0:
416,313,105184,1,0,0:0:0:0:
402,287,105360,1,0,0:0:0:0:
402,287,105537,1,8,0:0:0:0:
376,286,105625,1,0,0:0:0:0:
400,300,105713,1,8,0:0:0:0:
376,286,105801,1,8,0:0:0:0:
396,290,105889,1,0,0:0:0:0:
386,275,106066,1,0,0:0:0:0:
402,287,106242,1,8,0:0:0:0:
393,280,106419,1,8,0:0:0:0:
396,286,106595,1,0,0:0:0:0:
360,263,106772,1,8,0:0:0:0:
360,263,106860,1,8,0:0:0:0:
390,267,106948,1,0,0:0:0:0:
386,285,107125,1,8,0:0:0:0:
373,290,107301,1,0,0:0:0:0:
371,292,107478,1,0,0:0:0:0:
370,292,107654,1,8,0:0:0:0:
370,290,107831,1,8,0:0:0:0:
370,293,108007,1,0,0:0:0:0:
396,273,108184,1,8,0:0:0:0:
375,272,108272,1,0,0:0:0:0:
375,272,108360,1,8,0:0:0:0:
379,281,108448,1,8,0:0:0:0:
378,281,108537,1,0,0:0:0:0:
384,265,108713,1,0,0:0:0:0:
370,293,108889,1,0,0:0:0:0:
374,304,109066,1,8,0:0:0:0:
374,304,109242,1,8,0:0:0:0:
390,307,109419,1,0,0:0:0:0:
382,303,109595,1,8,0:0:0:0:
382,303,109684,1,8,0:0:0:0:
392,308,109772,1,0,0:0:0:0:
393,310,109948,1,8,0:0:0:0:
395,309,110125,1,0,0:0:0:0:
388,306,110213,1,8,0:0:0:0:
396,311,110301,1,0,0:0:0:0:
390,307,110389,1,0,0:0:0:0:
392,308,110478,1,8,0:0:0:0:
350,298,110566,1,0,0:0:0:0:
392,308,110654,1,8,0:0:0:0:
350,298,110742,1,8,0:0:0:0:
393,310,110831,1,0,0:0:0:0:
350,298,110919,1,0,0:0:0:0:
395,309,111007,1,8,0:0:0:0:
386,296,111095,1,8,0:0:0:0:
386,296,111184,1,4,0:0:0:0:
256,163,111360,1,0,0:0:0:0:
381,300,111448,1,8,0:0:0:0:
290,248,111537,5,4,0:0:0:0:
407,297,111713,1,8,0:0:0:0:
399,289,111772,1,0,0:0:0:0:
398,280,111831,1,0,0:0:0:0:
400,276,111889,1,8,0:0:0:0:
373,263,112066,1,8,0:0:0:0:
388,281,112154,1,0,0:0:0:0:
436,237,112242,1,8,0:0:0:0:
436,237,112301,1,8,0:0:0:0:
436,237,112360,1,8,0:0:0:0:
436,237,112419,1,0,0:0:0:0:
395,263,112507,1,0,0:0:0:0:
403,260,112595,1,8,0:0:0:0:
401,262,112654,1,0,0:0:0:0:
403,260,112713,1,0,0:0:0:0:
399,261,112772,1,8,0:0:0:0:
401,319,112860,1,0,0:0:0:0:
450,259,112948,1,8,0:0:0:0:
451,263,113007,1,8,0:0:0:0:
451,266,113066,1,0,0:0:0:0:
442,266,113125,1,8,0:0:0:0:
391,323,113213,1,0,0:0:0:0:
391,323,113301,1,8,0:0:0:0:
335,293,113478,1,0,0:0:0:0:
335,293,113566,1,8,0:0:0:0:
335,293,113654,1,8,0:0:0:0:
335,293,113742,1,0,0:0:0:0:
335,293,113831,1,0,0:0:0:0:
326,298,113919,1,8,0:0:0:0:
321,286,114007,1,0,0:0:0:0:
319,286,114184,1,8,0:0:0:0:
298,250,114272,1,0,0:0:0:0:
326,291,114360,1,8,0:0:0:0:
336,314,114419,1,8,0:0:0:0:
336,314,114478,1,0,0:0:0:0:
336,313,114537,1,8,0:0:0:0:
388,263,114625,1,0,0:0:0:0:
388,263,114713,1,8,0:0:0:0:
343,291,114889,1,8,0:0:0:0:
343,291,114978,1,0,0:0:0:0:
343,291,115066,1,8,0:0:0:0:
343,291,115154,1,8,0:0:0:0:
341,293,115242,1,0,0:0:0:0:
322,267,115331,1,8,0:0:0:0:
322,267,115419,1,0,0:0:0:0:
322,267,115507,1,0,0:0:0:0:
354,273,115595,1,8,0:0:0:0:
279,249,115772,5,0,0:0:0:0:
380,258,115889,1,8,0:0:0:0:
279,249,115948,1,8,0:0:0:0:
375,278,116125,1,4,0:0:0:0:
437,270,116301,1,8,0:0:0:0:
372,311,116389,1,8,0:0:0:0:
372,311,116478,1,0,0:0:0:0:
362,275,116654,1,8,0:0:0:0:
361,278,116742,1,0,0:0:0:0:
361,278,116831,1,8,0:0:0:0:
366,284,117007,1,0,0:0:0:0:
362,275,117184,1,12,0:0:0:0:
408,298,117360,1,0,0:0:0:0:
408,298,117419,1,8,0:0:0:0:
408,298,117478,1,8,0:0:0:0:
408,298,117537,1,0,0:0:0:0:
376,256,117713,1,8,0:0:0:0:
394,268,117801,1,0,0:0:0:0:
351,257,117889,1,8,0:0:0:0:
351,257,117948,1,8,0:0:0:0:
350,258,118007,1,0,0:0:0:0:
350,252,118066,1,8,0:0:0:0:
385,273,118154,1,0,0:0:0:0:
446,242,118242,1,8,0:0:0:0:
446,242,118301,1,8,0:0:0:0:
446,242,118360,1,8,0:0:0:0:
446,242,118419,1,0,0:0:0:0:
390,273,118507,1,8,0:0:0:0:
406,301,118595,1,0,0:0:0:0:
415,298,118654,1,0,0:0:0:0:
403,294,118713,1,0,0:0:0:0:
403,293,118772,1,8,0:0:0:0:
457,299,118860,1,0,0:0:0:0:
457,299,118948,1,8,0:0:0:0:
441,280,119125,1,0,0:0:0:0:
441,280,119213,1,8,0:0:0:0:
441,280,119301,1,8,0:0:0:0:
441,280,119389,1,0,0:0:0:0:
432,283,119478,1,0,0:0:0:0:
371,269,119566,1,8,0:0:0:0:
371,269,119654,1,0,0:0:0:0:
363,258,119831,1,8,0:0:0:0:
429,227,119919,1,0,0:0:0:0:
401,269,120007,1,8,0:0:0:0:
401,269,120066,1,8,0:0:0:0:
399,261,120125,1,0,0:0:0:0:
387,264,120184,1,8,0:0:0:0:
404,279,120272,1,0,0:0:0:0:
403,277,120360,1,8,0:0:0:0:
411,277,120537,1,0,0:0:0:0:
411,277,120625,1,8,0:0:0:0:
410,279,120713,1,8,0:0:0:0:
410,279,120801,1,0,0:0:0:0:
415,276,120889,1,8,0:0:0:0:
401,269,120978,1,8,0:0:0:0:
401,269,121066,1,0,0:0:0:0:
338,281,121242,1,8,0:0:0:0:
366,272,121419,1,0,0:0:0:0:
394,244,121537,1,8,0:0:0:0:
394,244,121595,1,8,0:0:0:0:
397,288,121772,1,4,0:0:0:0:
394,254,121948,1,8,0:0:0:0:
394,254,122037,1,8,0:0:0:0:
394,254,122125,1,0,0:0:0:0:
392,252,122213,1,8,0:0:0:0:
392,252,122301,1,0,0:0:0:0:
370,251,122389,1,0,0:0:0:0:
370,251,122478,1,8,0:0:0:0:
394,254,122654,1,0,0:0:0:0:
406,255,122742,1,8,0:0:0:0:
381,237,122831,1,4,0:0:0:0:
404,299,123007,1,8,0:0:0:0:
404,299,123066,1,0,0:0:0:0:
404,299,123125,1,0,0:0:0:0:
404,299,123184,1,8,0:0:0:0:
365,258,123360,1,8,0:0:0:0:
364,258,123448,1,0,0:0:0:0:
379,261,123537,1,8,0:0:0:0:
379,261,123581,1,8,0:0:0:0:
379,261,123625,1,0,0:0:0:0:
379,262,123713,1,8,0:0:0:0:
401,274,123801,1,0,0:0:0:0:
401,274,123889,1,8,0:0:0:0:
401,274,123934,1,8,0:0:0:0:
401,274,123978,1,0,0:0:0:0:
331,272,124066,1,8,0:0:0:0:
416,310,124154,1,0,0:0:0:0:
391,287,124242,1,8,0:0:0:0:
391,287,124301,1,8,0:0:0:0:
391,287,124360,1,0,0:0:0:0:
391,287,124419,1,8,0:0:0:0:
460,291,124507,1,0,0:0:0:0:
460,291,124595,1,8,0:0:0:0:
364,252,124772,1,0,0:0:0:0:
364,252,124860,1,8,0:0:0:0:
364,252,124948,1,8,0:0:0:0:
364,252,125037,1,0,0:0:0:0:
343,259,125125,1,0,0:0:0:0:
343,266,125213,1,8,0:0:0:0:
342,268,125301,1,0,0:0:0:0:
338,251,125478,1,8,0:0:0:0:
335,245,125566,1,0,0:0:0:0:
328,237,125654,1,8,0:0:0:0:
328,237,125713,1,8,0:0:0:0:
323,238,125772,1,0,0:0:0:0:
321,243,125831,1,8,0:0:0:0:
323,303,125919,1,0,0:0:0:0:
323,303,126007,1,8,0:0:0:0:
343,291,126184,1,8,0:0:0:0:
343,291,126272,1,0,0:0:0:0:
343,291,126360,1,8,0:0:0:0:
343,291,126448,1,8,0:0:0:0:
341,293,126537,1,0,0:0:0:0:
322,267,126625,1,8,0:0:0:0:
322,267,126713,1,0,0:0:0:0:
322,267,126801,1,0,0:0:0:0:
354,273,126889,1,8,0:0:0:0:
274,240,127066,1,0,0:0:0:0:
317,243,127184,1,8,0:0:0:0:
317,243,127242,1,8,0:0:0:0:
404,317,127419,1,4,0:0:0:0:
437,270,127595,1,8,0:0:0:0:
372,311,127684,1,8,0:0:0:0:
372,311,127772,1,0,0:0:0:0:
362,275,127948,1,8,0:0:0:0:
361,278,128037,1,0,0:0:0:0:
361,278,128125,1,8,0:0:0:0:
313,318,128301,1,0,0:0:0:0:
319,333,128478,1,12,0:0:0:0:
408,298,128654,1,0,0:0:0:0:
408,298,128713,1,8,0:0:0:0:
408,298,128772,1,8,0:0:0:0:
408,298,128831,1,0,0:0:0:0:
316,289,129007,1,8,0:0:0:0:
317,289,129095,1,0,0:0:0:0:
366,242,129184,1,8,0:0:0:0:
366,242,129228,1,8,0:0:0:0:
366,242,129272,1,0,0:0:0:0:
366,242,129360,1,8,0:0:0:0:
465,199,129448,1,0,0:0:0:0:
394,264,129537,1,8,0:0:0:0:
380,268,129581,1,8,0:0:0:0:
380,268,129625,1,0,0:0:0:0:
356,242,129713,1,8,0:0:0:0:
399,237,129801,1,0,0:0:0:0:
430,270,129889,1,8,0:0:0:0:
430,270,129948,1,0,0:0:0:0:
430,270,130007,1,0,0:0:0:0:
430,270,130066,1,8,0:0:0:0:
364,315,130154,1,0,0:0:0:0:
316,280,130242,1,8,0:0:0:0:
441,280,130419,1,0,0:0:0:0:
441,280,130507,1,8,0:0:0:0:
441,280,130595,1,8,0:0:0:0:
441,280,130684,1,0,0:0:0:0:
432,283,130772,1,0,0:0:0:0:
371,269,130860,1,8,0:0:0:0:
371,269,130948,1,0,0:0:0:0:
363,258,131125,1,8,0:0:0:0:
429,227,131213,1,0,0:0:0:0:
401,269,131301,1,8,0:0:0:0:
399,261,131360,1,8,0:0:0:0:
401,269,131419,1,0,0:0:0:0:
387,264,131478,1,8,0:0:0:0:
404,279,131566,1,0,0:0:0:0:
403,277,131654,1,8,0:0:0:0:
411,277,131831,1,0,0:0:0:0:
411,277,131919,1,8,0:0:0:0:
410,279,132007,1,8,0:0:0:0:
410,279,132095,1,0,0:0:0:0:
415,276,132184,1,8,0:0:0:0:
401,269,132272,1,8,0:0:0:0:
401,269,132360,1,0,0:0:0:0:
338,281,132537,1,8,0:0:0:0:
366,272,132713,1,4,0:0:0:0:
394,244,132889,1,8,0:0:0:0:
366,244,132978,1,0,0:0:0:0:
397,288,133066,1,8,0:0:0:0:
394,254,133242,1,0,0:0:0:0:
394,254,133331,1,8,0:0:0:0:
394,254,133419,1,0,0:0:0:0:
392,252,133507,1,0,0:0:0:0:
392,252,133595,1,8,0:0:0:0:
370,251,133684,5,8,0:0:0:0:
370,251,133772,1,0,0:0:0:0:
394,254,133948,1,8,0:0:0:0:
381,237,134125,1,4,0:0:0:0:
399,244,134301,1,8,0:0:0:0:
397,244,134360,1,0,0:0:0:0:
376,283,134419,1,0,0:0:0:0:
397,244,134478,1,8,0:0:0:0:
388,232,134654,1,0,0:0:0:0:
389,265,134742,1,8,0:0:0:0:
390,260,134831,1,0,0:0:0:0:
366,286,134889,1,0,0:0:0:0:
394,254,134948,1,0,0:0:0:0:
399,259,135007,1,8,0:0:0:0:
401,261,135095,1,8,0:0:0:0:
354,263,135184,1,0,0:0:0:0:
346,259,135242,1,0,0:0:0:0:
351,260,135301,1,0,0:0:0:0:
354,263,135360,1,8,0:0:0:0:
368,232,135448,1,0,0:0:0:0:
406,292,135537,1,8,0:0:0:0:
403,292,135581,1,8,0:0:0:0:
307,283,135625,1,0,0:0:0:0:
403,292,135713,1,8,0:0:0:0:
376,285,135801,1,8,0:0:0:0:
377,285,135889,1,0,0:0:0:0:
380,262,136066,1,8,0:0:0:0:
380,262,136154,1,8,0:0:0:0:
207,174,136242,1,0,0:0:0:0:
352,298,136331,1,0,0:0:0:0:
351,298,136419,1,8,0:0:0:0:
344,302,136507,1,0,0:0:0:0:
338,321,136595,1,0,0:0:0:0:
359,270,136772,1,8,0:0:0:0:
359,270,136860,1,0,0:0:0:0:
418,327,136948,1,8,0:0:0:0:
390,280,137007,1,8,0:0:0:0:
392,279,137066,1,0,0:0:0:0:
389,281,137125,1,8,0:0:0:0:
444,268,137213,1,0,0:0:0:0:
444,268,137301,1,8,0:0:0:0:
444,268,137478,1,0,0:0:0:0:
373,304,137566,1,8,0:0:0:0:
438,288,137654,1,0,0:0:0:0:
438,287,137713,1,0,0:0:0:0:
436,287,137772,1,0,0:0:0:0:
436,287,137831,1,8,0:0:0:0:
403,332,137919,1,8,0:0:0:0:
443,318,138007,1,0,0:0:0:0:
443,318,138066,1,8,0:0:0:0:
443,318,138125,1,8,0:0:0:0:
441,318,138184,1,0,0:0:0:0:
396,293,138272,1,8,0:0:0:0:
315,248,138360,5,0,0:0:0:0:
366,268,138478,1,8,0:0:0:0:
366,268,138537,1,8,0:0:0:0:
422,293,138713,1,4,0:0:0:0:
390,281,138889,1,8,0:0:0:0:
390,281,138978,1,0,0:0:0:0:
390,281,139066,1,8,0:0:0:0:
390,281,139154,1,8,0:0:0:0:
389,281,139242,1,0,0:0:0:0:
389,282,139331,1,8,0:0:0:0:
389,284,139419,1,0,0:0:0:0:
388,286,139507,1,0,0:0:0:0:
386,290,139595,1,8,0:0:0:0:
256,192,139772,5,4,0:0:0:0:
340,247,139948,1,8,0:0:0:0:
340,247,140007,1,0,0:0:0:0:
340,247,140066,1,0,0:0:0:0:
447,290,140125,1,8,0:0:0:0:
361,278,140301,1,0,0:0:0:0:
416,266,140389,1,8,0:0:0:0:
439,232,140478,1,0,0:0:0:0:
439,232,140537,1,0,0:0:0:0:
439,232,140595,1,0,0:0:0:0:
439,232,140654,1,8,0:0:0:0:
448,255,140742,1,8,0:0:0:0:
439,252,140831,1,0,0:0:0:0:
439,253,140889,1,0,0:0:0:0:
439,252,140948,1,0,0:0:0:0:
439,253,141007,1,8,0:0:0:0:
474,231,141095,1,0,0:0:0:0:
490,236,141184,1,8,0:0:0:0:
490,236,141228,1,8,0:0:0:0:
490,236,141272,1,0,0:0:0:0:
491,222,141360,1,8,0:0:0:0:
491,222,141448,1,8,0:0:0:0:
491,222,141537,1,0,0:0:0:0:
308,232,141713,1,8,0:0:0:0:
460,250,141801,1,8,0:0:0:0:
460,250,141889,1,0,0:0:0:0:
446,236,141978,1,8,0:0:0:0:
441,241,142066,1,0,0:0:0:0:
441,241,142154,1,8,0:0:0:0:
441,241,142242,1,8,0:0:0:0:
456,207,142419,1,0,0:0:0:0:
456,206,142507,1,8,0:0:0:0:
439,242,142595,1,0,0:0:0:0:
337,246,142654,1,0,0:0:0:0:
337,246,142713,1,0,0:0:0:0:
337,246,142772,1,8,0:0:0:0:
266,301,142860,1,8,0:0:0:0:
299,300,142948,1,0,0:0:0:0:
354,297,143125,1,8,0:0:0:0:
354,297,143213,1,0,0:0:0:0:
460,228,143301,1,8,0:0:0:0:
460,228,143360,1,8,0:0:0:0:
460,228,143419,1,0,0:0:0:0:
460,228,143478,1,8,0:0:0:0:
447,208,143566,1,0,0:0:0:0:
373,353,143654,1,8,0:0:0:0:
373,353,143713,1,8,0:0:0:0:
366,349,143772,1,8,0:0:0:0:
366,348,143831,1,0,0:0:0:0:
297,228,143919,1,8,0:0:0:0:
297,228,144007,1,0,0:0:0:0:
440,221,144125,1,8,0:0:0:0:
440,221,144184,1,8,0:0:0:0:
420,236,144360,1,4,0:0:0:0:
470,285,144537,1,8,0:0:0:0:
470,285,144625,1,0,0:0:0:0:
421,252,144713,1,8,0:0:0:0:
421,252,144801,1,8,0:0:0:0:
421,252,144889,1,0,0:0:0:0:
421,252,144978,1,8,0:0:0:0:
421,252,145066,1,0,0:0:0:0:
276,165,145154,1,0,0:0:0:0:
276,165,145242,1,8,0:0:0:0:
256,192,145419,5,4,0:0:0:0:
338,193,145595,1,8,0:0:0:0:
338,193,145654,1,0,0:0:0:0:
345,192,145713,1,0,0:0:0:0:
351,197,145772,1,8,0:0:0:0:
373,263,145948,1,8,0:0:0:0:
388,281,146037,1,0,0:0:0:0:
436,237,146125,1,8,0:0:0:0:
436,237,146184,1,8,0:0:0:0:
436,237,146242,1,8,0:0:0:0:
436,237,146301,1,0,0:0:0:0:
395,263,146389,1,0,0:0:0:0:
403,260,146478,1,8,0:0:0:0:
401,262,146537,1,0,0:0:0:0:
403,260,146595,1,0,0:0:0:0:
399,261,146654,1,8,0:0:0:0:
401,319,146742,1,0,0:0:0:0:
450,259,146831,1,8,0:0:0:0:
451,263,146889,1,8,0:0:0:0:
451,266,146948,1,0,0:0:0:0:
442,266,147007,1,8,0:0:0:0:
391,323,147095,1,0,0:0:0:0:
391,323,147184,1,8,0:0:0:0:
380,262,147360,1,0,0:0:0:0:
380,262,147448,1,8,0:0:0:0:
207,174,147537,1,0,0:0:0:0:
352,298,147625,1,0,0:0:0:0:
351,298,147713,1,8,0:0:0:0:
344,302,147801,1,8,0:0:0:0:
338,321,147889,1,0,0:0:0:0:
359,270,148066,1,8,0:0:0:0:
359,270,148154,1,0,0:0:0:0:
418,327,148242,1,8,0:0:0:0:
392,279,148301,1,8,0:0:0:0:
390,280,148360,1,0,0:0:0:0:
389,281,148419,1,8,0:0:0:0:
444,268,148507,1,0,0:0:0:0:
444,268,148595,1,8,0:0:0:0:
444,268,148772,1,0,0:0:0:0:
373,304,148860,1,8,0:0:0:0:
438,288,148948,1,0,0:0:0:0:
438,287,149007,1,0,0:0:0:0:
436,287,149066,1,0,0:0:0:0:
436,287,149125,1,8,0:0:0:0:
403,332,149213,1,8,0:0:0:0:
443,318,149301,1,0,0:0:0:0:
443,318,149360,1,8,0:0:0:0:
443,318,149419,1,8,0:0:0:0:
441,318,149478,1,0,0:0:0:0:
396,293,149566,1,8,0:0:0:0:
315,248,149654,5,0,0:0:0:0:
366,268,149772,1,8,0:0:0:0:
366,268,149831,1,8,0:0:0:0:
422,293,150007,1,4,0:0:0:0:
292,237,150184,1,8,0:0:0:0:
291,237,150272,1,8,0:0:0:0:
287,237,150360,1,0,0:0:0:0:
281,239,150448,1,8,0:0:0:0:
277,247,150537,1,0,0:0:0:0:
276,243,150625,1,0,0:0:0:0:
271,240,150713,1,8,0:0:0:0:
269,242,150889,1,0,0:0:0:0:
283,227,151066,1,12,0:0:0:0:
396,213,151242,1,0,0:0:0:0:
396,213,151301,1,8,0:0:0:0:
396,213,151360,1,8,0:0:0:0:
396,213,151419,1,0,0:0:0:0:
376,256,151595,1,8,0:0:0:0:
394,268,151684,1,0,0:0:0:0:
351,257,151772,1,8,0:0:0:0:
351,257,151831,1,8,0:0:0:0:
350,258,151889,1,0,0:0:0:0:
350,252,151948,1,8,0:0:0:0:
385,273,152037,1,0,0:0:0:0:
446,242,152125,1,8,0:0:0:0:
446,242,152184,1,8,0:0:0:0:
446,242,152242,1,8,0:0:0:0:
446,242,152301,1,0,0:0:0:0:
390,273,152389,1,8,0:0:0:0:
406,301,152478,1,0,0:0:0:0:
415,298,152537,1,0,0:0:0:0:
403,294,152595,1,0,0:0:0:0:
403,293,152654,1,8,0:0:0:0:
457,299,152742,1,0,0:0:0:0:
457,299,152831,1,8,0:0:0:0:
308,232,153007,1,0,0:0:0:0:
460,250,153095,1,8,0:0:0:0:
460,250,153184,1,8,0:0:0:0:
446,236,153272,1,0,0:0:0:0:
441,241,153360,1,0,0:0:0:0:
441,241,153448,1,8,0:0:0:0:
441,241,153537,1,0,0:0:0:0:
456,207,153713,1,8,0:0:0:0:
456,206,153801,1,0,0:0:0:0:
439,242,153889,1,8,0:0:0:0:
337,246,153948,1,8,0:0:0:0:
337,246,154007,1,0,0:0:0:0:
337,246,154066,1,8,0:0:0:0:
266,301,154154,1,0,0:0:0:0:
299,300,154242,1,8,0:0:0:0:
261,263,154419,1,0,0:0:0:0:
261,263,154507,1,8,0:0:0:0:
261,263,154595,1,0,0:0:0:0:
261,263,154654,1,0,0:0:0:0:
317,263,154713,1,0,0:0:0:0:
261,263,154772,1,8,0:0:0:0:
257,246,154860,1,8,0:0:0:0:
254,256,154948,1,0,0:0:0:0:
310,261,155007,1,0,0:0:0:0:
311,261,155066,1,0,0:0:0:0:
317,263,155125,1,8,0:0:0:0:
316,272,155213,1,8,0:0:0:0:
317,272,155301,1,0,0:0:0:0:
308,266,155478,1,8,0:0:0:0:
306,263,155566,1,0,0:0:0:0:
306,263,155654,1,8,0:0:0:0:
310,261,155831,1,0,0:0:0:0:
310,261,155919,1,8,0:0:0:0:
310,261,156007,1,0,0:0:0:0:
311,261,156095,1,0,0:0:0:0:
309,268,156184,1,8,0:0:0:0:
309,268,156272,1,0,0:0:0:0:
308,266,156360,1,8,0:0:0:0:
308,266,156448,1,8,0:0:0:0:
306,263,156537,1,0,0:0:0:0:
288,293,156625,1,8,0:0:0:0:
254,194,156713,5,4,0:0:0:0:
281,230,156889,1,8,0:0:0:0:
341,265,156978,1,8,0:0:0:0:
312,243,157066,1,0,0:0:0:0:
313,252,157110,1,0,0:0:0:0:
267,264,157154,1,0,0:0:0:0:
313,252,157198,1,0,0:0:0:0:
313,252,157242,1,8,0:0:0:0:
280,215,157419,1,0,0:0:0:0:
340,271,157507,1,8,0:0:0:0:
299,255,157595,1,8,0:0:0:0:
327,269,157684,1,0,0:0:0:0:
299,254,157860,1,8,0:0:0:0:
302,254,157948,1,0,0:0:0:0:
362,287,158125,1,8,0:0:0:0:
362,286,158301,1,0,0:0:0:0:
362,286,158389,1,8,0:0:0:0:
357,287,158478,1,8,0:0:0:0:
371,284,158654,1,0,0:0:0:0:
371,284,158742,1,8,0:0:0:0:
370,284,158831,1,8,0:0:0:0:
370,284,158919,1,0,0:0:0:0:
370,284,159007,1,8,0:0:0:0:
370,284,159095,1,8,0:0:0:0:
371,288,159184,1,0,0:0:0:0:
328,289,159360,1,8,0:0:0:0:
324,288,159448,1,0,0:0:0:0:
309,204,159537,1,8,0:0:0:0:
431,188,159595,1,8,0:0:0:0:
359,232,159654,1,0,0:0:0:0:
309,204,159713,1,8,0:0:0:0:
429,237,159801,1,0,0:0:0:0:
429,237,159889,1,8,0:0:0:0:
380,267,160066,1,0,0:0:0:0:
380,267,160154,1,8,0:0:0:0:
380,267,160242,1,8,0:0:0:0:
380,267,160331,1,0,0:0:0:0:
380,267,160419,1,8,0:0:0:0:
296,237,160507,1,0,0:0:0:0:
366,278,160595,1,8,0:0:0:0:
364,280,160684,1,8,0:0:0:0:
353,263,160772,1,0,0:0:0:0:
317,282,160948,1,8,0:0:0:0:
320,253,161125,1,0,0:0:0:0:
320,253,161213,1,8,0:0:0:0:
320,253,161301,1,0,0:0:0:0:
320,253,161389,1,0,0:0:0:0:
321,255,161478,1,8,0:0:0:0:
320,257,161566,1,0,0:0:0:0:
320,263,161654,1,8,0:0:0:0:
320,263,161742,1,8,0:0:0:0:
326,268,161831,1,0,0:0:0:0:
326,268,161919,1,8,0:0:0:0:
326,268,162007,1,0,0:0:0:0:
311,270,162184,1,8,0:0:0:0:
291,248,162272,1,8,0:0:0:0:
289,249,162360,1,0,0:0:0:0:
289,249,162448,1,8,0:0:0:0:
281,251,162537,1,0,0:0:0:0:
281,252,162625,1,0,0:0:0:0:
281,255,162713,1,8,0:0:0:0:
342,268,162757,1,8,0:0:0:0:
342,268,162801,1,0,0:0:0:0:
342,268,162889,1,0,0:0:0:0:
406,264,162978,1,8,0:0:0:0:
406,264,163066,1,0,0:0:0:0:
406,264,163154,1,8,0:0:0:0:
406,264,163242,1,8,0:0:0:0:
406,264,163331,1,0,0:0:0:0:
437,293,163419,1,8,0:0:0:0:
404,273,163463,1,8,0:0:0:0:
404,278,163507,1,0,0:0:0:0:
336,323,163595,1,0,0:0:0:0:
336,323,163684,1,8,0:0:0:0:
298,322,163772,1,0,0:0:0:0:
298,322,163860,1,8,0:0:0:0:
298,322,163948,1,8,0:0:0:0:
298,322,164037,1,0,0:0:0:0:
270,297,164125,1,8,0:0:0:0:
272,307,164213,1,0,0:0:0:0:
303,293,164301,1,8,0:0:0:0:
272,308,164389,1,8,0:0:0:0:
301,293,164478,1,0,0:0:0:0:
298,244,164537,1,0,0:0:0:0:
298,244,164595,1,0,0:0:0:0:
292,239,164654,1,8,0:0:0:0:
312,252,164742,1,8,0:0:0:0:
338,282,164831,1,0,0:0:0:0:
338,282,164889,1,0,0:0:0:0:
338,282,164948,1,0,0:0:0:0:
338,282,165007,1,8,0:0:0:0:
298,282,165095,1,8,0:0:0:0:
289,249,165184,1,0,0:0:0:0:
289,249,165272,1,8,0:0:0:0:
281,251,165360,1,0,0:0:0:0:
281,252,165448,1,0,0:0:0:0:
281,255,165537,1,8,0:0:0:0:
342,268,165581,1,8,0:0:0:0:
342,268,165625,1,0,0:0:0:0:
342,268,165713,1,0,0:0:0:0:
406,264,165801,1,8,0:0:0:0:
406,264,165889,1,0,0:0:0:0:
406,264,165978,1,8,0:0:0:0:
406,264,166066,1,8,0:0:0:0:
406,264,166154,1,0,0:0:0:0:
404,273,166242,1,8,0:0:0:0:
437,293,166287,1,8,0:0:0:0:
404,278,166331,1,0,0:0:0:0:
336,323,166419,1,0,0:0:0:0:
336,323,166507,1,8,0:0:0:0:
298,322,166595,1,0,0:0:0:0:
298,322,166684,1,8,0:0:0:0:
298,322,166772,1,8,0:0:0:0:
298,322,166860,1,0,0:0:0:0:
270,297,166948,1,8,0:0:0:0:
272,307,167037,5,0,0:0:0:0:
303,293,167125,1,8,0:0:0:0:
272,308,167213,1,8,0:0:0:0:
364,288,167301,1,0,0:0:0:0:
387,276,167389,1,8,0:0:0:0:
338,258,167478,1,0,0:0:0:0:
338,258,167537,1,0,0:0:0:0:
338,258,167595,1,0,0:0:0:0:
341,262,167654,1,8,0:0:0:0:
386,277,167742,1,8,0:0:0:0:
269,264,167831,1,0,0:0:0:0:
269,264,167889,1,0,0:0:0:0:
269,264,167948,1,0,0:0:0:0:
269,264,168007,1,12,0:0:0:0:
361,311,168184,1,8,0:0:0:0:
331,279,168272,1,0,0:0:0:0:
327,297,168360,1,8,0:0:0:0:
302,281,168448,1,8,0:0:0:0:
311,296,168537,1,0,0:0:0:0:
313,295,168595,1,0,0:0:0:0:
312,293,168654,1,0,0:0:0:0:
314,292,168713,1,8,0:0:0:0:
345,316,168801,1,0,0:0:0:0:
345,317,168889,1,8,0:0:0:0:
345,317,168978,1,8,0:0:0:0:
347,283,169066,1,0,0:0:0:0:
332,330,169154,1,8,0:0:0:0:
345,273,169242,1,8,0:0:0:0:
345,273,169331,1,0,0:0:0:0:
345,272,169419,1,12,0:0:0:0:
334,273,169595,1,0,0:0:0:0:
334,273,169684,1,8,0:0:0:0:
324,266,169860,1,0,0:0:0:0:
324,266,169948,1,8,0:0:0:0:
324,266,170037,1,8,0:0:0:0:
351,278,170125,1,0,0:0:0:0:
335,251,170213,1,0,0:0:0:0:
335,251,170301,1,8,0:0:0:0:
336,250,170389,1,0,0:0:0:0:
335,251,170478,1,0,0:0:0:0:
319,268,170654,1,8,0:0:0:0:
324,266,170831,1,4,0:0:0:0:
324,266,171007,1,8,0:0:0:0:
323,263,171095,1,8,0:0:0:0:
323,263,171184,1,0,0:0:0:0:
323,263,171272,1,8,0:0:0:0:
336,287,171360,1,0,0:0:0:0:
336,287,171419,1,8,0:0:0:0:
334,282,171478,1,8,0:0:0:0:
334,282,171537,1,0,0:0:0:0:
391,248,171625,1,0,0:0:0:0:
391,248,171713,1,8,0:0:0:0:
391,248,171801,1,0,0:0:0:0:
391,248,171889,1,8,0:0:0:0:
391,248,171978,1,8,0:0:0:0:
391,248,172066,1,0,0:0:0:0:
391,248,172154,1,0,0:0:0:0:
391,248,172242,1,12,0:0:0:0:
385,242,172419,1,0,0:0:0:0:
385,241,172507,1,8,0:0:0:0:
385,241,172595,1,4,0:0:0:0:
371,248,172772,1,8,0:0:0:0:
371,248,172860,1,8,0:0:0:0:
324,246,172948,1,0,0:0:0:0:
368,258,173037,1,0,0:0:0:0:
368,258,173125,1,8,0:0:0:0:
369,258,173301,1,4,0:0:0:0:
296,257,173478,1,8,0:0:0:0:
297,257,173654,1,4,0:0:0:0:
361,311,173831,1,8,0:0:0:0:
331,279,173919,1,0,0:0:0:0:
327,297,174007,1,8,0:0:0:0:
302,281,174095,1,8,0:0:0:0:
311,296,174184,1,0,0:0:0:0:
313,295,174242,1,0,0:0:0:0:
312,293,174301,1,0,0:0:0:0:
314,292,174360,1,8,0:0:0:0:
345,316,174448,1,0,0:0:0:0:
345,317,174537,1,8,0:0:0:0:
345,317,174625,1,8,0:0:0:0:
347,283,174713,1,0,0:0:0:0:
332,330,174801,1,8,0:0:0:0:
345,273,174889,1,8,0:0:0:0:
345,273,174978,1,0,0:0:0:0:
345,272,175066,1,12,0:0:0:0:
339,288,175242,1,0,0:0:0:0:
387,244,175331,1,8,0:0:0:0:
387,244,175507,1,0,0:0:0:0:
395,245,175595,1,8,0:0:0:0:
401,254,175684,1,8,0:0:0:0:
351,242,175772,1,0,0:0:0:0:
237,194,175860,1,0,0:0:0:0:
170,166,175948,1,8,0:0:0:0:
235,243,176037,1,0,0:0:0:0:
235,243,176125,1,0,0:0:0:0:
399,242,176301,1,8,0:0:0:0:
389,286,176478,1,4,0:0:0:0:
389,279,176654,1,8,0:0:0:0:
387,280,176742,1,8,0:0:0:0:
384,280,176831,1,0,0:0:0:0:
390,264,176919,1,8,0:0:0:0:
380,279,177007,1,0,0:0:0:0:
294,212,177051,1,0,0:0:0:0:
294,212,177095,1,0,0:0:0:0:
294,212,177139,1,0,0:0:0:0:
294,212,177184,1,8,0:0:0:0:
392,268,177242,1,8,0:0:0:0:
392,268,177301,1,8,0:0:0:0:
391,248,177360,1,0,0:0:0:0:
411,240,177448,1,8,0:0:0:0:
413,240,177537,1,0,0:0:0:0:
406,242,177625,1,8,0:0:0:0:
406,244,177713,1,8,0:0:0:0:
401,249,177801,1,0,0:0:0:0:
399,249,177889,1,12,0:0:0:0:
294,210,178066,1,0,0:0:0:0:
294,210,178154,1,8,0:0:0:0:
294,210,178242,1,8,0:0:0:0:
294,210,178331,1,0,0:0:0:0:
294,210,178419,1,8,0:0:0:0:
294,210,178507,1,8,0:0:0:0:
294,210,178595,1,0,0:0:0:0:
294,210,178684,1,8,0:0:0:0:
298,217,178772,1,0,0:0:0:0:
291,226,178860,1,0,0:0:0:0:
295,234,178948,1,8,0:0:0:0:
295,234,179037,1,0,0:0:0:0:
295,234,179125,1,8,0:0:0:0:
295,233,179213,1,8,0:0:0:0:
295,233,179301,1,4,0:0:0:0:
361,311,179478,1,8,0:0:0:0:
331,279,179566,1,0,0:0:0:0:
327,297,179654,1,8,0:0:0:0:
302,281,179742,1,8,0:0:0:0:
311,296,179831,1,0,0:0:0:0:
312,293,179889,1,0,0:0:0:0:
313,295,179948,1,0,0:0:0:0:
314,292,180007,1,8,0:0:0:0:
345,316,180095,1,0,0:0:0:0:
345,317,180184,1,8,0:0:0:0:
345,317,180272,1,8,0:0:0:0:
347,283,180360,1,0,0:0:0:0:
332,330,180448,1,8,0:0:0:0:
345,273,180537,1,8,0:0:0:0:
345,273,180625,1,0,0:0:0:0:
345,272,180713,1,12,0:0:0:0:
334,273,180889,1,0,0:0:0:0:
334,273,180978,1,8,0:0:0:0:
324,266,181154,1,0,0:0:0:0:
324,266,181242,1,8,0:0:0:0:
324,266,181331,1,8,0:0:0:0:
351,278,181419,1,0,0:0:0:0:
335,251,181507,1,8,0:0:0:0:
335,251,181595,1,0,0:0:0:0:
336,250,181684,1,0,0:0:0:0:
335,251,181772,1,8,0:0:0:0:
319,268,181948,1,8,0:0:0:0:
324,266,182125,1,4,0:0:0:0:
324,266,182301,1,8,0:0:0:0:
323,263,182389,1,8,0:0:0:0:
323,263,182478,1,0,0:0:0:0:
323,263,182566,1,8,0:0:0:0:
336,287,182654,1,0,0:0:0:0:
336,287,182713,1,8,0:0:0:0:
334,282,182772,1,8,0:0:0:0:
334,282,182831,1,0,0:0:0:0:
391,248,182919,1,0,0:0:0:0:
391,248,183007,1,8,0:0:0:0:
391,248,183095,1,0,0:0:0:0:
391,248,183184,1,8,0:0:0:0:
391,248,183272,1,8,0:0:0:0:
391,248,183360,1,0,0:0:0:0:
391,248,183448,1,0,0:0:0:0:
391,248,183537,1,12,0:0:0:0:
385,242,183713,1,0,0:0:0:0:
385,241,183801,1,8,0:0:0:0:
385,241,183889,1,4,0:0:0:0:
371,248,184066,1,8,0:0:0:0:
371,248,184154,1,8,0:0:0:0:
324,246,184242,1,0,0:0:0:0:
368,258,184331,1,0,0:0:0:0:
368,258,184419,1,8,0:0:0:0:
369,258,184595,1,4,0:0:0:0:
296,257,184772,1,8,0:0:0:0:
297,257,184948,1,4,0:0:0:0:
361,311,185125,1,8,0:0:0:0:
331,279,185213,1,0,0:0:0:0:
327,297,185301,1,8,0:0:0:0:
302,281,185389,1,8,0:0:0:0:
311,296,185478,1,0,0:0:0:0:
313,295,185537,1,0,0:0:0:0:
312,293,185595,1,0,0:0:0:0:
314,292,185654,1,8,0:0:0:0:
345,316,185742,1,0,0:0:0:0:
345,317,185831,1,8,0:0:0:0:
345,317,185919,1,8,0:0:0:0:
347,283,186007,1,0,0:0:0:0:
332,330,186095,1,8,0:0:0:0:
345,273,186184,1,8,0:0:0:0:
345,273,186272,1,0,0:0:0:0:
345,272,186360,1,12,0:0:0:0:
339,288,186537,1,0,0:0:0:0:
387,244,186625,1,8,0:0:0:0:
387,244,186801,1,0,0:0:0:0:
395,245,186889,1,8,0:0:0:0:
401,254,186978,1,8,0:0:0:0:
351,242,187066,1,0,0:0:0:0:
237,194,187154,1,8,0:0:0:0:
170,166,187242,1,0,0:0:0:0:
235,243,187331,1,0,0:0:0:0:
235,243,187419,1,8,0:0:0:0:
399,242,187595,1,8,0:0:0:0:
389,286,187772,1,4,0:0:0:0:
389,279,187948,1,8,0:0:0:0:
387,280,188037,1,8,0:0:0:0:
384,280,188125,1,0,0:0:0:0:
390,264,188213,1,8,0:0:0:0:
380,279,188301,1,0,0:0:0:0:
294,212,188345,1,0,0:0:0:0:
294,212,188389,1,0,0:0:0:0:
294,212,188434,1,0,0:0:0:0:
294,212,188478,1,8,0:0:0:0:
392,268,188537,1,8,0:0:0:0:
392,268,188595,1,8,0:0:0:0:
391,248,188654,1,0,0:0:0:0:
411,240,188742,1,8,0:0:0:0:
413,240,188831,1,0,0:0:0:0:
406,242,188919,1,8,0:0:0:0:
406,244,189007,1,8,0:0:0:0:
401,249,189095,1,0,0:0:0:0:
399,249,189184,1,12,0:0:0:0:
352,259,189360,1,0,0:0:0:0:
352,259,189448,1,8,0:0:0:0:
352,259,189537,1,8,0:0:0:0:
352,259,189625,1,0,0:0:0:0:
352,259,189713,1,8,0:0:0:0:
352,259,189801,1,8,0:0:0:0:
352,259,189889,1,0,0:0:0:0:
352,259,189978,1,0,0:0:0:0:
352,259,190066,1,8,0:0:0:0:
352,259,190154,1,8,0:0:0:0:
352,259,190242,1,0,0:0:0:0:
346,265,190419,1,8,0:0:0:0:
373,272,190595,1,4,0:0:0:0:
310,232,190772,1,0,0:0:0:0:
310,232,190860,1,8,0:0:0:0:
311,247,190948,1,8,0:0:0:0:
346,248,191037,1,0,0:0:0:0:
411,207,191125,1,8,0:0:0:0:
411,207,191184,1,8,0:0:0:0:
411,207,191242,1,8,0:0:0:0:
411,207,191301,1,0,0:0:0:0:
420,259,191389,1,8,0:0:0:0:
420,259,191478,1,8,0:0:0:0:
420,259,191566,1,0,0:0:0:0:
420,259,191654,1,8,0:0:0:0:
420,259,191742,1,0,0:0:0:0:
420,259,191831,1,8,0:0:0:0:
420,259,191919,1,8,0:0:0:0:
391,236,192007,1,4,0:0:0:0:
355,234,192184,1,8,0:0:0:0:
355,234,192272,1,0,0:0:0:0:
306,233,192360,1,8,0:0:0:0:
355,234,192448,1,8,0:0:0:0:
349,241,192537,1,0,0:0:0:0:
347,213,192625,1,8,0:0:0:0:
348,214,192713,1,0,0:0:0:0:
356,212,192801,1,0,0:0:0:0:
356,212,192889,1,8,0:0:0:0:
329,276,192978,1,0,0:0:0:0:
356,212,193066,1,0,0:0:0:0:
327,226,193242,1,8,0:0:0:0:
336,238,193419,1,4,0:0:0:0:
324,266,193595,1,8,0:0:0:0:
323,263,193684,1,8,0:0:0:0:
323,263,193772,1,0,0:0:0:0:
323,263,193860,1,8,0:0:0:0:
336,287,193948,1,0,0:0:0:0:
336,287,194007,1,8,0:0:0:0:
334,282,194066,1,8,0:0:0:0:
334,282,194125,1,0,0:0:0:0:
391,248,194213,1,0,0:0:0:0:
391,248,194301,1,8,0:0:0:0:
391,248,194389,1,0,0:0:0:0:
391,248,194478,1,8,0:0:0:0:
391,248,194566,1,8,0:0:0:0:
391,248,194654,1,0,0:0:0:0:
391,248,194742,1,0,0:0:0:0:
391,248,194831,1,12,0:0:0:0:
406,245,195007,1,0,0:0:0:0:
404,246,195095,1,8,0:0:0:0:
394,270,195184,1,4,0:0:0:0:
406,246,195360,1,8,0:0:0:0:
406,246,195448,1,0,0:0:0:0:
406,245,195537,1,8,0:0:0:0:
394,263,195625,1,8,0:0:0:0:
394,263,195713,1,0,0:0:0:0:
394,263,195801,1,0,0:0:0:0:
380,237,195889,1,12,0:0:0:0:
381,244,196066,1,0,0:0:0:0:
385,252,196242,1,12,0:0:0:0:
355,219,196419,1,0,0:0:0:0:
355,219,196507,1,8,0:0:0:0:
368,226,196595,1,8,0:0:0:0:
346,248,196684,1,0,0:0:0:0:
411,207,196772,1,8,0:0:0:0:
411,207,196831,1,8,0:0:0:0:
411,207,196889,1,8,0:0:0:0:
411,207,196948,1,0,0:0:0:0:
420,259,197037,1,8,0:0:0:0:
420,259,197125,1,8,0:0:0:0:
420,259,197213,1,0,0:0:0:0:
420,259,197301,1,8,0:0:0:0:
420,259,197389,1,0,0:0:0:0:
420,259,197478,1,8,0:0:0:0:
420,259,197566,1,8,0:0:0:0:
391,236,197654,5,4,0:0:0:0:
355,234,197831,1,8,0:0:0:0:
355,234,197919,1,0,0:0:0:0:
297,244,198007,1,8,0:0:0:0:
235,216,198095,5,8,0:0:0:0:
235,216,198184,1,0,0:0:0:0:
267,227,198272,1,8,0:0:0:0:
267,227,198360,1,0,0:0:0:0:
267,227,198448,1,0,0:0:0:0:
267,227,198537,1,8,0:0:0:0:
256,229,198625,5,0,0:0:0:0:
256,229,198713,1,0,0:0:0:0:
291,240,198889,5,8,0:0:0:0:
300,253,199066,5,4,0:0:0:0:
395,253,199242,1,8,0:0:0:0:
395,253,199331,1,0,0:0:0:0:
395,253,199419,1,8,0:0:0:0:
320,256,199595,5,0,0:0:0:0:
320,256,199684,1,8,0:0:0:0:
320,256,199772,1,0,0:0:0:0:
320,256,199816,1,0,0:0:0:0:
320,256,199860,1,0,0:0:0:0:
320,256,199904,1,0,0:0:0:0:
320,256,199948,1,8,0:0:0:0:
384,288,200007,1,8,0:0:0:0:
384,288,200066,1,8,0:0:0:0:
384,288,200125,1,0,0:0:0:0:
480,320,200213,1,0,0:0:0:0:
480,320,200301,1,8,0:0:0:0:
480,320,200389,1,8,0:0:0:0:
480,320,200478,1,4,0:0:0:0:
347,267,200654,1,8,0:0:0:0:
364,308,200742,1,0,0:0:0:0:
354,283,200831,1,8,0:0:0:0:
336,275,201007,1,0,0:0:0:0:
336,275,201095,1,8,0:0:0:0:
336,275,201184,1,8,0:0:0:0:
380,291,201272,1,0,0:0:0:0:
372,292,201360,1,0,0:0:0:0:
371,290,201448,1,8,0:0:0:0:
371,289,201537,1,0,0:0:0:0:
367,287,201625,1,0,0:0:0:0:
365,284,201713,1,8,0:0:0:0:
365,286,201801,1,8,0:0:0:0:
350,283,201889,1,4,0:0:0:0:
261,191,202066,1,8,0:0:0:0:
276,233,202154,1,0,0:0:0:0:
276,234,202242,1,8,0:0:0:0:
283,252,202419,1,0,0:0:0:0:
393,272,202478,1,0,0:0:0:0:
342,270,202537,1,0,0:0:0:0:
259,254,202595,1,8,0:0:0:0:
284,255,202684,1,0,0:0:0:0:
286,258,202772,1,8,0:0:0:0:
286,260,202860,1,8,0:0:0:0:
286,265,202948,1,0,0:0:0:0:
279,265,203125,1,8,0:0:0:0:
280,270,203301,1,4,0:0:0:0:
252,257,203478,1,8,0:0:0:0:
280,259,203566,1,8,0:0:0:0:
284,255,203654,1,0,0:0:0:0:
286,258,203742,1,8,0:0:0:0:
275,260,203831,1,0,0:0:0:0:
389,251,203889,1,0,0:0:0:0:
389,251,203948,1,0,0:0:0:0:
261,267,204007,1,8,0:0:0:0:
258,273,204095,1,8,0:0:0:0:
305,309,204184,1,0,0:0:0:0:
296,305,204272,1,8,0:0:0:0:
296,305,204360,1,8,0:0:0:0:
286,293,204537,1,0,0:0:0:0:
423,310,204625,1,8,0:0:0:0:
299,281,204713,1,4,0:0:0:0:
272,296,204889,1,8,0:0:0:0:
272,298,204978,1,0,0:0:0:0:
362,256,205066,1,8,0:0:0:0:
271,293,205242,1,0,0:0:0:0:
271,293,205301,1,0,0:0:0:0:
308,263,205360,1,0,0:0:0:0:
308,263,205419,1,8,0:0:0:0:
271,293,205507,1,0,0:0:0:0:
271,293,205595,1,8,0:0:0:0:
271,296,205684,1,8,0:0:0:0:
272,296,205772,1,0,0:0:0:0:
288,315,205948,1,8,0:0:0:0:
215,198,206125,1,4,0:0:0:0:
215,198,206301,1,8,0:0:0:0:
215,198,206389,1,8,0:0:0:0:
215,198,206478,1,4,0:0:0:0:
215,198,206654,1,8,0:0:0:0:
215,198,206742,1,8,0:0:0:0:
215,198,206831,1,0,0:0:0:0:
215,198,206919,1,8,0:0:0:0:
327,251,207007,1,0,0:0:0:0:
327,251,207095,1,0,0:0:0:0:
327,251,207184,1,12,0:0:0:0:
347,240,207360,1,8,0:0:0:0:
346,252,207537,1,4,0:0:0:0:
350,263,207713,1,8,0:0:0:0:
350,263,207801,1,0,0:0:0:0:
350,263,207889,1,8,0:0:0:0:
340,264,208066,1,0,0:0:0:0:
367,259,208125,1,0,0:0:0:0:
363,258,208184,1,0,0:0:0:0:
363,258,208242,1,8,0:0:0:0:
431,284,208331,1,0,0:0:0:0:
431,284,208419,1,8,0:0:0:0:
430,260,208507,1,8,0:0:0:0:
431,268,208595,1,0,0:0:0:0:
436,268,208772,1,8,0:0:0:0:
435,275,208948,1,4,0:0:0:0:
428,265,209125,1,8,0:0:0:0:
428,265,209213,1,8,0:0:0:0:
428,265,209301,1,0,0:0:0:0:
429,266,209389,1,8,0:0:0:0:
446,287,209478,1,0,0:0:0:0:
446,287,209537,1,0,0:0:0:0:
446,284,209595,1,0,0:0:0:0:
450,282,209654,1,8,0:0:0:0:
281,193,209742,1,8,0:0:0:0:
281,193,209831,1,0,0:0:0:0:
281,193,209919,1,8,0:0:0:0:
296,200,210007,1,8,0:0:0:0:
396,264,210184,1,0,0:0:0:0:
396,264,210272,1,8,0:0:0:0:
397,266,210360,1,4,0:0:0:0:
395,253,210537,1,8,0:0:0:0:
395,253,210625,1,0,0:0:0:0:
395,253,210713,1,8,0:0:0:0:
320,256,210889,5,0,0:0:0:0:
320,256,210978,1,8,0:0:0:0:
320,256,211066,1,0,0:0:0:0:
320,256,211110,1,0,0:0:0:0:
320,256,211154,1,0,0:0:0:0:
320,256,211198,1,0,0:0:0:0:
320,256,211242,1,8,0:0:0:0:
384,288,211301,1,8,0:0:0:0:
384,288,211360,1,8,0:0:0:0:
384,288,211419,1,0,0:0:0:0:
480,320,211507,1,0,0:0:0:0:
480,320,211595,1,8,0:0:0:0:
480,320,211684,1,8,0:0:0:0:
480,320,211772,1,0,0:0:0:0:
282,220,211948,1,8,0:0:0:0:
282,220,212037,1,0,0:0:0:0:
282,220,212125,1,8,0:0:0:0:
282,220,212301,1,0,0:0:0:0:
282,220,212389,1,8,0:0:0:0:
282,220,212478,1,8,0:0:0:0:
286,227,212566,1,0,0:0:0:0:
286,227,212654,1,0,0:0:0:0:
282,220,212742,1,8,0:0:0:0:
277,225,212831,1,0,0:0:0:0:
281,241,213007,1,8,0:0:0:0:
234,207,213184,1,4,0:0:0:0:
361,311,213360,1,8,0:0:0:0:
331,279,213448,1,0,0:0:0:0:
327,297,213537,1,8,0:0:0:0:
302,281,213625,1,8,0:0:0:0:
311,296,213713,1,0,0:0:0:0:
313,295,213772,1,0,0:0:0:0:
312,293,213831,1,0,0:0:0:0:
314,292,213889,1,8,0:0:0:0:
345,316,213978,1,0,0:0:0:0:
345,317,214066,1,8,0:0:0:0:
345,317,214154,1,8,0:0:0:0:
347,283,214242,1,0,0:0:0:0:
332,330,214331,1,8,0:0:0:0:
345,273,214419,1,8,0:0:0:0:
345,273,214507,1,0,0:0:0:0:
301,296,214595,1,12,0:0:0:0:
252,257,214772,1,8,0:0:0:0:
280,259,214860,1,8,0:0:0:0:
284,255,214948,1,0,0:0:0:0:
286,258,215037,1,8,0:0:0:0:
275,260,215125,1,0,0:0:0:0:
389,251,215184,1,0,0:0:0:0:
389,251,215242,1,0,0:0:0:0:
261,267,215301,1,8,0:0:0:0:
258,273,215389,1,8,0:0:0:0:
305,309,215478,1,0,0:0:0:0:
296,305,215566,1,8,0:0:0:0:
296,305,215654,1,8,0:0:0:0:
330,262,215831,1,0,0:0:0:0:
330,262,215919,1,8,0:0:0:0:
330,262,216007,1,4,0:0:0:0:
324,266,216184,1,8,0:0:0:0:
323,263,216272,1,8,0:0:0:0:
323,263,216360,1,0,0:0:0:0:
323,263,216448,1,8,0:0:0:0:
336,287,216537,1,0,0:0:0:0:
334,282,216595,1,8,0:0:0:0:
336,287,216654,1,8,0:0:0:0:
334,282,216713,1,0,0:0:0:0:
391,248,216801,1,0,0:0:0:0:
391,248,216889,1,8,0:0:0:0:
391,248,216978,1,0,0:0:0:0:
391,248,217066,1,8,0:0:0:0:
391,248,217154,1,8,0:0:0:0:
391,248,217242,1,0,0:0:0:0:
391,248,217331,1,0,0:0:0:0:
391,248,217419,1,12,0:0:0:0:
271,248,217595,1,0,0:0:0:0:
271,248,217684,1,8,0:0:0:0:
271,248,217772,1,4,0:0:0:0:
252,273,217948,1,8,0:0:0:0:
249,276,218037,1,8,0:0:0:0:
244,294,218125,1,0,0:0:0:0:
250,303,218213,1,8,0:0:0:0:
249,308,218301,1,0,0:0:0:0:
255,309,218389,1,0,0:0:0:0:
274,303,218478,1,12,0:0:0:0:
306,319,218654,1,8,0:0:0:0:
306,319,218831,1,4,0:0:0:0:
361,311,219007,1,8,0:0:0:0:
331,279,219095,1,0,0:0:0:0:
327,297,219184,1,8,0:0:0:0:
302,281,219272,1,8,0:0:0:0:
311,296,219360,1,0,0:0:0:0:
312,293,219419,1,0,0:0:0:0:
313,295,219478,1,0,0:0:0:0:
314,292,219537,1,8,0:0:0:0:
345,316,219625,1,0,0:0:0:0:
345,317,219713,1,8,0:0:0:0:
345,317,219801,1,8,0:0:0:0:
347,283,219889,1,0,0:0:0:0:
332,330,219978,1,8,0:0:0:0:
345,273,220066,1,8,0:0:0:0:
288,224,220154,5,0,0:0:0:0:
324,275,220242,1,12,0:0:0:0:
256,192,220595,1,12,0:0:0:0:
320,288,220772,1,0,0:0:0:0:
256,192,220948,1,4,0:0:0:0:
384,288,221125,1,0,0:0:0:0:
320,256,221301,1,12,0:0:0:0:
320,288,221478,1,8,0:0:0:0:
288,256,221654,1,4,0:0:0:0:
416,288,221831,1,8,0:0:0:0:
448,288,221919,1,0,0:0:0:0:
448,288,222007,1,8,0:0:0:0:
320,256,222184,1,0,0:0:0:0:
320,256,222272,1,8,0:0:0:0:
320,256,222360,1,0,0:0:0:0:
320,256,222404,1,0,0:0:0:0:
320,256,222448,1,0,0:0:0:0:
320,256,222492,1,0,0:0:0:0:
320,256,222537,1,8,0:0:0:0:
384,288,222595,1,8,0:0:0:0:
384,288,222654,1,8,0:0:0:0:
384,288,222713,1,0,0:0:0:0:
480,320,222801,1,0,0:0:0:0:
480,320,222889,1,8,0:0:0:0:
480,320,222978,1,8,0:0:0:0:
480,320,223066,1,0,0:0:0:0:
448,320,223242,1,8,0:0:0:0:
448,320,223331,1,0,0:0:0:0:
448,320,223419,1,8,0:0:0:0:
448,320,223595,1,0,0:0:0:0:
448,320,223684,1,8,0:0:0:0:
448,320,223772,1,8,0:0:0:0:
448,320,223860,1,0,0:0:0:0:
448,320,223948,1,0,0:0:0:0:
448,320,224037,1,8,0:0:0:0:
416,320,224125,1,0,0:0:0:0:
358,305,224301,1,8,0:0:0:0:
358,305,224389,1,8,0:0:0:0:
365,273,224478,1,4,0:0:0:0:
398,288,224654,1,8,0:0:0:0:
398,288,224742,1,0,0:0:0:0:
398,288,224831,1,8,0:0:0:0:
397,289,224919,1,8,0:0:0:0:
401,296,225007,1,0,0:0:0:0:
408,301,225095,1,8,0:0:0:0:
408,301,225184,1,8,0:0:0:0:
410,308,225360,1,0,0:0:0:0:
407,304,225448,1,8,0:0:0:0:
395,313,225537,1,8,0:0:0:0:
369,291,225625,1,0,0:0:0:0:
386,309,225713,1,8,0:0:0:0:
365,275,225801,1,8,0:0:0:0:
380,296,225889,1,4,0:0:0:0:
366,275,226066,1,8,0:0:0:0:
363,281,226154,1,0,0:0:0:0:
376,276,226331,1,0,0:0:0:0:
376,276,226419,1,8,0:0:0:0:
368,263,226507,1,8,0:0:0:0:
374,274,226595,1,0,0:0:0:0:
357,249,226772,1,8,0:0:0:0:
357,249,226860,1,0,0:0:0:0:
359,252,227037,1,0,0:0:0:0:
359,252,227125,1,8,0:0:0:0:
331,251,227301,1,4,0:0:0:0:
321,232,227478,1,8,0:0:0:0:
321,232,227566,1,0,0:0:0:0:
320,232,227654,1,8,0:0:0:0:
311,231,227742,1,8,0:0:0:0:
311,231,227831,1,0,0:0:0:0:
313,233,227919,1,8,0:0:0:0:
313,234,228007,1,8,0:0:0:0:
319,236,228184,1,0,0:0:0:0:
319,236,228272,1,8,0:0:0:0:
321,232,228360,1,8,0:0:0:0:
317,240,228448,1,0,0:0:0:0:
317,240,228537,1,8,0:0:0:0:
317,239,228625,1,8,0:0:0:0:
317,240,228713,1,4,0:0:0:0:
317,227,228889,1,8,0:0:0:0:
317,227,228978,1,0,0:0:0:0:
317,227,229066,1,8,0:0:0:0:
319,236,229242,1,0,0:0:0:0:
321,232,229331,1,8,0:0:0:0:
317,240,229419,1,8,0:0:0:0:
323,230,229507,1,0,0:0:0:0:
323,230,229595,1,8,0:0:0:0:
321,229,229684,1,8,0:0:0:0:
317,227,229772,1,0,0:0:0:0:
317,227,229860,1,0,0:0:0:0:
317,227,229948,1,8,0:0:0:0:
317,227,230037,1,8,0:0:0:0:
326,233,230125,1,4,0:0:0:0:
322,219,230301,1,8,0:0:0:0:
322,219,230389,1,0,0:0:0:0:
321,219,230478,1,8,0:0:0:0:
319,220,230566,1,8,0:0:0:0:
319,220,230654,1,0,0:0:0:0:
319,220,230742,1,8,0:0:0:0:
319,220,230831,1,8,0:0:0:0:
325,224,231007,1,0,0:0:0:0:
325,224,231095,1,8,0:0:0:0:
322,219,231184,1,8,0:0:0:0:
323,231,231272,1,0,0:0:0:0:
321,231,231360,1,8,0:0:0:0:
321,231,231448,1,8,0:0:0:0:
299,237,231537,1,4,0:0:0:0:
287,221,231713,1,8,0:0:0:0:
287,221,231801,1,0,0:0:0:0:
284,225,231978,1,0,0:0:0:0:
284,225,232066,1,8,0:0:0:0:
281,224,232154,1,8,0:0:0:0:
283,230,232242,1,0,0:0:0:0:
286,225,232419,1,8,0:0:0:0:
286,225,232507,1,0,0:0:0:0:
287,221,232684,1,0,0:0:0:0:
287,221,232772,1,8,0:0:0:0:
301,183,232948,5,4,0:0:0:0:
303,174,233125,5,8,0:0:0:0:
303,174,233213,1,0,0:0:0:0:
303,174,233301,1,8,0:0:0:0:
303,174,233389,1,8,0:0:0:0:
303,174,233478,1,0,0:0:0:0:
303,174,233566,1,8,0:0:0:0:
303,174,233654,1,8,0:0:0:0:
276,188,233831,1,0,0:0:0:0:
277,187,233919,1,8,0:0:0:0:
278,187,234007,1,8,0:0:0:0:
271,191,234095,1,0,0:0:0:0:
271,191,234184,1,8,0:0:0:0:
270,189,234272,1,8,0:0:0:0:
270,189,234360,1,0,0:0:0:0:
270,189,234448,1,8,0:0:0:0:
270,189,234537,1,8,0:0:0:0:
270,189,234625,1,0,0:0:0:0:
276,188,234713,1,8,0:0:0:0:
352,226,234801,1,0,0:0:0:0:
256,224,234889,1,8,0:0:0:0:
256,224,234978,1,8,0:0:0:0:
256,224,235066,1,0,0:0:0:0:
256,224,235154,1,8,0:0:0:0:
256,224,235242,1,0,0:0:0:0:
248,201,235331,1,0,0:0:0:0:
244,202,235419,1,8,0:0:0:0:
243,202,235507,1,0,0:0:0:0:
233,202,235595,1,8,0:0:0:0:
240,196,235684,1,8,0:0:0:0:
241,193,235772,1,4,0:0:0:0:
262,178,235948,1,8,0:0:0:0:
262,178,236037,1,0,0:0:0:0:
341,166,236125,1,8,0:0:0:0:
341,166,236169,1,8,0:0:0:0:
351,158,236301,1,8,0:0:0:0:
351,158,236345,1,8,0:0:0:0:
391,196,236478,1,8,0:0:0:0:
353,157,236522,1,8,0:0:0:0:
390,180,236654,1,0,0:0:0:0:
390,180,236742,1,8,0:0:0:0:
388,179,236831,1,0,0:0:0:0:
387,179,237007,1,8,0:0:0:0:
387,179,237184,1,0,0:0:0:0:
387,179,237272,1,8,0:0:0:0:
387,179,237360,1,8,0:0:0:0:
376,160,237448,1,0,0:0:0:0:
391,196,237537,1,8,0:0:0:0:
382,201,237625,1,0,0:0:0:0:
380,201,237713,1,8,0:0:0:0:
380,203,237801,1,8,0:0:0:0:
386,203,237889,1,0,0:0:0:0:
347,178,238066,1,8,0:0:0:0:
342,185,238154,1,8,0:0:0:0:
342,185,238242,1,0,0:0:0:0:
390,234,238331,1,0,0:0:0:0:
387,236,238419,1,8,0:0:0:0:
341,236,238595,1,0,0:0:0:0:
380,232,238772,1,8,0:0:0:0:
380,232,238860,1,0,0:0:0:0:
380,232,238948,1,8,0:0:0:0:
374,250,238992,1,8,0:0:0:0:
376,247,239125,1,8,0:0:0:0:
376,247,239169,1,8,0:0:0:0:
371,240,239301,1,8,0:0:0:0:
371,240,239345,1,8,0:0:0:0:
388,249,239478,1,0,0:0:0:0:
387,249,239566,1,8,0:0:0:0:
387,249,239654,1,0,0:0:0:0:
416,275,239831,1,8,0:0:0:0:
388,271,240007,1,0,0:0:0:0:
381,261,240095,1,8,0:0:0:0:
381,261,240184,1,8,0:0:0:0:
381,261,240272,1,0,0:0:0:0:
373,252,240360,1,8,0:0:0:0:
381,251,240448,1,0,0:0:0:0:
387,249,240537,1,8,0:0:0:0:
443,264,240625,1,8,0:0:0:0:
443,274,240713,1,0,0:0:0:0:
441,278,240801,1,0,0:0:0:0:
440,288,240889,1,8,0:0:0:0:
439,293,240978,1,8,0:0:0:0:
439,295,241066,1,0,0:0:0:0:
439,295,241154,1,8,0:0:0:0:
438,286,241242,1,8,0:0:0:0:
396,276,241331,1,8,0:0:0:0:
446,254,241419,1,0,0:0:0:0:
428,245,241595,1,8,0:0:0:0:
424,246,241684,1,0,0:0:0:0:
443,252,241772,1,8,0:0:0:0:
443,252,241816,1,8,0:0:0:0:
443,253,241948,1,8,0:0:0:0:
443,253,241992,1,8,0:0:0:0:
361,247,242125,1,8,0:0:0:0:
361,247,242169,1,8,0:0:0:0:
453,254,242301,1,0,0:0:0:0:
453,254,242389,1,8,0:0:0:0:
453,254,242478,1,0,0:0:0:0:
452,262,242654,1,8,0:0:0:0:
386,227,242831,1,0,0:0:0:0:
386,227,242919,1,8,0:0:0:0:
375,214,243007,1,8,0:0:0:0:
375,229,243095,1,0,0:0:0:0:
389,232,243184,1,8,0:0:0:0:
382,239,243272,1,0,0:0:0:0:
382,252,243360,1,8,0:0:0:0:
381,259,243448,1,8,0:0:0:0:
379,257,243537,1,0,0:0:0:0:
379,250,243713,1,8,0:0:0:0:
379,250,243801,1,8,0:0:0:0:
379,250,243889,1,0,0:0:0:0:
379,250,243978,1,0,0:0:0:0:
379,251,244066,1,8,0:0:0:0:
385,252,244242,1,0,0:0:0:0:
496,232,244419,1,8,0:0:0:0:
496,232,244507,1,0,0:0:0:0:
491,250,244595,1,8,0:0:0:0:
496,232,244639,1,8,0:0:0:0:
479,222,244772,1,8,0:0:0:0:
496,242,244816,1,8,0:0:0:0:
474,240,244948,1,8,0:0:0:0:
474,240,244992,1,8,0:0:0:0:
311,231,245125,1,0,0:0:0:0:
311,231,245213,1,8,0:0:0:0:
311,231,245301,1,0,0:0:0:0:
338,226,245478,1,8,0:0:0:0:
340,234,245654,1,0,0:0:0:0:
340,234,245742,1,8,0:0:0:0:
340,234,245831,1,8,0:0:0:0:
340,234,245919,1,0,0:0:0:0:
338,238,246007,1,8,0:0:0:0:
337,240,246095,1,0,0:0:0:0:
378,288,246184,1,8,0:0:0:0:
371,284,246272,1,8,0:0:0:0:
371,284,246360,1,0,0:0:0:0:
371,284,246448,1,8,0:0:0:0:
371,296,246537,1,0,0:0:0:0:
395,295,246625,1,8,0:0:0:0:
394,295,246713,1,8,0:0:0:0:
394,295,246801,1,0,0:0:0:0:
378,288,246889,1,8,0:0:0:0:
378,288,246978,1,8,0:0:0:0:
352,302,247066,1,4,0:0:0:0:
371,284,247331,1,8,0:0:0:0:
376,278,247595,1,8,0:0:0:0:
404,291,247772,1,0,0:0:0:0:
410,280,248037,1,8,0:0:0:0:
401,283,248301,1,0,0:0:0:0:
401,283,248478,1,8,0:0:0:0:
396,292,248742,1,8,0:0:0:0:
410,309,249007,1,8,0:0:0:0:
409,309,249184,1,0,0:0:0:0:
393,288,249360,1,8,0:0:0:0:
393,288,249448,1,0,0:0:0:0:
384,292,249625,1,0,0:0:0:0:
384,291,249713,1,8,0:0:0:0:
377,278,249889,1,0,0:0:0:0:
346,252,250154,1,8,0:0:0:0:
362,263,250419,1,8,0:0:0:0:
367,222,250595,1,0,0:0:0:0:
352,254,250860,1,8,0:0:0:0:
352,254,251125,1,0,0:0:0:0:
351,256,251301,1,8,0:0:0:0:
352,263,251478,1,8,0:0:0:0:
306,247,251654,1,8,0:0:0:0:
306,247,251831,1,0,0:0:0:0:
312,261,252007,1,8,0:0:0:0:
344,267,252125,1,8,0:0:0:0:
341,262,252184,1,8,0:0:0:0:
342,237,252301,1,8,0:0:0:0:
341,240,252360,1,8,0:0:0:0:
414,288,252537,1,0,0:0:0:0:
406,273,252713,1,8,0:0:0:0:
406,273,252801,1,8,0:0:0:0:
406,273,252889,1,8,0:0:0:0:
406,273,252978,1,8,0:0:0:0:
361,260,253066,1,0,0:0:0:0:
393,264,253242,1,8,0:0:0:0:
370,258,253419,1,0,0:0:0:0:
371,272,253595,1,8,0:0:0:0:
371,272,253684,1,0,0:0:0:0:
371,271,253772,1,8,0:0:0:0:
371,271,253860,1,8,0:0:0:0:
367,270,253948,1,0,0:0:0:0:
367,268,254037,1,8,0:0:0:0:
417,295,254125,1,0,0:0:0:0:
417,272,254213,1,0,0:0:0:0:
417,272,254301,1,8,0:0:0:0:
417,272,254389,1,0,0:0:0:0:
424,274,254478,1,8,0:0:0:0:
415,260,254654,1,8,0:0:0:0:
416,259,254831,1,0,0:0:0:0:
416,251,255007,1,8,0:0:0:0:
416,251,255095,1,0,0:0:0:0:
414,261,255272,1,0,0:0:0:0:
414,261,255360,1,8,0:0:0:0:
415,260,255537,1,8,0:0:0:0:
384,256,255625,1,0,0:0:0:0:
384,256,255713,1,8,0:0:0:0:
384,256,255801,1,8,0:0:0:0:
416,256,255889,1,0,0:0:0:0:
416,224,256066,1,8,0:0:0:0:
384,256,256242,1,0,0:0:0:0:
384,256,256419,1,8,0:0:0:0:
384,256,256507,1,0,0:0:0:0:
384,256,256595,1,8,0:0:0:0:
384,256,256684,1,8,0:0:0:0:
384,256,256772,1,0,0:0:0:0:
384,256,256860,1,0,0:0:0:0:
256,192,256948,1,8,0:0:0:0:
288,224,257066,1,8,0:0:0:0:
288,224,257125,1,8,0:0:0:0:
288,224,257242,1,8,0:0:0:0:
288,224,257301,1,8,0:0:0:0:
320,224,257478,1,0,0:0:0:0:
352,224,257654,1,8,0:0:0:0:
416,224,257772,1,0,0:0:0:0:
416,224,257831,1,8,0:0:0:0:
416,224,257948,1,0,0:0:0:0:
416,224,258007,1,8,0:0:0:0:
416,224,258184,1,8,0:0:0:0:
416,224,258360,1,0,0:0:0:0:
416,256,258625,1,8,0:0:0:0:
416,256,258889,1,8,0:0:0:0:
416,288,259066,1,0,0:0:0:0:
416,288,259331,1,8,0:0:0:0:
416,288,259595,1,0,0:0:0:0:
416,288,259772,1,8,0:0:0:0:
416,288,260037,1,8,0:0:0:0:
384,288,260301,1,8,0:0:0:0:
384,288,260478,1,0,0:0:0:0:
384,288,260654,1,8,0:0:0:0:
352,288,260742,1,0,0:0:0:0:
352,288,260919,1,0,0:0:0:0:
352,320,261007,1,8,0:0:0:0:
352,288,261184,1,0,0:0:0:0:
352,288,261448,1,8,0:0:0:0:
352,288,261713,1,8,0:0:0:0:
352,288,261889,1,0,0:0:0:0:
352,288,262154,1,8,0:0:0:0:
352,256,262419,1,0,0:0:0:0:
249,157,262595,5,8,0:0:0:0:
249,157,262772,1,0,0:0:0:0:
249,157,262948,1,8,0:0:0:0:
249,157,263125,1,0,0:0:0:0:
249,157,263301,1,8,0:0:0:0:
249,157,263478,1,0,0:0:0:0:
249,157,263654,1,8,0:0:0:0:
260,171,263831,5,0,0:0:0:0:
