osu file format v14

[General]
AudioFilename: audio.mp3
AudioLeadIn: 0
PreviewTime: 48510
Countdown: 0
SampleSet: Soft
StackLeniency: 0.5
Mode: 0
LetterboxInBreaks: 0
WidescreenStoryboard: 1

[Editor]
DistanceSpacing: 1
BeatDivisor: 4
GridSize: 8
TimelineZoom: 1.9

[Metadata]
Title:Koe? (TV Size)
TitleUnicode:声? (TV Size)
Artist:Hatena
ArtistUnicode:はてな
Creator:Smoke
Version:Normal?
Source:Dr.STONE
Tags:anime japanese rock jrock j-rock dr dr. doctor stone season 2 stone wars 2nd 第2期 voice? ed ending end theme ドクターストーン Senku Ishigami Chrome Kohaku Gen Asagiri pop jpop j-pop
BeatmapID:2911748
BeatmapSetID:1412535

[Difficulty]
HPDrainRate:4
CircleSize:3.4
OverallDifficulty:4.4
ApproachRate:5.4
SliderMultiplier:0.999999999999999
SliderTickRate:1

[Events]
//Background and Video events
Video,-141,"ending.mp4"
0,0,"dr stone ed.jpg",0,0
//Break Periods
//Storyboard Layer 0 (Background)
//Storyboard Layer 1 (Fail)
//Storyboard Layer 2 (Pass)
//Storyboard Layer 3 (Foreground)
//Storyboard Layer 4 (Overlay)
//Storyboard Sound Samples

[TimingPoints]
11143,352.941176470588,4,2,1,70,1,0
11143,-111.111111111111,4,2,1,70,0,0
12554,-111.111111111111,4,2,1,70,0,0
23848,-100,4,2,1,65,0,0
35142,-100,4,2,1,75,0,0
35319,-100,4,2,1,5,0,0
35407,-100,4,2,1,75,0,0
35584,-100,4,2,1,5,0,0
35672,-100,4,2,1,75,0,0
36731,-100,4,2,1,5,0,0
36819,-100,4,2,1,75,0,0
36995,-100,4,2,1,5,0,0
37083,-100,4,2,1,75,0,0
37966,-100,4,2,1,80,0,0
38672,-100,4,2,1,80,0,0
38937,-100,4,2,1,5,0,0
39025,-100,4,2,1,80,0,0
39290,-100,4,2,1,5,0,0
39378,-111.111111111111,4,2,1,80,0,0
40084,-111.111111111111,4,2,1,70,0,0
40790,-100,4,2,1,75,0,0
43172,-100,4,2,1,5,0,0
43260,-100,4,2,1,75,0,0
46437,-100,4,2,1,75,0,0
47848,-100,4,2,1,75,0,0
48554,-100,4,2,1,70,0,0
48819,-100,4,2,1,5,0,0
48907,-100,4,2,1,70,0,0
49084,-90.9090909090909,4,2,1,80,0,1
49966,-90.9090909090909,4,2,1,80,0,1
50231,-90.9090909090909,4,2,1,5,0,1
50319,-90.9090909090909,4,2,1,80,0,1
50495,-90.9090909090909,4,2,1,80,0,1
51378,-90.9090909090909,4,2,1,80,0,1
51643,-90.9090909090909,4,2,1,5,0,1
51731,-90.9090909090909,4,2,1,80,0,1
51907,-90.9090909090909,4,2,1,80,0,1
52172,-90.9090909090909,4,2,1,5,0,1
52260,-90.9090909090909,4,2,1,80,0,1
52525,-90.9090909090909,4,2,1,5,0,1
52613,-90.9090909090909,4,2,1,80,0,1
52966,-90.9090909090909,4,2,1,5,0,1
53054,-90.9090909090909,4,2,1,80,0,1
53231,-90.9090909090909,4,2,1,5,0,1
53319,-90.9090909090909,4,2,1,80,0,1
53407,-90.9090909090909,4,2,1,5,0,1
53495,-90.9090909090909,4,2,1,80,0,1
53672,-90.9090909090909,4,2,1,5,0,1
53760,-90.9090909090909,4,2,1,80,0,1
53937,-90.9090909090909,4,2,1,5,0,1
54025,-90.9090909090909,4,2,1,80,0,1
54113,-90.9090909090909,4,2,1,5,0,1
54201,-90.9090909090909,4,2,1,80,0,1
54378,-90.9090909090909,4,2,1,5,0,1
54466,-90.9090909090909,4,2,1,80,0,1
54642,-90.9090909090909,4,2,1,5,0,1
54730,-90.9090909090909,4,2,1,80,0,1
54819,-90.9090909090909,4,2,1,5,0,1
54907,-90.9090909090909,4,2,1,80,0,1
61260,-90.9090909090909,4,2,1,80,0,1
61525,-90.9090909090909,4,2,1,5,0,1
61613,-90.9090909090909,4,2,1,80,0,1
61789,-90.9090909090909,4,2,1,80,0,1
62672,-90.9090909090909,4,2,1,80,0,1
62937,-90.9090909090909,4,2,1,5,0,1
63025,-90.9090909090909,4,2,1,80,0,1
63201,-90.9090909090909,4,2,1,80,0,1
63466,-90.9090909090909,4,2,1,5,0,1
63554,-90.9090909090909,4,2,1,80,0,1
63819,-90.9090909090909,4,2,1,5,0,1
63907,-90.9090909090909,4,2,1,80,0,1
64260,-90.9090909090909,4,2,1,5,0,1
64348,-90.9090909090909,4,2,1,80,0,1
64525,-90.9090909090909,4,2,1,5,0,1
64613,-90.9090909090909,4,2,1,80,0,1
64701,-90.9090909090909,4,2,1,5,0,1
64789,-90.9090909090909,4,2,1,80,0,1
64966,-90.9090909090909,4,2,1,5,0,1
65054,-90.9090909090909,4,2,1,80,0,1
65231,-90.9090909090909,4,2,1,5,0,1
65319,-90.9090909090909,4,2,1,80,0,1
65407,-90.9090909090909,4,2,1,5,0,1
65495,-90.9090909090909,4,2,1,80,0,1
65672,-90.9090909090909,4,2,1,5,0,1
65760,-90.9090909090909,4,2,1,80,0,1
65937,-90.9090909090909,4,2,1,5,0,1
66025,-90.9090909090909,4,2,1,80,0,1
66113,-90.9090909090909,4,2,1,5,0,1
66201,-90.9090909090909,4,2,1,80,0,1
66466,-90.9090909090909,4,2,1,5,0,1
66554,-90.9090909090909,4,2,1,80,0,1
69113,-90.9090909090909,4,2,1,5,0,1
69201,-90.9090909090909,4,2,1,80,0,1
71672,-90.9090909090909,4,2,1,85,0,1
74760,-90.9090909090909,4,2,1,5,0,1
74848,-90.9090909090909,4,2,1,85,0,1
75466,-90.9090909090909,4,2,1,5,0,1
75554,-90.9090909090909,4,2,1,85,0,1
77760,-90.9090909090909,4,2,1,5,0,1
77848,-90.9090909090909,4,2,1,85,0,1
80584,-90.9090909090909,4,2,1,5,0,1
80672,-90.9090909090909,4,2,1,85,0,1
81819,-90.9090909090909,4,2,1,5,0,1
81907,-90.9090909090909,4,2,1,85,0,1
83054,-90.9090909090909,4,2,1,5,0,1
83142,-100,4,2,1,75,0,0
83760,-100,4,2,1,5,0,0
83848,-100,4,2,1,75,0,0
84378,-100,4,2,1,75,0,0
86319,-133.333333333333,4,2,1,65,0,0
86672,-133.333333333333,4,2,1,55,0,0
87025,-133.333333333333,4,2,1,45,0,0
87378,-133.333333333333,4,2,1,35,0,0
87731,-133.333333333333,4,2,1,20,0,0
88084,-133.333333333333,4,2,1,5,0,0

[Colours]
Combo1 : 64,133,208
Combo2 : 186,101,16
Combo3 : 31,173,241
Combo4 : 220,168,46

[HitObjects]
469,276,11143,6,0,B|401:239|322:289|375:310|285:368|214:312,1,269.999991760254,4|10,0:0|0:0,0:0:0:0:
161,253,12554,6,0,P|156:205|182:153,1,89.999997253418,4|2,3:1|3:2,0:0:0:0:
196,129,13084,1,10,0:0:0:0:
153,49,13437,1,2,3:2:0:0:
69,82,13790,2,0,L|52:179,1,89.999997253418,2|2,0:0|3:2,0:0:0:0:
9,249,14495,2,0,L|26:346,1,89.999997253418,10|2,0:0|3:2,0:0:0:0:
107,373,15201,6,0,P|150:376|194:340,1,89.999997253418,10|2,0:0|0:0,0:0:0:0:
237,275,15907,1,10,0:0:0:0:
324,253,16260,1,2,3:2:0:0:
402,297,16613,2,0,P|446:295|481:255,1,89.999997253418,2|2,0:0|0:0,0:0:0:0:
499,226,17143,1,0,3:2:0:0:
499,226,17319,1,8,0:0:0:0:
449,150,17672,2,0,L|460:95,1,44.999998626709,8|10,3:3|0:0,0:0:0:0:
467,61,18025,5,10,0:0:0:0:
350,4,18554,1,2,3:2:0:0:
350,4,18731,2,0,L|247:23,1,89.999997253418,10|2,0:0|3:2,0:0:0:0:
190,75,19437,2,0,P|149:55|94:65,1,89.999997253418,2|2,0:0|3:2,0:0:0:0:
26,101,20142,1,10,0:0:0:0:
60,184,20495,1,2,3:2:0:0:
18,264,20848,5,2,0:0:0:0:
86,322,21201,1,2,0:0:0:0:
158,268,21554,2,0,B|201:255|201:255|250:283,1,89.999997253418,10|2,0:0|3:2,0:0:0:0:
324,323,22260,1,2,0:0:0:0:
324,323,22437,2,0,L|334:381,2,44.999998626709,14|0|0,3:2|3:2|3:2,0:0:0:0:
353,288,22966,2,0,L|368:185,1,89.999997253418,14|0,0:0|3:2,0:0:0:0:
340,161,23495,1,10,0:0:0:0:
245,194,23848,6,0,P|199:173|141:183,1,99.9999999999999,4|0,3:1|3:2,0:0:0:0:
108,204,24378,1,10,0:0:0:0:
48,123,24731,2,0,L|-7:116,2,50,2|10|0,3:2|0:0|3:2,0:0:0:0:
76,81,25260,6,0,L|183:66,1,99.9999999999999,2|0,3:2|3:2,0:0:0:0:
224,59,25790,1,10,0:0:0:0:
322,45,26142,2,0,P|325:20|350:-8,2,50,2|10|2,3:2|0:0|3:2,0:0:0:0:
358,79,26672,6,0,P|383:125|366:186,1,99.9999999999999,2|0,3:2|3:2,0:0:0:0:
354,215,27201,1,10,0:0:0:0:
425,284,27554,2,0,L|436:339,1,50,2|8,3:2|0:0,0:0:0:0:
395,364,27907,6,0,B|360:388|320:359|340:352|297:322|251:343,1,150,2|0,0:0|3:2,0:0:0:0:
216,368,28613,1,8,0:0:0:0:
216,368,28790,1,2,3:2:0:0:
141,309,29142,1,10,0:0:0:0:
141,309,29319,6,0,P|169:258|153:212,1,99.9999999999999,10|2,0:0|0:0,0:0:0:0:
122,185,29848,2,0,L|69:195,2,50,2|10|2,3:2|0:0|3:2,0:0:0:0:
139,137,30378,1,2,3:2:0:0:
236,157,30731,6,0,L|349:179,1,99.9999999999999,2|2,0:0|0:0,0:0:0:0:
387,189,31260,1,2,3:2:0:0:
387,189,31437,1,10,0:0:0:0:
464,126,31790,1,2,3:2:0:0:
435,35,32142,1,2,0:0:0:0:
435,35,32319,6,0,P|378:2|331:17,1,99.9999999999999,2|0,3:2|3:2,0:0:0:0:
301,27,32848,2,0,L|202:7,1,99.9999999999999,10|0,0:0|3:2,0:0:0:0:
159,32,33378,1,10,0:0:0:0:
65,15,33731,5,4,3:2:0:0:
65,15,33907,2,0,P|51:39|50:72,1,50,8|0,0:0|3:2,0:0:0:0:
73,104,34260,2,0,B|96:149|96:149|74:206,1,99.9999999999999,12|0,0:0|3:2,0:0:0:0:
63,243,34790,1,10,3:2:0:0:
112,329,35142,6,0,L|27:344,2,74.9999999999999,6|0|2,3:2|3:2|3:2,0:0:0:0:
159,345,35848,1,8,0:0:0:0:
253,378,36201,1,0,3:2:0:0:
335,321,36554,6,0,L|413:337,2,74.9999999999999,6|0|2,3:2|3:2|3:2,0:0:0:0:
301,283,37260,2,0,P|293:259|301:227,1,50,8|2,0:0|3:2,0:0:0:0:
335,203,37613,1,14,0:0:0:0:
390,120,37966,6,0,B|347:94|347:94|288:110,1,99.9999999999999,4|8,3:1|3:2,0:0:0:0:
228,177,38672,1,10,3:2:0:0:
129,161,39025,1,8,3:2:0:0:
30,146,39378,1,4,3:2:0:0:
30,146,40084,1,10,0:0:0:0:
0,61,40437,1,10,0:0:0:0:
83,6,40790,6,0,P|121:34|184:26,1,99.9999999999999,4|2,3:1|3:2,0:0:0:0:
248,97,41495,2,0,P|286:69|349:77,1,99.9999999999999,2|2,3:2|3:2,0:0:0:0:
422,19,42201,1,2,3:2:0:0:
495,86,42554,1,2,3:2:0:0:
449,175,42907,1,2,3:2:0:0:
504,264,43260,1,2,3:2:0:0:
504,264,43437,6,0,B|444:271|466:294|401:305,1,99.9999999999999,14|0,0:0|0:0,0:0:0:0:
370,276,43966,1,0,3:2:0:0:
286,328,44319,1,0,3:2:0:0:
286,328,44495,2,0,P|258:317|218:320,1,50,2|2,0:0|3:2,0:0:0:0:
191,344,44848,2,0,P|144:366|91:347,1,99.9999999999999,14|8,0:0|0:0,0:0:0:0:
62,320,45378,1,8,3:2:0:0:
119,238,45731,2,0,L|109:187,1,50,10|8,3:2|0:0,0:0:0:0:
69,158,46084,2,0,L|79:107,1,50,10|8,3:2|0:0,0:0:0:0:
90,60,46437,5,4,3:1:0:0:
178,12,46790,1,6,0:0:0:0:
247,83,47142,1,10,0:0:0:0:
195,168,47495,1,6,3:2:0:0:
262,248,47848,1,10,0:0:0:0:
262,248,48025,2,0,L|325:236,2,50,8|8|8,3:3|3:3|3:3,0:0:0:0:
441,375,49084,6,0,B|421:324|421:324|444:266,1,110.000003356934,4|0,3:1|3:2,0:0:0:0:
463,222,49613,1,10,0:0:0:0:
492,116,49966,2,0,L|370:136,1,110.000003356934,2|10,3:2|0:0,0:0:0:0:
338,101,50495,1,4,3:2:0:0:
250,43,50848,1,0,0:0:0:0:
250,43,51025,1,8,0:0:0:0:
148,85,51378,2,0,P|98:60|34:78,1,110.000003356934,2|10,3:2|0:0,0:0:0:0:
5,106,51907,5,6,3:2:0:0:
41,209,52260,1,2,0:0:0:0:
86,314,52613,1,2,0:0:0:0:
86,314,52790,2,0,P|127:319|173:289,1,82.5000025177002,6|2,3:2|0:0,0:0:0:0:
221,241,53319,1,2,0:0:0:0:
221,241,53495,2,0,L|321:258,1,82.5000025177002,6|2,3:2|0:0,0:0:0:0:
374,305,54025,1,2,0:0:0:0:
374,305,54201,2,0,L|474:288,1,82.5000025177002,6|2,3:2|0:0,0:0:0:0:
498,220,54731,1,2,0:0:0:0:
498,220,54907,6,0,L|476:103,1,110.000003356934,6|8,3:2|0:0,0:0:0:0:
466,57,55437,2,0,P|397:55|365:94,1,110.000003356934,2|0,0:0|0:0,0:0:0:0:
338,125,55966,1,10,0:0:0:0:
239,76,56319,2,0,B|216:124|216:124|240:192,1,110.000003356934,6|8,3:2|0:0,0:0:0:0:
255,228,56848,1,2,0:0:0:0:
178,306,57201,1,2,0:0:0:0:
178,306,57378,1,8,0:0:0:0:
178,306,57554,6,0,B|120:298|130:330|67:323,1,110.000003356934,14|0,0:0|3:2,0:0:0:0:
26,290,58084,1,8,0:0:0:0:
89,200,58437,2,0,P|91:173|76:135,1,55.0000016784668,8|0,0:0|3:2,0:0:0:0:
57,103,58790,1,0,3:2:0:0:
57,103,58966,6,0,P|83:53|152:48,1,110.000003356934,12|0,0:0|3:2,0:0:0:0:
177,72,59495,1,8,0:0:0:0:
273,18,59848,2,0,L|336:31,1,55.0000016784668,10|8,3:2|0:0,0:0:0:0:
384,44,60201,1,10,3:2:0:0:
384,44,60378,6,0,B|414:92|414:92|389:156,1,110.000003356934,4|0,3:1|3:2,0:0:0:0:
375,193,60907,1,10,0:0:0:0:
462,259,61260,2,0,P|492:302|471:370,1,110.000003356934,2|10,3:2|0:0,0:0:0:0:
433,381,61790,1,4,3:2:0:0:
342,329,62142,1,0,0:0:0:0:
342,329,62319,1,8,0:0:0:0:
237,362,62672,2,0,L|218:246,1,110.000003356934,2|10,3:2|0:0,0:0:0:0:
247,206,63201,5,6,3:2:0:0:
311,116,63554,1,2,0:0:0:0:
262,23,63907,1,2,0:0:0:0:
262,23,64084,2,0,P|220:18|182:43,1,82.5000025177002,6|2,3:2|0:0,0:0:0:0:
109,26,64613,1,2,0:0:0:0:
109,26,64790,2,0,B|85:61|85:61|93:115,1,82.5000025177002,6|2,3:2|0:0,0:0:0:0:
155,161,65319,1,2,0:0:0:0:
155,161,65496,2,0,B|160:200|160:200|136:235,1,82.5000025177002,6|2,3:2|0:0,0:0:0:0:
73,288,66025,1,2,0:0:0:0:
73,288,66201,6,0,P|125:280|169:323,1,110.000003356934,6|8,3:2|0:0,0:0:0:0:
200,358,66731,2,0,L|316:337,1,110.000003356934,2|0,0:0|0:0,0:0:0:0:
362,327,67260,1,10,0:0:0:0:
312,228,67613,2,0,L|331:114,1,110.000003356934,6|8,3:2|0:0,0:0:0:0:
299,73,68142,1,2,0:0:0:0:
389,8,68495,1,2,0:0:0:0:
389,8,68672,1,8,0:0:0:0:
389,8,68848,6,0,B|450:21|429:46|494:56,1,110.000003356934,14|8,0:0|0:0,0:0:0:0:
508,106,69378,2,0,P|483:119|469:155,1,55.0000016784668,8|8,3:2|0:0,0:0:0:0:
444,190,69731,1,8,3:2:0:0:
491,294,70084,1,8,3:2:0:0:
491,294,70260,2,0,P|435:292|379:335,1,110.000003356934,8|8,0:0|0:0,0:0:0:0:
345,352,70790,1,8,3:2:0:0:
256,287,71142,2,0,L|192:277,1,55.0000016784668,8|8,3:2|0:0,0:0:0:0:
150,268,71495,1,8,3:2:0:0:
150,268,71672,6,0,P|142:217|87:176,1,110.000003356934,14|0,3:2|3:2,0:0:0:0:
48,159,72201,2,0,L|62:90,1,55.0000016784668,10|2,0:0|3:2,0:0:0:0:
30,58,72554,1,10,0:0:0:0:
127,4,72907,1,8,0:0:0:0:
127,4,73084,2,0,B|175:34|175:34|231:21,1,110.000003356934,14|0,3:2|3:2,0:0:0:0:
280,11,73613,2,0,L|347:27,1,55.0000016784668,10|2,0:0|3:2,0:0:0:0:
387,36,73966,1,10,0:0:0:0:
336,135,74319,1,8,0:0:0:0:
336,135,74495,6,0,L|208:156,1,110.000003356934,14|2,3:2|3:2,0:0:0:0:
177,171,75025,1,10,0:0:0:0:
177,171,75201,1,2,3:2:0:0:
118,264,75554,2,0,P|148:265|183:287,1,55.0000016784668,2|10,3:2|0:0,0:0:0:0:
198,322,75907,2,0,B|244:295|244:295|305:308,1,110.000003356934,14|0,3:2|3:2,0:0:0:0:
337,346,76437,1,8,0:0:0:0:
431,290,76790,2,0,P|473:288|516:314,2,82.5000025177002,10|2|14,0:0|0:0|3:2,0:0:0:0:
402,242,77495,6,0,L|422:117,1,110.000003356934,2|12,0:0|0:0,0:0:0:0:
462,97,78025,1,0,3:2:0:0:
462,97,78201,1,12,0:0:0:0:
388,14,78554,1,12,0:0:0:0:
298,77,78907,2,0,P|270:79|234:67,1,55.0000016784668,12|0,0:0|3:2,0:0:0:0:
198,40,79260,1,12,0:0:0:0:
142,134,79613,2,0,L|154:205,1,55.0000016784668,12|0,0:0|3:2,0:0:0:0:
201,211,79966,2,0,L|189:282,1,55.0000016784668,0|12,3:2|0:0,0:0:0:0:
150,301,80319,6,0,B|105:272|105:272|46:289,1,110.000003356934,2|8,0:0|0:0,0:0:0:0:
9,250,80848,2,0,L|33:132,1,110.000003356934,2|0,3:2|3:2,0:0:0:0:
4,99,81378,1,2,3:2:0:0:
4,99,81554,2,0,P|35:61|99:67,1,110.000003356934,12|2,0:0|3:2,0:0:0:0:
138,92,82084,1,8,0:0:0:0:
227,27,82437,1,10,0:0:0:0:
325,76,82790,2,0,L|303:190,1,110.000003356934,14|0,0:0|3:2,0:0:0:0:
338,221,83319,6,0,P|405:205|465:256,1,150,8|0,0:0|3:2,0:0:0:0:
488,307,84025,1,8,0:0:0:0:
488,307,84201,1,8,0:0:0:0:
488,307,84378,1,14,3:2:0:0:
256,192,84554,12,0,88083,0:0:0:0:
