osu file format v14

[General]
AudioFilename: audio.mp3
AudioLeadIn: 0
PreviewTime: 48510
Countdown: 0
SampleSet: Soft
StackLeniency: 0.4
Mode: 0
LetterboxInBreaks: 0
WidescreenStoryboard: 1

[Editor]
DistanceSpacing: 1.3
BeatDivisor: 4
GridSize: 8
TimelineZoom: 1.9

[Metadata]
Title:Koe? (TV Size)
TitleUnicode:声? (TV Size)
Artist:Hatena
ArtistUnicode:はてな
Creator:Smoke
Version:Insane?
Source:Dr.STONE
Tags:anime japanese rock jrock j-rock dr dr. doctor stone season 2 stone wars 2nd 第2期 voice? ed ending end theme ドクターストーン Senku Ishigami Chrome Kohaku Gen Asagiri pop jpop j-pop
BeatmapID:2911747
BeatmapSetID:1412535

[Difficulty]
HPDrainRate:5.2
CircleSize:4.2
OverallDifficulty:8
ApproachRate:8.8
SliderMultiplier:1.6
SliderTickRate:1

[Events]
//Background and Video events
Video,-141,"ending.mp4"
0,0,"dr stone ed.jpg",0,0
//Break Periods
//Storyboard Layer 0 (Background)
//Storyboard Layer 1 (Fail)
//Storyboard Layer 2 (Pass)
//Storyboard Layer 3 (Foreground)
//Storyboard Layer 4 (Overlay)
//Storyboard Sound Samples

[TimingPoints]
11143,352.941176470588,4,2,1,70,1,0
11143,-166.666666666667,4,2,1,70,0,0
12554,-117.647058823529,4,2,1,70,0,0
22437,-105.263157894737,4,2,1,70,0,0
23848,-117.647058823529,4,2,1,65,0,0
35142,-105.263157894737,4,2,1,75,0,0
35319,-105.263157894737,4,2,1,5,0,0
35407,-105.263157894737,4,2,1,75,0,0
35584,-105.263157894737,4,2,1,5,0,0
35672,-105.263157894737,4,2,1,75,0,0
36731,-105.263157894737,4,2,1,5,0,0
36819,-105.263157894737,4,2,1,75,0,0
36995,-105.263157894737,4,2,1,5,0,0
37083,-105.263157894737,4,2,1,75,0,0
37966,-95.2380952380954,4,2,1,80,0,0
38672,-86.9565217391304,4,2,1,80,0,0
38937,-86.9565217391304,4,2,1,5,0,0
39025,-105.263157894737,4,2,1,80,0,0
39290,-86.9565217391304,4,2,1,5,0,0
39378,-133.333333333334,4,2,1,80,0,0
40084,-117.647058823529,4,2,1,70,0,0
40790,-105.263157894737,4,2,1,75,0,0
42113,-105.263157894737,4,2,1,5,0,0
42201,-105.263157894737,4,2,1,75,0,0
43172,-105.263157894737,4,2,1,5,0,0
43260,-105.263157894737,4,2,1,75,0,0
46437,-117.647058823529,4,2,1,75,0,0
47848,-105.263157894737,4,2,1,75,0,0
48554,-117.64705882353,4,2,1,70,0,0
48819,-117.64705882353,4,2,1,5,0,0
48907,-117.64705882353,4,2,1,70,0,0
49084,-95.2380952380952,4,2,1,80,0,1
49966,-95.2380952380952,4,2,1,80,0,1
50231,-95.2380952380952,4,2,1,5,0,1
50319,-95.2380952380952,4,2,1,80,0,1
50495,-95.2380952380952,4,2,1,80,0,1
51378,-95.2380952380952,4,2,1,80,0,1
51643,-95.2380952380952,4,2,1,5,0,1
51731,-95.2380952380952,4,2,1,80,0,1
51907,-95.2380952380952,4,2,1,80,0,1
52172,-95.2380952380952,4,2,1,5,0,1
52260,-95.2380952380952,4,2,1,80,0,1
52525,-95.2380952380952,4,2,1,5,0,1
52613,-95.2380952380952,4,2,1,80,0,1
52966,-95.2380952380952,4,2,1,5,0,1
53054,-95.2380952380952,4,2,1,80,0,1
53231,-95.2380952380952,4,2,1,5,0,1
53319,-95.2380952380952,4,2,1,80,0,1
53407,-95.2380952380952,4,2,1,5,0,1
53495,-95.2380952380952,4,2,1,80,0,1
53672,-95.2380952380952,4,2,1,5,0,1
53760,-95.2380952380952,4,2,1,80,0,1
53937,-95.2380952380952,4,2,1,5,0,1
54025,-95.2380952380952,4,2,1,80,0,1
54113,-95.2380952380952,4,2,1,5,0,1
54201,-95.2380952380952,4,2,1,80,0,1
54378,-95.2380952380952,4,2,1,5,0,1
54466,-95.2380952380952,4,2,1,80,0,1
54642,-95.2380952380952,4,2,1,5,0,1
54730,-95.2380952380952,4,2,1,80,0,1
54819,-95.2380952380952,4,2,1,5,0,1
54907,-95.2380952380952,4,2,1,80,0,1
61260,-95.2380952380952,4,2,1,80,0,1
61525,-95.2380952380952,4,2,1,5,0,1
61613,-95.2380952380952,4,2,1,80,0,1
61789,-95.2380952380952,4,2,1,80,0,1
62672,-95.2380952380952,4,2,1,80,0,1
62937,-95.2380952380952,4,2,1,5,0,1
63025,-95.2380952380952,4,2,1,80,0,1
63201,-95.2380952380952,4,2,1,80,0,1
63466,-95.2380952380952,4,2,1,5,0,1
63554,-95.2380952380952,4,2,1,80,0,1
63819,-95.2380952380952,4,2,1,5,0,1
63907,-95.2380952380952,4,2,1,80,0,1
64260,-95.2380952380952,4,2,1,5,0,1
64348,-95.2380952380952,4,2,1,80,0,1
64525,-95.2380952380952,4,2,1,5,0,1
64613,-95.2380952380952,4,2,1,80,0,1
64701,-95.2380952380952,4,2,1,5,0,1
64789,-95.2380952380952,4,2,1,80,0,1
64966,-95.2380952380952,4,2,1,5,0,1
65054,-95.2380952380952,4,2,1,80,0,1
65231,-95.2380952380952,4,2,1,5,0,1
65319,-95.2380952380952,4,2,1,80,0,1
65407,-95.2380952380952,4,2,1,5,0,1
65495,-95.2380952380952,4,2,1,80,0,1
65672,-95.2380952380952,4,2,1,5,0,1
65760,-95.2380952380952,4,2,1,80,0,1
65937,-95.2380952380952,4,2,1,5,0,1
66025,-95.2380952380952,4,2,1,80,0,1
66113,-95.2380952380952,4,2,1,5,0,1
66201,-95.2380952380952,4,2,1,80,0,1
66466,-95.2380952380952,4,2,1,5,0,1
66554,-95.2380952380952,4,2,1,80,0,1
69113,-95.2380952380952,4,2,1,5,0,1
69201,-95.2380952380952,4,2,1,80,0,1
71672,-90.9090909090909,4,2,1,85,0,1
74760,-90.9090909090909,4,2,1,5,0,1
74848,-90.9090909090909,4,2,1,85,0,1
75466,-90.9090909090909,4,2,1,5,0,1
75554,-90.9090909090909,4,2,1,85,0,1
77760,-90.9090909090909,4,2,1,5,0,1
77848,-90.9090909090909,4,2,1,85,0,1
80584,-90.9090909090909,4,2,1,5,0,1
80672,-90.9090909090909,4,2,1,85,0,1
81819,-90.9090909090909,4,2,1,5,0,1
81907,-90.9090909090909,4,2,1,85,0,1
82701,-90.9090909090909,4,2,1,85,0,1
82789,-90.9090909090909,4,2,1,85,0,1
83054,-90.9090909090909,4,2,1,5,0,1
83142,-100,4,2,1,75,0,0
83760,-100,4,2,1,5,0,0
83848,-100,4,2,1,75,0,0
84378,-100,4,2,1,75,0,0
86319,-100,4,2,1,65,0,0
86672,-100,4,2,1,55,0,0
87025,-100,4,2,1,45,0,0
87378,-100,4,2,1,35,0,0
87731,-100,4,2,1,20,0,0
88084,-100,4,2,1,5,0,0

[Colours]
Combo1 : 64,133,208
Combo2 : 186,101,16
Combo3 : 31,173,241
Combo4 : 220,168,46

[HitObjects]
501,230,11143,6,0,B|441:192|377:254|423:253|368:323|310:311|310:311|336:298|342:256,1,287.999991210938,4|10,0:0|0:0,0:0:0:0:
69,88,12554,6,0,P|83:158|96:233,1,136.000002593994,4|2,3:1|3:2,0:0:0:0:
42,345,13084,2,0,P|70:322|128:325,1,68.0000012969971,10|0,0:0|0:0,0:0:0:0:
237,297,13437,2,0,P|203:290|178:268,1,68.0000012969971,2|8,3:2|0:0,0:0:0:0:
123,145,13790,1,2,0:0:0:0:
208,121,13966,1,0,3:2:0:0:
294,100,14143,2,0,P|327:106|434:132,1,136.000002593994,2|10,3:2|0:0,0:0:0:0:
505,264,14848,2,0,P|482:285|468:329,1,68.0000012969971,2|0,3:2|0:0,0:0:0:0:
436,349,15113,1,8,0:0:0:0:
436,349,15201,6,0,P|401:355|364:365,1,68.0000012969971,10|0,0:0|3:2,0:0:0:0:
282,257,15554,2,0,P|314:265|348:271,1,68.0000012969971,2|0,0:0|3:2,0:0:0:0:
230,377,15907,2,0,P|212:355|212:302,1,68.0000012969971,10|0,0:0|0:0,0:0:0:0:
286,166,16260,1,2,3:2:0:0:
189,207,16437,2,0,L|113:192,1,68.0000012969971,8|2,0:0|0:0,0:0:0:0:
5,92,16790,1,0,3:2:0:0:
90,69,16966,1,2,0:0:0:0:
175,45,17142,1,0,3:2:0:0:
306,119,17319,2,0,B|349:123|376:92|354:82|384:55|433:66,1,136.000002593994,8|8,0:0|3:3,0:0:0:0:
493,113,17848,1,10,0:0:0:0:
424,259,18025,5,10,0:0:0:0:
424,259,18113,1,8,0:0:0:0:
424,259,18201,2,0,P|433:290|446:342,1,68.0000012969971,0|0,3:2|0:0,0:0:0:0:
512,379,18554,1,2,3:2:0:0:
349,315,18731,2,0,P|313:315|276:345,1,68.0000012969971,10|0,0:0|0:0,0:0:0:0:
197,221,19084,2,0,P|230:220|259:237,1,68.0000012969971,2|8,3:2|0:0,0:0:0:0:
141,361,19437,1,2,0:0:0:0:
115,276,19613,1,0,3:2:0:0:
86,192,19790,2,0,P|51:193|15:217,1,68.0000012969971,2|0,3:2|0:0,0:0:0:0:
174,126,20142,2,0,P|167:90|156:50,1,68.0000012969971,10|0,0:0|0:0,0:0:0:0:
128,34,20407,1,8,0:0:0:0:
128,34,20495,2,0,P|92:53|81:88,1,68.0000012969971,2|10,3:2|0:0,0:0:0:0:
263,145,20848,6,0,P|298:150|338:159,1,68.0000012969971,2|0,0:0|3:2,0:0:0:0:
176,253,21201,2,0,P|142:257|109:264,1,68.0000012969971,2|0,0:0|3:2,0:0:0:0:
277,375,21554,2,0,P|279:339|307:309,1,68.0000012969971,10|0,0:0|0:0,0:0:0:0:
383,264,21907,1,2,3:2:0:0:
263,145,22084,2,0,P|282:172|283:205,1,68.0000012969971,8|2,0:0|0:0,0:0:0:0:
108,264,22437,5,14,3:2:0:0:
137,161,22613,1,0,3:2:0:0:
165,58,22790,1,0,3:2:0:0:
0,0,22966,2,0,P|16:82|30:163,1,151.999995941162,14|0,0:0|3:2,0:0:0:0:
145,290,23495,1,10,0:0:0:0:
96,358,23672,1,0,3:2:0:0:
96,358,23760,1,0,3:2:0:0:
96,358,23848,6,0,P|143:325|233:353,1,136.000002593994,4|0,3:1|3:2,0:0:0:0:
373,219,24378,2,0,P|337:223|310:243,1,68.0000012969971,10|8,0:0|3:3,0:0:0:0:
285,281,24642,1,8,0:0:0:0:
285,281,24731,1,2,3:2:0:0:
184,191,24907,2,0,L|205:98,1,68.0000012969971,10|0,0:0|3:2,0:0:0:0:
124,27,25260,6,0,L|271:7,1,136.000002593994,2|0,3:2|3:2,0:0:0:0:
416,94,25790,2,0,B|330:79,1,68.0000012969971,10|0,0:0|3:2,0:0:0:0:
482,45,26142,1,2,3:2:0:0:
407,184,26319,1,10,0:0:0:0:
407,184,26495,1,2,3:2:0:0:
481,272,26672,2,0,B|440:268|407:299|435:303|402:337|366:331,1,136.000002593994,2|0,3:2|3:2,0:0:0:0:
192,236,27201,2,0,P|217:234|269:270,1,68.0000012969971,10|8,0:0|3:3,0:0:0:0:
291,290,27466,1,8,0:0:0:0:
291,290,27554,1,2,3:2:0:0:
131,367,27731,2,0,P|123:328|111:286,1,68.0000012969971,8|2,0:0|0:0,0:0:0:0:
0,180,28084,6,0,P|66:167|101:104,1,136.000002593994,0|0,3:2|3:2,0:0:0:0:
16,92,28613,1,8,0:0:0:0:
162,6,28790,2,0,P|170:44|182:88,1,68.0000012969971,2|0,3:2|3:2,0:0:0:0:
205,116,29054,1,0,3:2:0:0:
205,116,29142,2,0,P|199:137|195:156,1,34.0000006484985,10|8,0:0|0:0,0:0:0:0:
259,214,29319,5,10,0:0:0:0:
259,214,29407,1,8,0:0:0:0:
259,214,29495,2,0,P|265:250|270:286,1,68.0000012969971,0|2,3:2|0:0,0:0:0:0:
338,326,29848,1,2,3:2:0:0:
512,222,30025,2,0,P|478:218|436:210,1,68.0000012969971,10|2,0:0|3:2,0:0:0:0:
365,246,30378,1,2,3:2:0:0:
228,124,30554,2,0,P|262:120|304:112,1,68.0000012969971,8|2,0:0|0:0,0:0:0:0:
180,0,30907,6,0,P|160:29|156:74,1,68.0000012969971,0|2,3:2|0:0,0:0:0:0:
102,137,31260,1,2,3:2:0:0:
234,233,31437,2,0,P|267:226|301:222,1,68.0000012969971,10|0,0:0|3:2,0:0:0:0:
367,278,31790,1,2,3:2:0:0:
202,365,31967,2,0,P|168:358|134:354,1,68.0000012969971,8|2,0:0|0:0,0:0:0:0:
0,243,32319,6,0,B|52:237|102:231|102:231|81:241|71:260,1,136.000002593994,2|0,3:2|3:2,0:0:0:0:
241,136,32848,2,0,P|202:133|167:97,1,68.0000012969971,10|0,0:0|3:2,0:0:0:0:
147,86,33113,1,0,3:2:0:0:
147,86,33201,1,0,3:2:0:0:
304,0,33378,2,0,P|312:38|320:80,1,68.0000012969971,10|0,0:0|0:0,0:0:0:0:
338,150,33731,1,4,3:2:0:0:
475,57,33907,1,8,0:0:0:0:
433,140,34084,1,0,3:2:0:0:
512,258,34260,6,0,B|468:255|441:288|468:289|436:326|377:321,1,136.000002593994,12|0,0:0|3:2,0:0:0:0:
362,297,34701,1,0,3:2:0:0:
362,297,34790,2,0,P|343:292|325:291,3,34.0000006484985,10|8|8|8,3:2|0:0|0:0|0:0,0:0:0:0:
269,355,35142,5,6,3:2:0:0:
133,334,35407,1,0,3:2:0:0:
1,315,35672,1,2,3:2:0:0:
1,315,35848,1,8,0:0:0:0:
338,104,36554,5,6,3:2:0:0:
202,125,36819,1,0,3:2:0:0:
70,144,37084,1,2,3:2:0:0:
70,144,37260,2,0,P|63:186|89:229,1,75.9999979705811,8|2,0:0|3:2,0:0:0:0:
113,250,37525,1,0,3:2:0:0:
113,250,37613,2,0,P|122:291|128:332,1,75.9999979705811,14|2,0:0|3:2,0:0:0:0:
326,181,37966,6,0,P|282:178|246:205,1,83.9999974365235,4|0,3:1|0:0,0:0:0:0:
215,275,38231,1,0,3:2:0:0:
215,275,38319,2,0,P|256:282|297:291,1,83.9999974365235,8|0,3:2|3:2,0:0:0:0:
451,367,38672,6,0,B|416:349|419:313|419:313|456:291|454:235,1,138.000002632141,10|0,3:2|0:0,0:0:0:0:
415,151,39025,6,0,P|467:162|495:117,1,113.999996955872,8|0,3:2|0:0,0:0:0:0:
425,54,39378,5,4,3:2:0:0:
425,54,40084,2,0,P|399:58|366:66,2,45.3333341979981,10|0|0,0:0|3:2|3:2,0:0:0:0:
312,114,40437,1,10,0:0:0:0:
267,104,40554,1,8,3:3:0:0:
222,94,40672,1,8,3:3:0:0:
172,83,40790,6,0,P|135:83|92:107,1,75.9999979705811,4|0,3:1|0:0,0:0:0:0:
0,181,41142,2,0,P|37:181|80:205,1,75.9999979705811,2|0,3:2|0:0,0:0:0:0:
208,256,41495,2,0,P|171:256|128:280,1,75.9999979705811,2|0,3:2|0:0,0:0:0:0:
37,384,41848,2,0,P|30:331|13:253,1,113.999996955872,2|0,3:2|0:0,0:0:0:0:
0,181,42201,6,0,P|37:190|82:197,1,75.9999979705811,2|0,3:2|0:0,0:0:0:0:
157,67,42554,2,0,P|119:73|82:82,1,75.9999979705811,2|0,3:2|0:0,0:0:0:0:
214,166,42907,2,0,L|288:181,1,75.9999979705811,2|0,3:2|0:0,0:0:0:0:
356,131,43260,1,2,3:2:0:0:
512,256,43437,6,0,B|466:242|430:266|457:278|417:310|354:290,1,151.999995941162,14|0,0:0|0:0,0:0:0:0:
230,377,43966,2,0,P|283:327|251:245,1,151.999995941162,0|0,3:2|3:2,0:0:0:0:
180,290,44495,1,2,0:0:0:0:
277,162,44672,1,2,3:2:0:0:
177,38,44848,6,0,B|115:45|66:56|66:56|92:57|114:79,1,151.999995941162,14|8,0:0|0:0,0:0:0:0:
64,142,45290,1,8,0:0:0:0:
64,142,45378,2,0,P|57:166|50:194,3,37.9999989852906,8|8|8|8,3:2|0:0|0:0|0:0,0:0:0:0:
135,260,45731,1,10,3:2:0:0:
135,260,45819,1,8,0:0:0:0:
135,260,45907,2,0,P|128:236|121:208,1,37.9999989852906,8|8,0:0|0:0,0:0:0:0:
0,322,46084,1,10,3:2:0:0:
0,322,46172,1,8,0:0:0:0:
0,322,46260,2,0,P|4:303|10:285,1,37.9999989852906,8|8,0:0|0:0,0:0:0:0:
167,367,46437,6,0,P|200:367|238:341,1,68.0000012969971,4|0,3:1|3:2,0:0:0:0:
331,266,46790,2,0,P|338:302|350:349,1,68.0000012969971,6|0,0:0|3:2,0:0:0:0:
194,211,47142,2,0,P|187:244|179:277,1,68.0000012969971,10|0,0:0|0:0,0:0:0:0:
383,147,47495,2,0,P|389:180|397:213,1,68.0000012969971,6|0,3:2|3:2,0:0:0:0:
158,67,47848,5,10,0:0:0:0:
248,25,48025,1,8,3:3:0:0:
251,39,48201,1,8,3:3:0:0:
255,54,48378,1,8,3:3:0:0:
99,177,48554,2,0,P|63:160|75:105,1,102.000001945496,2|0,0:0|0:0,0:0:0:0:
72,106,48907,1,2,0:0:0:0:
251,220,49084,6,0,B|294:235|341:202|314:192|347:171|407:185,1,167.999994873047,4|0,3:1|3:2,0:0:0:0:
512,26,49613,1,10,0:0:0:0:
418,77,49790,1,0,3:2:0:0:
418,77,49878,1,0,3:2:0:0:
418,77,49966,2,0,P|367:46|283:62,1,125.999996154785,2|0,3:2|0:0,0:0:0:0:
302,50,50319,1,10,0:0:0:0:
154,186,50495,6,0,B|111:201|66:174|98:159|50:135|-2:151,1,167.999994873047,4|0,3:2|0:0,0:0:0:0:
132,337,51025,1,8,0:0:0:0:
233,307,51201,1,0,3:2:0:0:
233,307,51290,1,0,3:2:0:0:
233,307,51378,2,0,P|272:304|333:363,1,125.999996154785,2|0,3:2|0:0,0:0:0:0:
332,359,51731,1,10,0:0:0:0:
491,206,51907,6,0,P|445:212|408:296,1,125.999996154785,6|0,3:2|0:0,0:0:0:0:
502,384,52260,2,0,B|496:338|488:292|488:292|480:324|460:342,1,125.999996154785,2|0,0:0|0:0,0:0:0:0:
405,275,52613,1,2,0:0:0:0:
241,370,52790,6,0,P|233:331|218:272,1,83.9999974365235,6|0,3:2|0:0,0:0:0:0:
151,237,53054,2,0,P|159:198|174:139,1,83.9999974365235,2|0,0:0|0:0,0:0:0:0:
112,90,53319,1,2,0:0:0:0:
256,176,53495,6,0,P|300:178|347:141,1,83.9999974365235,6|0,3:2|0:0,0:0:0:0:
234,83,53760,2,0,P|270:63|311:65,1,83.9999974365235,2|0,0:0|0:0,0:0:0:0:
397,94,54025,1,2,0:0:0:0:
507,202,54201,6,0,B|516:244|516:244|483:294,1,83.9999974365235,6|0,3:2|0:0,0:0:0:0:
421,187,54466,2,0,B|398:221|398:221|407:263,1,83.9999974365235,2|0,0:0|0:0,0:0:0:0:
441,344,54731,1,2,0:0:0:0:
255,242,54907,6,0,B|212:227|167:254|197:266|151:293|99:277,1,167.999994873047,6|8,3:2|0:0,0:0:0:0:
0,166,55437,2,0,B|63:177|121:189|121:189|97:173|91:145,1,167.999994873047,2|0,0:0|0:0,0:0:0:0:
247,84,55966,2,0,P|198:92|171:122,1,83.9999974365235,10|0,0:0|0:0,0:0:0:0:
337,235,56319,6,0,P|424:218|503:205,1,167.999994873047,6|8,3:2|0:0,0:0:0:0:
378,45,56848,1,2,0:0:0:0:
378,45,57201,1,2,0:0:0:0:
239,122,57377,1,8,0:0:0:0:
100,38,57554,6,0,B|59:59|64:109|64:109|107:130|100:189,1,167.999994873047,14|0,0:0|3:2,0:0:0:0:
39,360,58084,5,8,0:0:0:0:
97,288,58260,1,0,3:2:0:0:
278,384,58437,5,8,0:0:0:0:
228,306,58613,1,0,3:2:0:0:
270,223,58790,1,0,3:2:0:0:
446,330,58966,6,0,B|486:278|486:278|452:160,1,167.999994873047,12|0,0:0|3:2,0:0:0:0:
484,4,59495,2,0,P|475:52|468:100,1,83.9999974365235,8|0,0:0|3:2,0:0:0:0:
340,152,59848,1,10,3:2:0:0:
340,152,59937,1,8,0:0:0:0:
340,152,60025,2,0,P|333:128|324:101,1,41.9999987182618,8|8,0:0|0:0,0:0:0:0:
246,69,60201,2,0,P|239:88|233:109,1,41.9999987182618,10|8,3:2|0:0,0:0:0:0:
96,157,60378,6,0,P|31:139|80:72,1,167.999994873047,4|0,3:1|3:2,0:0:0:0:
200,221,60907,1,10,0:0:0:0:
124,301,61084,1,0,3:2:0:0:
124,301,61172,1,0,3:2:0:0:
124,301,61260,2,0,P|190:302|244:366,1,125.999996154785,2|0,3:2|0:0,0:0:0:0:
233,339,61613,1,10,0:0:0:0:
396,228,61790,6,0,P|334:200|329:282,1,167.999994873047,4|0,3:2|0:0,0:0:0:0:
475,181,62319,1,8,0:0:0:0:
416,101,62495,1,0,3:2:0:0:
416,101,62584,1,0,3:2:0:0:
416,101,62672,2,0,B|423:50|427:7|427:7|414:21|395:26,1,125.999996154785,2|0,3:2|0:0,0:0:0:0:
401,24,63025,1,10,0:0:0:0:
233,107,63201,6,0,B|197:114|163:89|191:82|160:56|108:64,1,125.999996154785,6|0,3:2|0:0,0:0:0:0:
22,21,63554,2,0,P|37:89|50:152,1,125.999996154785,2|0,0:0|0:0,0:0:0:0:
110,202,63907,1,2,0:0:0:0:
7,315,64084,6,0,P|42:299|94:305,1,83.9999974365235,6|0,3:2|0:0,0:0:0:0:
164,341,64348,2,0,P|199:357|251:351,1,83.9999974365235,2|0,0:0|0:0,0:0:0:0:
311,303,64613,1,2,0:0:0:0:
512,358,64790,6,0,P|500:317|487:263,1,83.9999974365235,6|0,3:2|0:0,0:0:0:0:
421,384,65054,2,0,P|410:343|399:302,1,83.9999974365235,2|0,0:0|0:0,0:0:0:0:
423,220,65319,1,2,0:0:0:0:
512,75,65495,6,0,P|477:91|425:85,1,83.9999974365235,6|0,3:2|0:0,0:0:0:0:
355,49,65760,2,0,P|320:33|268:39,1,83.9999974365235,2|0,0:0|0:0,0:0:0:0:
208,86,66024,1,2,0:0:0:0:
41,8,66201,6,0,P|32:54|21:98,1,83.9999974365235,6|0,3:2|0:0,0:0:0:0:
121,213,66554,1,8,0:0:0:0:
62,291,66731,2,0,P|121:246|218:277,1,167.999994873047,2|0,0:0|0:0,0:0:0:0:
321,369,67260,2,0,P|281:371|237:335,1,83.9999974365235,10|0,0:0|0:0,0:0:0:0:
362,208,67613,6,0,B|411:196|451:232|422:235|460:272|519:258,1,167.999994873047,6|8,3:2|0:0,0:0:0:0:
376,97,68142,2,0,P|335:105|286:116,1,83.9999974365235,2|0,0:0|3:2,0:0:0:0:
126,0,68495,1,2,0:0:0:0:
189,80,68672,1,8,0:0:0:0:
61,191,68848,6,0,P|47:261|39:315,1,125.999996154785,14|0,0:0|0:0,0:0:0:0:
99,376,69201,1,8,0:0:0:0:
99,376,69290,1,8,0:0:0:0:
99,376,69378,2,0,P|121:379|149:365,3,41.9999987182618,8|8|8|8,3:2|0:0|0:0|0:0,0:0:0:0:
193,318,69731,2,0,P|215:315|243:329,3,41.9999987182618,8|8|8|8,3:2|0:0|0:0|0:0,0:0:0:0:
297,363,70084,2,0,P|319:366|347:352,3,41.9999987182618,8|8|8|8,3:2|0:0|0:0|0:0,0:0:0:0:
403,321,70437,5,8,3:2:0:0:
424,285,70525,1,8,0:0:0:0:
423,243,70613,1,8,0:0:0:0:
402,208,70701,1,8,0:0:0:0:
365,189,70790,2,0,P|325:197|273:210,1,83.9999974365235,8|8,3:2|0:0,0:0:0:0:
214,174,71054,1,8,0:0:0:0:
214,174,71142,2,0,P|209:194|207:215,1,41.9999987182618,8|8,3:2|0:0,0:0:0:0:
121,256,71319,2,0,P|118:235|114:214,1,41.9999987182618,8|8,0:0|0:0,0:0:0:0:
50,119,71495,2,0,P|47:139|43:160,1,41.9999987182618,8|8,3:2|0:0,0:0:0:0:
196,35,71672,6,0,B|246:27|292:59|256:73|301:107|355:91,1,176.000005371094,14|0,3:2|3:2,0:0:0:0:
501,0,72201,1,10,0:0:0:0:
446,73,72378,1,2,3:2:0:0:
512,224,72554,2,0,P|472:206|416:209,1,88.000002685547,10|0,0:0|3:2,0:0:0:0:
362,256,72907,1,8,0:0:0:0:
211,366,73084,6,0,B|160:380|115:346|151:332|105:300|55:308,1,176.000005371094,14|0,3:2|3:2,0:0:0:0:
167,199,73613,1,10,0:0:0:0:
112,122,73790,1,2,3:2:0:0:
208,0,73966,2,0,B|275:10|332:23|332:23|300:27|283:45,1,176.000005371094,10|8,0:0|0:0,0:0:0:0:
464,170,74495,6,0,P|391:167|348:212,1,132.00000402832,14|0,3:2|0:0,0:0:0:0:
315,279,74848,1,2,3:2:0:0:
376,377,75025,1,10,0:0:0:0:
198,284,75201,2,0,B|158:272|125:295|149:306|114:332|57:315,1,132.00000402832,2|0,3:2|0:0,0:0:0:0:
20,259,75554,1,2,3:2:0:0:
111,173,75731,1,10,0:0:0:0:
0,13,75907,6,0,B|9:50|60:62|60:62|106:17|166:45,1,176.000005371094,14|0,3:2|3:2,0:0:0:0:
212,97,76437,1,8,0:0:0:0:
386,33,76613,1,2,3:2:0:0:
287,0,76790,2,0,P|297:46|307:103,1,88.000002685547,10|0,0:0|3:2,0:0:0:0:
366,142,77054,1,2,0:0:0:0:
366,142,77142,2,0,P|356:188|346:245,1,88.000002685547,8|14,0:0|3:2,0:0:0:0:
504,313,77495,6,0,P|437:306|397:350,1,132.00000402832,2|0,0:0|0:0,0:0:0:0:
323,383,77848,2,0,B|284:361|284:361|236:375,1,88.000002685547,12|0,0:0|3:2,0:0:0:0:
179,332,78113,1,0,3:2:0:0:
179,332,78201,2,0,P|174:287|205:237,1,88.000002685547,12|0,0:0|3:2,0:0:0:0:
255,185,78554,1,12,0:0:0:0:
167,50,78731,6,0,B|104:66|40:81|40:81|65:69|78:39,1,176.000005371094,0|0,3:2|3:2,0:0:0:0:
0,0,79260,1,12,0:0:0:0:
115,160,79437,1,0,3:2:0:0:
115,160,79525,1,0,3:2:0:0:
115,160,79613,1,12,0:0:0:0:
58,238,79790,1,0,3:2:0:0:
117,313,79966,1,0,3:2:0:0:
263,254,80142,1,12,0:0:0:0:
429,347,80319,6,0,B|469:341|477:302|477:302|437:247|376:270,1,176.000005371094,2|8,0:0|0:0,0:0:0:0:
291,125,80848,1,2,3:2:0:0:
401,75,81025,2,0,P|389:126|382:171,1,88.000002685547,8|0,0:0|3:2,0:0:0:0:
203,54,81378,1,2,3:2:0:0:
111,114,81554,6,0,B|73:104|39:125|58:137|26:157|-13:157|-13:157|2:139|0:110,1,176.000005371094,12|2,0:0|3:2,0:0:0:0:
147,275,82084,2,0,P|196:264|246:254,1,88.000002685547,8|0,0:0|3:2,0:0:0:0:
376,368,82437,2,0,P|322:334|337:269,1,132.00000402832,10|0,0:0|0:0,0:0:0:0:
389,218,82790,2,0,B|391:183|357:165|357:165|353:124|384:92,1,132.00000402832,14|0,0:0|0:0,0:0:0:0:
411,33,83142,6,0,P|431:44|444:69,1,40,0|0,3:2|3:2,0:0:0:0:
272,129,83319,2,0,B|195:155|139:114|177:95|113:47|24:100,1,240,8|0,0:0|3:2,0:0:0:0:
50,87,84025,5,8,0:0:0:0:
147,233,84201,1,8,0:0:0:0:
40,373,84378,1,14,3:2:0:0:
256,192,84554,12,0,88083,0:0:0:0:
