osu file format v14

[General]
AudioFilename: audio.mp3
AudioLeadIn: 0
PreviewTime: 48510
Countdown: 0
SampleSet: Soft
StackLeniency: 0.3
Mode: 0
LetterboxInBreaks: 0
WidescreenStoryboard: 1

[Editor]
DistanceSpacing: 1.5
BeatDivisor: 4
GridSize: 8
TimelineZoom: 1.9

[Metadata]
Title:Koe? (TV Size)
TitleUnicode:声? (TV Size)
Artist:Hatena
ArtistUnicode:はてな
Creator:Smoke
Version:Hard?
Source:Dr.STONE
Tags:anime japanese rock jrock j-rock dr dr. doctor stone season 2 stone wars 2nd 第2期 voice? ed ending end theme ドクターストーン Senku Ishigami Chrome Kohaku Gen Asagiri pop jpop j-pop
BeatmapID:2911746
BeatmapSetID:1412535

[Difficulty]
HPDrainRate:4.7
CircleSize:3.8
OverallDifficulty:6.5
ApproachRate:7.5
SliderMultiplier:1.3
SliderTickRate:1

[Events]
//Background and Video events
Video,-141,"ending.mp4"
0,0,"dr stone ed.jpg",0,0
//Break Periods
//Storyboard Layer 0 (Background)
//Storyboard Layer 1 (Fail)
//Storyboard Layer 2 (Pass)
//Storyboard Layer 3 (Foreground)
//Storyboard Layer 4 (Overlay)
//Storyboard Sound Samples

[TimingPoints]
11143,352.941176470588,4,2,1,70,1,0
11143,-166.666666666667,4,2,1,70,0,0
12554,-117.647058823529,4,2,1,70,0,0
22437,-105.263157894737,4,2,1,70,0,0
23848,-117.647058823529,4,2,1,65,0,0
35142,-105.263157894737,4,2,1,75,0,0
35319,-105.263157894737,4,2,1,5,0,0
35407,-105.263157894737,4,2,1,75,0,0
35584,-105.263157894737,4,2,1,5,0,0
35672,-105.263157894737,4,2,1,75,0,0
36731,-105.263157894737,4,2,1,5,0,0
36819,-105.263157894737,4,2,1,75,0,0
36995,-105.263157894737,4,2,1,5,0,0
37083,-105.263157894737,4,2,1,75,0,0
37966,-95.2380952380954,4,2,1,80,0,0
38672,-86.9565217391304,4,2,1,80,0,0
38937,-86.9565217391304,4,2,1,5,0,0
39025,-105.263157894737,4,2,1,80,0,0
39290,-86.9565217391304,4,2,1,5,0,0
39378,-133.333333333334,4,2,1,80,0,0
40084,-117.647058823529,4,2,1,70,0,0
40790,-105.263157894737,4,2,1,75,0,0
42113,-105.263157894737,4,2,1,5,0,0
42201,-105.263157894737,4,2,1,75,0,0
43172,-105.263157894737,4,2,1,5,0,0
43260,-105.263157894737,4,2,1,75,0,0
46437,-117.647058823529,4,2,1,75,0,0
47848,-105.263157894737,4,2,1,75,0,0
48554,-117.64705882353,4,2,1,70,0,0
48819,-117.64705882353,4,2,1,5,0,0
48907,-117.64705882353,4,2,1,70,0,0
49084,-95.2380952380952,4,2,1,80,0,1
49966,-95.2380952380952,4,2,1,80,0,1
50231,-95.2380952380952,4,2,1,5,0,1
50319,-95.2380952380952,4,2,1,80,0,1
50495,-95.2380952380952,4,2,1,80,0,1
51378,-95.2380952380952,4,2,1,80,0,1
51643,-95.2380952380952,4,2,1,5,0,1
51731,-95.2380952380952,4,2,1,80,0,1
51907,-95.2380952380952,4,2,1,80,0,1
52172,-95.2380952380952,4,2,1,5,0,1
52260,-95.2380952380952,4,2,1,80,0,1
52525,-95.2380952380952,4,2,1,5,0,1
52613,-95.2380952380952,4,2,1,80,0,1
52966,-95.2380952380952,4,2,1,5,0,1
53054,-95.2380952380952,4,2,1,80,0,1
53231,-95.2380952380952,4,2,1,5,0,1
53319,-95.2380952380952,4,2,1,80,0,1
53407,-95.2380952380952,4,2,1,5,0,1
53495,-95.2380952380952,4,2,1,80,0,1
53672,-95.2380952380952,4,2,1,5,0,1
53760,-95.2380952380952,4,2,1,80,0,1
53937,-95.2380952380952,4,2,1,5,0,1
54025,-95.2380952380952,4,2,1,80,0,1
54113,-95.2380952380952,4,2,1,5,0,1
54201,-95.2380952380952,4,2,1,80,0,1
54378,-95.2380952380952,4,2,1,5,0,1
54466,-95.2380952380952,4,2,1,80,0,1
54642,-95.2380952380952,4,2,1,5,0,1
54730,-95.2380952380952,4,2,1,80,0,1
54819,-95.2380952380952,4,2,1,5,0,1
54907,-95.2380952380952,4,2,1,80,0,1
61260,-95.2380952380952,4,2,1,80,0,1
61525,-95.2380952380952,4,2,1,5,0,1
61613,-95.2380952380952,4,2,1,80,0,1
61789,-95.2380952380952,4,2,1,80,0,1
62672,-95.2380952380952,4,2,1,80,0,1
62937,-95.2380952380952,4,2,1,5,0,1
63025,-95.2380952380952,4,2,1,80,0,1
63201,-95.2380952380952,4,2,1,80,0,1
63466,-95.2380952380952,4,2,1,5,0,1
63554,-95.2380952380952,4,2,1,80,0,1
63819,-95.2380952380952,4,2,1,5,0,1
63907,-95.2380952380952,4,2,1,80,0,1
64260,-95.2380952380952,4,2,1,5,0,1
64348,-95.2380952380952,4,2,1,80,0,1
64525,-95.2380952380952,4,2,1,5,0,1
64613,-95.2380952380952,4,2,1,80,0,1
64701,-95.2380952380952,4,2,1,5,0,1
64789,-95.2380952380952,4,2,1,80,0,1
64966,-95.2380952380952,4,2,1,5,0,1
65054,-95.2380952380952,4,2,1,80,0,1
65231,-95.2380952380952,4,2,1,5,0,1
65319,-95.2380952380952,4,2,1,80,0,1
65407,-95.2380952380952,4,2,1,5,0,1
65495,-95.2380952380952,4,2,1,80,0,1
65672,-95.2380952380952,4,2,1,5,0,1
65760,-95.2380952380952,4,2,1,80,0,1
65937,-95.2380952380952,4,2,1,5,0,1
66025,-95.2380952380952,4,2,1,80,0,1
66113,-95.2380952380952,4,2,1,5,0,1
66201,-95.2380952380952,4,2,1,80,0,1
66466,-95.2380952380952,4,2,1,5,0,1
66554,-95.2380952380952,4,2,1,80,0,1
69113,-95.2380952380952,4,2,1,5,0,1
69201,-95.2380952380952,4,2,1,80,0,1
71672,-90.9090909090909,4,2,1,85,0,1
74760,-90.9090909090909,4,2,1,5,0,1
74848,-90.9090909090909,4,2,1,85,0,1
75466,-90.9090909090909,4,2,1,5,0,1
75554,-90.9090909090909,4,2,1,85,0,1
77760,-90.9090909090909,4,2,1,5,0,1
77848,-90.9090909090909,4,2,1,85,0,1
80584,-90.9090909090909,4,2,1,5,0,1
80672,-90.9090909090909,4,2,1,85,0,1
81819,-90.9090909090909,4,2,1,5,0,1
81907,-90.9090909090909,4,2,1,85,0,1
82701,-90.9090909090909,4,2,1,5,0,1
82789,-90.9090909090909,4,2,1,85,0,1
83054,-90.9090909090909,4,2,1,5,0,1
83142,-100,4,2,1,75,0,0
83760,-100,4,2,1,5,0,0
83848,-100,4,2,1,75,0,0
84378,-100,4,2,1,75,0,0
86319,-100,4,2,1,65,0,0
86672,-100,4,2,1,55,0,0
87025,-100,4,2,1,45,0,0
87378,-100,4,2,1,35,0,0
87731,-100,4,2,1,20,0,0
88084,-100,4,2,1,5,0,0

[Colours]
Combo1 : 64,133,208
Combo2 : 186,101,16
Combo3 : 31,173,241
Combo4 : 220,168,46

[HitObjects]
46,213,11143,6,0,B|115:219|155:291|104:289|143:360|215:352,1,233.999992858887,4|10,0:0|0:0,0:0:0:0:
209,353,12554,6,0,P|245:310|314:307,1,110.50000210762,4|2,3:1|3:2,0:0:0:0:
366,347,13084,2,0,B|422:361|422:361|481:322,1,110.50000210762,10|2,0:0|3:2,0:0:0:0:
503,259,13613,1,8,0:0:0:0:
503,259,13790,2,0,P|503:232|481:198,1,55.2500010538101,2|0,0:0|3:2,0:0:0:0:
426,154,14143,2,0,P|426:127|448:92,1,55.2500010538101,2|0,3:2|0:0,0:0:0:0:
488,36,14495,1,10,0:0:0:0:
340,111,14848,2,0,L|269:99,1,55.2500010538101,2|0,3:2|0:0,0:0:0:0:
261,73,15113,1,8,0:0:0:0:
261,73,15201,6,0,L|192:85,1,55.2500010538101,10|0,0:0|3:2,0:0:0:0:
139,33,15554,2,0,P|125:61|128:104,1,55.2500010538101,2|0,0:0|3:2,0:0:0:0:
57,134,15907,2,0,P|71:162|68:205,1,55.2500010538101,10|0,0:0|0:0,0:0:0:0:
135,240,16260,2,0,P|121:268|124:311,1,55.2500010538101,2|8,3:2|0:0,0:0:0:0:
189,336,16613,2,0,B|252:323|229:304|298:292,1,110.50000210762,2|2,0:0|0:0,0:0:0:0:
328,219,17142,1,0,3:2:0:0:
328,219,17319,1,8,0:0:0:0:
230,84,17672,2,0,P|255:68|305:65,1,55.2500010538101,8|10,3:3|0:0,0:0:0:0:
338,4,18025,6,0,P|385:33|457:23,1,110.50000210762,10|0,0:0|0:0,0:0:0:0:
499,88,18554,1,2,3:2:0:0:
499,88,18731,2,0,L|486:161,1,55.2500010538101,10|0,0:0|0:0,0:0:0:0:
420,188,19084,2,0,L|433:261,1,55.2500010538101,2|8,3:2|0:0,0:0:0:0:
478,309,19437,2,0,P|451:323|405:322,1,55.2500010538101,2|0,0:0|3:2,0:0:0:0:
354,367,19790,2,0,P|328:350|306:310,1,55.2500010538101,2|0,3:2|0:0,0:0:0:0:
241,290,20142,2,0,P|242:259|266:220,1,55.2500010538101,10|0,0:0|0:0,0:0:0:0:
283,209,20407,1,8,0:0:0:0:
283,209,20495,2,0,P|281:178|257:139,1,55.2500010538101,2|10,3:2|0:0,0:0:0:0:
307,81,20848,6,0,L|179:66,1,110.50000210762,2|2,0:0|0:0,0:0:0:0:
130,17,21378,1,0,3:2:0:0:
130,17,21554,2,0,P|100:31|80:64,1,55.2500010538101,10|0,0:0|0:0,0:0:0:0:
14,89,21907,2,0,L|24:147,1,55.2500010538101,2|8,3:2|0:0,0:0:0:0:
89,193,22260,1,2,0:0:0:0:
37,270,22437,2,0,P|24:294|23:339,2,61.7499983510972,14|0|0,3:2|3:2|3:2,0:0:0:0:
89,193,22966,2,0,B|161:198|139:233|208:238,1,123.499996702194,14|0,0:0|3:2,0:0:0:0:
267,302,23495,1,10,0:0:0:0:
359,273,23672,1,0,3:2:0:0:
359,273,23760,1,0,3:2:0:0:
359,273,23848,6,0,P|417:275|461:235,1,110.50000210762,4|0,3:1|3:2,0:0:0:0:
498,171,24378,2,0,L|482:104,1,55.2500010538101,10|8,0:0|3:3,0:0:0:0:
477,81,24642,1,8,0:0:0:0:
477,81,24731,2,0,P|446:71|409:80,1,55.2500010538101,2|10,3:2|0:0,0:0:0:0:
349,109,25084,1,0,3:2:0:0:
282,60,25260,6,0,B|241:69|241:69|223:92|223:92|182:103,1,110.50000210762,2|0,3:2|3:2,0:0:0:0:
114,57,25790,2,0,P|51:78|28:139,1,110.50000210762,10|2,0:0|3:2,0:0:0:0:
74,190,26319,1,10,0:0:0:0:
74,190,26495,1,2,3:2:0:0:
23,256,26672,6,0,L|46:382,1,110.50000210762,2|0,3:2|3:2,0:0:0:0:
122,293,27201,2,0,P|153:292|186:309,1,55.2500010538101,10|8,0:0|3:3,0:0:0:0:
215,324,27466,1,8,0:0:0:0:
215,324,27554,2,0,P|246:325|279:308,1,55.2500010538101,2|8,3:2|0:0,0:0:0:0:
319,251,27907,6,0,L|281:71,1,165.75000316143,2|0,0:0|3:2,0:0:0:0:
309,9,28613,1,8,0:0:0:0:
380,50,28790,2,0,P|407:47|444:69,1,55.2500010538101,2|0,3:2|3:2,0:0:0:0:
468,87,29054,1,0,3:2:0:0:
468,87,29142,2,0,L|477:120,3,27.6250005269051,10|8|10|8,0:0|0:0|0:0|0:0,0:0:0:0:
488,153,29495,6,0,L|472:286,1,110.50000210762,0|2,3:2|3:2,0:0:0:0:
395,290,30025,1,10,0:0:0:0:
439,365,30201,1,2,3:2:0:0:
439,365,30378,2,0,L|380:376,1,55.2500010538101,2|8,3:2|0:0,0:0:0:0:
316,322,30731,2,0,L|257:311,1,55.2500010538101,2|0,0:0|3:2,0:0:0:0:
187,349,31084,2,0,P|158:338|144:312,1,55.2500010538101,2|2,0:0|3:2,0:0:0:0:
115,240,31437,1,10,0:0:0:0:
247,139,31790,1,2,3:2:0:0:
247,139,31966,2,0,L|233:66,1,55.2500010538101,8|2,0:0|0:0,0:0:0:0:
268,7,32319,6,0,P|225:37|157:25,1,110.50000210762,2|0,3:2|3:2,0:0:0:0:
91,3,32848,2,0,B|64:36|64:36|83:119,1,110.50000210762,10|0,0:0|3:2,0:0:0:0:
143,156,33378,2,0,L|128:268,1,110.50000210762,10|4,0:0|3:2,0:0:0:0:
194,315,33907,2,0,P|224:315|261:290,1,55.2500010538101,8|0,0:0|3:2,0:0:0:0:
311,355,34260,2,0,B|374:369|358:328|419:339,1,110.50000210762,12|0,0:0|3:2,0:0:0:0:
451,314,34701,1,0,3:2:0:0:
451,314,34790,2,0,L|458:270,3,27.6250005269051,10|8|8|8,3:2|0:0|0:0|0:0,0:0:0:0:
486,252,35142,5,6,3:2:0:0:
401,141,35407,1,0,3:2:0:0:
491,35,35672,1,2,3:2:0:0:
491,35,35848,1,8,0:0:0:0:
173,225,36554,5,6,3:2:0:0:
258,114,36819,1,0,3:2:0:0:
168,8,37084,1,2,3:2:0:0:
168,8,37260,2,0,P|133:4|99:27,1,61.7499983510972,8|2,0:0|3:2,0:0:0:0:
79,51,37525,1,0,3:2:0:0:
73,61,37613,2,0,P|88:90|83:133,1,61.7499983510972,14|2,0:0|3:2,0:0:0:0:
24,206,37966,6,0,B|46:254|46:254|11:322,1,102.374996875763,4|0,3:1|3:2,0:0:0:0:
52,340,38319,2,0,P|82:354|128:339,1,68.2499979171754,8|0,3:2|3:2,0:0:0:0:
208,266,38672,2,0,P|268:264|315:315,1,112.125002138615,10|0,3:2|0:0,0:0:0:0:
334,332,39025,2,0,P|370:300|415:324,1,92.6249975266457,8|0,3:2|0:0,0:0:0:0:
435,337,39378,5,4,3:2:0:0:
496,278,40084,2,0,L|483:222,2,36.8333340358734,10|0|0,0:0|3:2|3:2,0:0:0:0:
414,215,40437,2,0,L|425:159,2,36.8333340358734,10|8|8,0:0|3:3|3:3,0:0:0:0:
485,131,40790,6,0,P|483:96|457:66,1,61.7499983510972,4|0,3:1|0:0,0:0:0:0:
391,24,41142,2,0,P|364:39|334:40,1,61.7499983510972,2|0,3:2|0:0,0:0:0:0:
249,2,41495,2,0,L|238:67,1,61.7499983510972,2|0,3:2|0:0,0:0:0:0:
308,124,41848,2,0,L|324:225,1,92.6249975266457,2|0,3:2|0:0,0:0:0:0:
330,261,42201,6,0,P|317:292|285:308,1,61.7499983510972,2|0,3:2|0:0,0:0:0:0:
221,363,42554,2,0,P|200:336|202:300,1,61.7499983510972,2|0,3:2|0:0,0:0:0:0:
117,263,42907,2,0,P|114:293|94:316,1,61.7499983510972,2|0,3:2|0:0,0:0:0:0:
5,342,43260,1,2,3:2:0:0:
19,242,43437,6,0,B|35:112,1,123.499996702194,14|0,0:0|0:0,0:0:0:0:
7,30,43966,2,0,P|57:14|136:61,1,123.499996702194,0|0,3:2|3:2,0:0:0:0:
193,105,44495,1,2,0:0:0:0:
193,105,44672,1,2,3:2:0:0:
276,52,44848,6,0,B|332:65|332:65|337:74|337:74|399:90,1,123.499996702194,14|8,0:0|0:0,0:0:0:0:
414,128,45290,1,8,0:0:0:0:
414,128,45378,2,0,L|407:167,3,30.8749991755486,8|8|8|8,3:2|0:0|0:0|0:0,0:0:0:0:
375,191,45731,2,0,L|382:230,3,30.8749991755486,10|8|8|8,3:2|0:0|0:0|0:0,0:0:0:0:
353,259,46084,2,0,L|346:298,3,30.8749991755486,10|8|8|8,3:2|0:0|0:0|0:0,0:0:0:0:
315,315,46437,6,0,P|286:318|246:294,1,55.2500010538101,4|0,3:1|3:2,0:0:0:0:
212,242,46790,2,0,P|221:216|217:188,1,55.2500010538101,6|0,0:0|3:2,0:0:0:0:
278,132,47142,1,10,0:0:0:0:
155,20,47495,2,0,P|126:22|91:46,1,55.2500010538101,6|0,3:2|3:2,0:0:0:0:
34,96,47848,5,10,0:0:0:0:
84,174,48025,2,0,L|70:239,2,61.7499983510972,8|8|8,3:3|3:3|3:3,0:0:0:0:
156,133,48554,2,0,P|196:134|241:174,1,82.8750015807152,2|0,0:0|0:0,0:0:0:0:
257,189,48907,1,2,0:0:0:0:
343,134,49084,6,0,B|388:129|418:160|389:166|420:202|480:190,1,136.499995834351,4|0,3:1|3:2,0:0:0:0:
499,285,49613,2,0,P|469:305|427:308,1,68.2499979171754,10|0,0:0|3:2,0:0:0:0:
398,341,49878,1,0,3:2:0:0:
398,341,49966,2,0,L|279:316,1,102.374996875763,2|0,3:2|0:0,0:0:0:0:
255,348,50319,1,10,0:0:0:0:
168,293,50495,6,0,B|123:288|93:319|122:325|91:361|31:349,1,136.499995834351,4|0,3:2|0:0,0:0:0:0:
2,261,51025,2,0,P|22:231|25:189,1,68.2499979171754,8|0,0:0|3:2,0:0:0:0:
18,153,51290,1,0,3:2:0:0:
18,153,51378,2,0,P|10:98|49:56,1,102.374996875763,2|0,3:2|0:0,0:0:0:0:
78,32,51731,1,10,0:0:0:0:
154,99,51907,6,0,L|227:84,1,68.2499979171754,6|0,3:2|3:2,0:0:0:0:
292,12,52260,2,0,L|365:27,1,68.2499979171754,2|8,0:0|0:0,0:0:0:0:
441,85,52613,1,2,0:0:0:0:
384,179,52790,2,0,P|341:165|316:104,2,102.374996875763,6|2|2,3:2|0:0|0:0,0:0:0:0:
484,253,53495,2,0,B|459:298|459:298|475:349,1,102.374996875763,6|2,3:2|0:0,0:0:0:0:
437,383,53848,2,0,P|417:360|365:349,1,68.2499979171754,8|2,0:0|0:0,0:0:0:0:
265,384,54201,2,0,P|291:342|278:283,1,102.374996875763,6|2,3:2|0:0,0:0:0:0:
252,250,54554,1,8,0:0:0:0:
165,305,54731,1,2,0:0:0:0:
77,357,54907,6,0,B|66:274|66:274|35:263|27:228,1,136.499995834351,6|8,3:2|0:0,0:0:0:0:
1,138,55437,2,0,L|32:2,1,136.499995834351,2|0,0:0|0:0,0:0:0:0:
114,65,55966,2,0,P|148:67|188:46,1,68.2499979171754,10|0,0:0|0:0,0:0:0:0:
272,2,56319,2,0,P|319:3|326:84,1,136.499995834351,6|8,3:2|0:0,0:0:0:0:
256,148,56848,1,2,0:0:0:0:
256,148,57201,1,2,0:0:0:0:
304,238,57378,1,8,0:0:0:0:
230,309,57554,6,0,B|185:304|155:335|184:341|153:377|93:365,1,136.499995834351,14|0,0:0|3:2,0:0:0:0:
34,303,58084,2,0,P|31:272|57:226,1,68.2499979171754,8|0,0:0|3:2,0:0:0:0:
124,173,58437,2,0,P|154:186|188:183,1,68.2499979171754,8|0,0:0|3:2,0:0:0:0:
269,118,58790,1,0,3:2:0:0:
344,206,58966,6,0,B|316:244|316:244|335:342,1,136.499995834351,12|0,0:0|3:2,0:0:0:0:
422,382,59495,2,0,P|438:365|448:307,1,68.2499979171754,8|0,0:0|3:2,0:0:0:0:
506,236,59848,2,0,L|494:189,3,34.1249989585877,10|8|8|8,3:2|0:0|0:0|0:0,0:0:0:0:
470,172,60201,1,10,3:2:0:0:
472,161,60290,1,8,0:0:0:0:
474,151,60378,6,0,B|502:108|502:108|472:7,1,136.499995834351,4|0,3:1|3:2,0:0:0:0:
395,87,60907,2,0,P|362:74|322:76,1,68.2499979171754,10|0,0:0|3:2,0:0:0:0:
294,111,61172,1,0,3:2:0:0:
294,111,61260,2,0,L|274:222,1,102.374996875763,2|0,3:2|0:0,0:0:0:0:
303,255,61613,1,10,0:0:0:0:
226,323,61789,6,0,B|181:314|149:342|177:350|143:384|84:366,1,136.499995834351,4|0,3:2|0:0,0:0:0:0:
33,297,62319,2,0,P|29:264|56:225,1,68.2499979171754,8|0,0:0|3:2,0:0:0:0:
80,197,62584,1,0,3:2:0:0:
80,197,62672,2,0,L|191:216,1,102.374996875763,2|0,3:2|0:0,0:0:0:0:
216,177,63025,1,10,0:0:0:0:
287,249,63201,6,0,L|360:233,1,68.2499979171754,6|0,3:2|3:2,0:0:0:0:
455,242,63554,2,0,L|439:169,1,68.2499979171754,2|8,0:0|0:0,0:0:0:0:
497,89,63907,1,2,0:0:0:0:
423,17,64084,2,0,P|370:16|317:45,1,102.374996875763,6|2,3:2|0:0,0:0:0:0:
296,78,64437,2,0,L|206:63,1,68.2499979171754,8|2,0:0|0:0,0:0:0:0:
111,9,64790,2,0,B|134:54|134:54|110:108,1,102.374996875763,6|2,3:2|0:0,0:0:0:0:
95,149,65142,1,8,0:0:0:0:
147,237,65319,1,2,0:0:0:0:
96,325,65495,2,0,P|49:319|10:281,2,102.374996875763,6|2|2,3:2|0:0|0:0,0:0:0:0:
213,287,66201,6,0,B|185:246|185:246|208:199|260:206,1,136.499995834351,6|8,3:2|0:0,0:0:0:0:
326,130,66731,2,0,P|334:70|278:9,1,136.499995834351,2|0,0:0|0:0,0:0:0:0:
210,79,67260,2,0,L|124:98,1,68.2499979171754,10|0,0:0|0:0,0:0:0:0:
43,37,67613,2,0,L|14:182,1,136.499995834351,6|8,3:2|0:0,0:0:0:0:
82,248,68142,2,0,L|93:333,1,68.2499979171754,2|0,0:0|3:2,0:0:0:0:
176,373,68495,1,2,0:0:0:0:
260,314,68672,1,8,0:0:0:0:
352,358,68848,6,0,B|397:363|427:332|398:326|429:290|489:302,1,136.499995834351,14|8,0:0|0:0,0:0:0:0:
499,259,69290,1,8,0:0:0:0:
499,259,69378,2,0,L|509:213,2,34.1249989585877,8|8|8,3:2|0:0|0:0,0:0:0:0:
410,210,69731,1,8,3:2:0:0:
410,210,69819,1,8,0:0:0:0:
410,210,69907,2,0,L|360:222,2,34.1249989585877,8|8|8,0:0|0:0|3:2,0:0:0:0:
473,131,70260,5,8,0:0:0:0:
473,131,70348,1,8,0:0:0:0:
473,131,70437,2,0,P|464:92|425:60,1,68.2499979171754,8|8,3:2|0:0,0:0:0:0:
399,64,70701,1,8,0:0:0:0:
399,64,70790,2,0,L|359:58,3,34.1249989585877,8|8|8|8,3:2|0:0|0:0|0:0,0:0:0:0:
318,79,71142,2,0,L|278:73,3,34.1249989585877,8|8|8|8,3:2|0:0|0:0|0:0,0:0:0:0:
238,97,71495,1,8,3:2:0:0:
275,197,71672,6,0,B|297:247|297:247|273:341,1,143.000004364014,14|0,3:2|3:2,0:0:0:0:
179,370,72201,1,10,0:0:0:0:
179,370,72378,1,2,3:2:0:0:
97,300,72554,2,0,L|114:218,1,71.5000021820069,10|0,0:0|3:2,0:0:0:0:
37,151,72907,1,8,0:0:0:0:
100,64,73084,6,0,P|139:99|229:88,1,143.000004364014,14|0,3:2|3:2,0:0:0:0:
305,19,73613,1,10,0:0:0:0:
305,19,73790,1,2,3:2:0:0:
389,83,73966,2,0,L|403:153,1,71.5000021820069,10|0,0:0|3:2,0:0:0:0:
488,218,74319,1,8,0:0:0:0:
412,293,74495,6,0,B|366:282|332:311|358:319|324:353|266:333,1,143.000004364014,14|2,3:2|3:2,0:0:0:0:
214,255,75025,1,10,0:0:0:0:
286,175,75201,2,0,P|291:122|207:74,1,143.000004364014,2|2,3:2|3:2,0:0:0:0:
130,124,75731,1,10,0:0:0:0:
49,53,75907,6,0,B|8:95|8:95|39:196,1,143.000004364014,14|0,3:2|3:2,0:0:0:0:
112,248,76437,1,8,0:0:0:0:
48,334,76613,1,2,3:2:0:0:
48,334,76790,2,0,L|156:354,2,107.25000327301,10|2|14,0:0|0:0|3:2,0:0:0:0:
112,248,77495,6,0,L|266:233,1,143.000004364014,2|12,0:0|0:0,0:0:0:0:
349,304,78025,1,0,3:2:0:0:
349,304,78113,1,0,3:2:0:0:
349,304,78201,2,0,P|380:317|442:294,1,71.5000021820069,12|0,0:0|3:2,0:0:0:0:
493,237,78554,1,12,0:0:0:0:
429,149,78731,6,0,B|451:54|451:54|421:3,1,143.000004364014,0|0,3:2|3:2,0:0:0:0:
337,73,79260,1,12,0:0:0:0:
250,27,79437,1,0,3:2:0:0:
250,27,79525,1,0,3:2:0:0:
250,27,79613,2,0,P|202:28|167:51,2,71.5000021820069,12|0|0,0:0|3:2|3:2,0:0:0:0:
337,73,80142,1,12,0:0:0:0:
271,158,80319,6,0,L|298:298,1,143.000004364014,2|8,0:0|0:0,0:0:0:0:
219,371,80848,1,2,3:2:0:0:
219,371,81025,2,0,L|147:357,1,71.5000021820069,8|0,0:0|3:2,0:0:0:0:
43,379,81378,1,2,3:2:0:0:
75,277,81554,6,0,B|50:231|50:231|75:134,1,143.000004364014,12|2,0:0|3:2,0:0:0:0:
20,48,82084,2,0,L|101:35,1,71.5000021820069,8|0,0:0|3:2,0:0:0:0:
172,105,82437,2,0,P|215:77|288:90,1,107.25000327301,10|0,0:0|0:0,0:0:0:0:
302,122,82790,2,0,B|341:137|375:103|349:95|383:66|429:77,1,143.000004364014,14|0,0:0|3:2,0:0:0:0:
471,115,83231,1,0,3:2:0:0:
471,115,83319,6,0,P|492:208|426:194,1,195,8|0,0:0|3:2,0:0:0:0:
337,128,84025,1,8,0:0:0:0:
319,223,84201,1,8,0:0:0:0:
301,319,84378,1,14,3:2:0:0:
256,192,84554,12,0,88083,0:0:0:0:
