osu file format v14

[General]
AudioFilename: audio.mp3
AudioLeadIn: 0
PreviewTime: 48510
Countdown: 0
SampleSet: Soft
StackLeniency: 0.5
Mode: 0
LetterboxInBreaks: 0
WidescreenStoryboard: 1

[Editor]
DistanceSpacing: 1
BeatDivisor: 4
GridSize: 8
TimelineZoom: 1.9

[Metadata]
Title:Koe? (TV Size)
TitleUnicode:声? (TV Size)
Artist:Hatena
ArtistUnicode:はてな
Creator:Smoke
Version:Easy?
Source:Dr.STONE
Tags:anime japanese rock jrock j-rock dr dr. doctor stone season 2 stone wars 2nd 第2期 voice? ed ending end theme ドクターストーン Senku Ishigami Chrome Kohaku Gen Asagiri pop jpop j-pop
BeatmapID:2911745
BeatmapSetID:1412535

[Difficulty]
HPDrainRate:3
CircleSize:3.2
OverallDifficulty:3
ApproachRate:4
SliderMultiplier:0.799999999999999
SliderTickRate:1

[Events]
//Background and Video events
Video,-141,"ending.mp4"
0,0,"dr stone ed.jpg",0,0
//Break Periods
//Storyboard Layer 0 (Background)
//Storyboard Layer 1 (Fail)
//Storyboard Layer 2 (Pass)
//Storyboard Layer 3 (Foreground)
//Storyboard Layer 4 (Overlay)
//Storyboard Sound Samples

[TimingPoints]
11143,352.941176470588,4,2,1,70,1,0
11143,-100,4,2,1,70,0,0
12554,-100,4,2,1,70,0,0
23848,-100,4,2,1,65,0,0
35142,-100,4,2,1,75,0,0
35319,-100,4,2,1,5,0,0
35407,-100,4,2,1,75,0,0
35584,-100,4,2,1,5,0,0
35672,-100,4,2,1,75,0,0
36731,-100,4,2,1,5,0,0
36819,-100,4,2,1,75,0,0
36995,-100,4,2,1,5,0,0
37083,-100,4,2,1,75,0,0
37966,-100,4,2,1,80,0,0
38672,-100,4,2,1,80,0,0
38937,-100,4,2,1,5,0,0
39025,-100,4,2,1,80,0,0
39290,-100,4,2,1,5,0,0
39378,-100,4,2,1,80,0,0
40084,-100,4,2,1,70,0,0
40790,-100,4,2,1,75,0,0
43172,-100,4,2,1,5,0,0
43260,-100,4,2,1,75,0,0
46437,-100,4,2,1,75,0,0
47848,-100,4,2,1,75,0,0
48554,-100,4,2,1,70,0,0
48819,-100,4,2,1,5,0,0
48907,-100,4,2,1,70,0,0
49084,-100,4,2,1,80,0,1
49966,-100,4,2,1,80,0,1
50231,-100,4,2,1,5,0,1
50319,-100,4,2,1,80,0,1
50495,-100,4,2,1,80,0,1
51378,-100,4,2,1,80,0,1
51643,-100,4,2,1,5,0,1
51731,-100,4,2,1,80,0,1
51907,-100,4,2,1,80,0,1
52172,-100,4,2,1,5,0,1
52260,-100,4,2,1,80,0,1
52525,-100,4,2,1,5,0,1
52613,-100,4,2,1,80,0,1
52966,-100,4,2,1,5,0,1
53054,-100,4,2,1,80,0,1
53231,-100,4,2,1,5,0,1
53319,-100,4,2,1,80,0,1
53407,-100,4,2,1,5,0,1
53495,-100,4,2,1,80,0,1
53672,-100,4,2,1,5,0,1
53760,-100,4,2,1,80,0,1
53937,-100,4,2,1,5,0,1
54025,-100,4,2,1,80,0,1
54113,-100,4,2,1,5,0,1
54201,-100,4,2,1,80,0,1
54378,-100,4,2,1,5,0,1
54466,-100,4,2,1,80,0,1
54642,-100,4,2,1,5,0,1
54730,-100,4,2,1,80,0,1
54819,-100,4,2,1,5,0,1
54907,-100,4,2,1,80,0,1
61260,-100,4,2,1,80,0,1
61525,-100,4,2,1,5,0,1
61613,-100,4,2,1,80,0,1
61789,-100,4,2,1,80,0,1
62672,-100,4,2,1,80,0,1
62937,-100,4,2,1,5,0,1
63025,-100,4,2,1,80,0,1
63201,-100,4,2,1,80,0,1
63466,-100,4,2,1,5,0,1
63554,-100,4,2,1,80,0,1
63819,-100,4,2,1,5,0,1
63907,-100,4,2,1,80,0,1
64260,-100,4,2,1,5,0,1
64348,-100,4,2,1,80,0,1
64525,-100,4,2,1,5,0,1
64613,-100,4,2,1,80,0,1
64701,-100,4,2,1,5,0,1
64789,-100,4,2,1,80,0,1
64966,-100,4,2,1,5,0,1
65054,-100,4,2,1,80,0,1
65231,-100,4,2,1,5,0,1
65319,-100,4,2,1,80,0,1
65407,-100,4,2,1,5,0,1
65495,-100,4,2,1,80,0,1
65672,-100,4,2,1,5,0,1
65760,-100,4,2,1,80,0,1
65937,-100,4,2,1,5,0,1
66025,-100,4,2,1,80,0,1
66113,-100,4,2,1,5,0,1
66201,-100,4,2,1,80,0,1
66466,-100,4,2,1,5,0,1
66554,-100,4,2,1,80,0,1
69113,-100,4,2,1,5,0,1
69201,-100,4,2,1,80,0,1
71672,-100,4,2,1,85,0,1
74760,-100,4,2,1,5,0,1
74848,-100,4,2,1,85,0,1
75466,-100,4,2,1,5,0,1
75554,-100,4,2,1,85,0,1
77760,-100,4,2,1,5,0,1
77848,-100,4,2,1,85,0,1
80584,-100,4,2,1,5,0,1
80672,-100,4,2,1,85,0,1
81819,-100,4,2,1,5,0,1
81907,-100,4,2,1,85,0,1
83054,-100,4,2,1,5,0,1
83142,-100,4,2,1,75,0,0
83760,-100,4,2,1,5,0,0
83848,-100,4,2,1,75,0,0
84378,-100,4,2,1,75,0,0
86319,-100,4,2,1,65,0,0
86672,-100,4,2,1,55,0,0
87025,-100,4,2,1,45,0,0
87378,-100,4,2,1,35,0,0
87731,-100,4,2,1,20,0,0
88084,-100,4,2,1,5,0,0

[Colours]
Combo1 : 64,133,208
Combo2 : 186,101,16
Combo3 : 31,173,241
Combo4 : 220,168,46

[HitObjects]
256,192,11143,5,4,0:0:0:0:
444,339,12201,1,10,0:0:0:0:
497,279,12554,6,0,L|478:155,1,120,4|10,3:1|0:0,0:0:0:0:
418,107,13437,1,2,3:2:0:0:
344,139,13790,2,0,L|252:122,2,79.9999999999999,2|2|10,0:0|3:2|0:0,0:0:0:0:
383,208,14848,1,2,3:2:0:0:
329,267,15201,6,0,P|289:286|244:278,1,79.9999999999999,10|2,0:0|0:0,0:0:0:0:
182,318,15907,2,0,P|142:299|97:307,1,79.9999999999999,10|2,0:0|3:2,0:0:0:0:
32,330,16613,2,0,L|6:165,1,160,2|8,0:0|0:0,0:0:0:0:
86,82,17848,1,10,0:0:0:0:
153,124,18201,6,0,P|209:131|271:89,1,120,0|10,3:2|0:0,0:0:0:0:
311,36,19084,1,2,3:2:0:0:
385,64,19437,2,0,P|422:45|476:50,2,79.9999999999999,2|2|10,0:0|3:2|0:0,0:0:0:0:
354,137,20495,1,2,3:2:0:0:
416,187,20848,2,0,L|401:273,1,79.9999999999999,2|2,0:0|0:0,0:0:0:0:
333,307,21554,2,0,L|247:292,1,79.9999999999999,10|2,0:0|3:2,0:0:0:0:
208,227,22260,2,0,P|232:156|191:76,1,160,2|14,0:0|0:0,0:0:0:0:
92,25,23495,1,10,0:0:0:0:
30,75,23848,6,0,L|52:209,1,120,4|10,3:1|0:0,0:0:0:0:
5,305,24907,1,10,0:0:0:0:
70,350,25260,2,0,P|125:351|175:302,1,120,2|10,3:2|0:0,0:0:0:0:
279,363,26319,1,10,0:0:0:0:
335,306,26672,5,2,3:2:0:0:
280,199,27201,2,0,L|151:222,1,120,10|8,0:0|0:0,0:0:0:0:
96,172,28084,1,0,3:2:0:0:
143,62,28613,2,0,L|267:82,1,120,8|10,0:0|0:0,0:0:0:0:
324,32,29495,6,0,L|448:7,1,120,0|10,3:2|0:0,0:0:0:0:
508,107,30554,1,8,0:0:0:0:
456,168,30907,2,0,L|485:294,1,120,0|10,3:2|0:0,0:0:0:0:
399,370,31966,1,10,0:0:0:0:
328,332,32319,6,0,B|266:326|279:368|199:362,2,120,2|10|10,3:2|0:0|0:0,0:0:0:0:
394,232,33907,1,8,0:0:0:0:
340,172,34260,2,0,P|367:122|348:59,1,120,12|10,0:0|3:2,0:0:0:0:
282,21,35142,6,0,L|209:34,2,59.9999999999999,6|0|2,3:2|3:2|3:2,0:0:0:0:
150,172,36554,2,0,L|209:182,2,59.9999999999999,6|0|2,3:2|3:2|3:2,0:0:0:0:
50,238,37613,1,14,0:0:0:0:
99,300,37966,2,0,P|136:283|185:290,1,79.9999999999999,4|8,3:1|3:2,0:0:0:0:
247,319,38672,1,10,3:2:0:0:
322,346,39025,1,8,3:2:0:0:
395,377,39378,1,4,3:2:0:0:
504,259,40084,1,10,0:0:0:0:
466,188,40437,1,10,0:0:0:0:
498,114,40790,6,0,P|469:91|426:89,1,79.9999999999999,4|2,3:1|3:2,0:0:0:0:
358,47,41495,2,0,P|329:70|286:72,1,79.9999999999999,2|2,3:2|3:2,0:0:0:0:
216,109,42201,2,0,P|187:86|144:84,1,79.9999999999999,2|2,3:2|3:2,0:0:0:0:
68,105,42907,1,2,3:2:0:0:
92,222,43437,6,0,P|91:281|59:331,2,120,14|0|2,0:0|3:2|0:0,0:0:0:0:
156,174,44848,2,0,B|223:172|207:209|273:206,1,120,14|8,0:0|3:2,0:0:0:0:
344,177,45731,1,10,3:2:0:0:
407,225,46084,1,10,3:2:0:0:
470,175,46437,6,0,P|475:136|451:87,1,79.9999999999999,4|6,3:1|0:0,0:0:0:0:
401,45,47142,2,0,P|367:64|320:64,1,79.9999999999999,10|6,0:0|3:2,0:0:0:0:
257,25,47848,1,10,0:0:0:0:
4,147,49084,6,0,L|30:273,1,120,4|10,3:1|0:0,0:0:0:0:
53,340,49966,2,0,P|96:351|143:328,1,79.9999999999999,2|10,3:2|0:0,0:0:0:0:
164,322,50495,2,0,B|218:352|218:352|287:330,1,120,4|8,3:2|0:0,0:0:0:0:
329,277,51378,2,0,L|408:289,1,79.9999999999999,2|10,3:2|0:0,0:0:0:0:
447,294,51907,5,6,3:2:0:0:
501,235,52260,1,2,0:0:0:0:
437,132,52790,2,0,P|391:129|349:153,1,79.9999999999999,6|8,3:2|0:0,0:0:0:0:
299,90,53495,2,0,P|253:93|211:69,1,79.9999999999999,6|8,3:2|0:0,0:0:0:0:
152,117,54201,1,6,3:2:0:0:
182,191,54554,1,8,0:0:0:0:
132,253,54907,6,0,L|9:233,1,120,6|2,3:2|0:0,0:0:0:0:
67,126,55966,1,10,0:0:0:0:
22,59,56319,2,0,P|47:24|130:23,1,120,6|2,3:2|0:0,0:0:0:0:
186,60,57201,1,2,0:0:0:0:
260,31,57554,6,0,B|332:29|306:69|390:69,1,120,14|8,0:0|0:0,0:0:0:0:
442,31,58437,2,0,P|470:53|482:109,1,79.9999999999999,8|0,0:0|3:2,0:0:0:0:
461,127,58966,2,0,L|431:254,1,120,12|8,0:0|0:0,0:0:0:0:
479,309,59848,1,10,3:2:0:0:
371,363,60378,6,0,L|251:339,1,120,4|10,3:1|0:0,0:0:0:0:
177,365,61260,2,0,P|152:344|145:288,1,79.9999999999999,2|10,3:2|0:0,0:0:0:0:
163,264,61790,2,0,B|188:214|188:214|168:154,1,120,4|8,3:2|0:0,0:0:0:0:
196,78,62672,2,0,P|167:49|113:48,1,79.9999999999999,2|10,3:2|0:0,0:0:0:0:
93,60,63201,5,6,3:2:0:0:
31,111,63554,1,2,0:0:0:0:
74,223,64084,2,0,L|57:316,1,79.9999999999999,6|8,3:2|0:0,0:0:0:0:
118,355,64790,1,6,3:2:0:0:
183,309,65142,1,8,0:0:0:0:
255,341,65495,2,0,P|294:339|334:311,1,79.9999999999999,6|8,3:2|0:0,0:0:0:0:
359,243,66201,6,0,L|343:159,1,79.9999999999999,6|8,3:2|0:0,0:0:0:0:
306,150,66731,2,0,B|256:182|256:182|196:166,1,120,2|10,0:0|0:0,0:0:0:0:
120,143,67613,1,6,3:2:0:0:
64,36,68142,1,2,0:0:0:0:
136,2,68495,1,2,0:0:0:0:
207,38,68848,6,0,P|244:24|311:64,1,120,14|8,0:0|3:2,0:0:0:0:
379,22,69731,2,0,L|465:34,1,79.9999999999999,8|8,3:2|3:2,0:0:0:0:
500,101,70437,1,8,3:2:0:0:
445,159,70790,1,8,3:2:0:0:
488,225,71142,2,0,P|492:267|467:316,1,79.9999999999999,8|8,3:2|3:2,0:0:0:0:
444,323,71672,6,0,B|392:294|392:294|321:320,1,120,14|10,3:2|0:0,0:0:0:0:
267,356,72554,2,0,L|176:338,1,79.9999999999999,10|8,0:0|0:0,0:0:0:0:
151,357,73084,2,0,P|177:300|156:245,1,120,14|10,3:2|0:0,0:0:0:0:
104,189,73966,2,0,L|121:105,1,79.9999999999999,10|8,0:0|0:0,0:0:0:0:
127,71,74495,5,14,3:2:0:0:
194,27,74848,1,2,3:2:0:0:
249,84,75201,1,2,3:2:0:0:
201,148,75554,1,2,3:2:0:0:
257,204,75907,2,0,P|298:179|333:189,1,79.9999999999999,14|0,3:2|3:2,0:0:0:0:
432,243,76790,1,10,0:0:0:0:
494,193,77142,1,8,0:0:0:0:
478,116,77495,6,0,L|464:34,1,79.9999999999999,2|12,0:0|0:0,0:0:0:0:
388,12,78201,1,12,0:0:0:0:
322,57,78554,1,12,0:0:0:0:
253,15,78907,2,0,P|213:9|171:31,1,79.9999999999999,12|12,0:0|0:0,0:0:0:0:
121,82,79613,1,10,0:0:0:0:
181,230,80319,6,0,L|158:365,2,120,2|2|2,0:0|3:2|3:2,0:0:0:0:
218,211,81554,1,12,0:0:0:0:
284,255,81907,2,0,P|339:263|400:224,1,120,2|10,3:2|0:0,0:0:0:0:
434,163,82790,2,0,L|420:76,1,79.9999999999999,14|0,0:0|3:2,0:0:0:0:
414,44,83319,1,8,0:0:0:0:
263,98,84025,2,0,L|256:142,2,40,8|8|14,0:0|0:0|3:2,0:0:0:0:
256,192,84554,12,0,88083,0:0:0:0:
