osu file format v14

[General]
AudioFilename: audio.mp3
AudioLeadIn: 0
PreviewTime: 48799
Countdown: 0
SampleSet: Soft
StackLeniency: 0.3
Mode: 0
LetterboxInBreaks: 0
WidescreenStoryboard: 1

[Editor]
Bookmarks: 134130
DistanceSpacing: 1.2
BeatDivisor: 8
GridSize: 16
TimelineZoom: 2.3

[Metadata]
Title:Koe?
TitleUnicode:声?
Artist:Hatena
ArtistUnicode:はてな
Creator:Narrative
Version:Hard?
Source:Dr.STONE
Tags:rock jrock j-rock dr. pop-rock pop jpop j-pop anime 2021 japanese season 2 stone wars 2nd 第2期 あさぎりゲン asagiri gen voice? telescope ドクターストーン dr ed ending 3 full ver version Confusianism
BeatmapID:3941659
BeatmapSetID:1902951

[Difficulty]
HPDrainRate:4.5
CircleSize:3.8
OverallDifficulty:6.5
ApproachRate:8
SliderMultiplier:1.4
SliderTickRate:0.5

[Events]
//Background and Video events
0,0,"bg 77a.jpeg",0,0
//Break Periods
2,193436,197098
//Storyboard Layer 0 (Background)
//Storyboard Layer 1 (Fail)
//Storyboard Layer 2 (Pass)
//Storyboard Layer 3 (Foreground)
//Storyboard Layer 4 (Overlay)
//Storyboard Sound Samples

[TimingPoints]
1582,352.941176470588,4,2,3,50,1,0
12876,-111.111111111111,4,2,3,60,0,0
23287,355.029585798817,4,2,3,60,1,0
24174,352.941176470588,4,2,3,60,1,0
32821,-90.9090909090908,4,2,3,60,0,0
33967,-90.9090909090908,4,2,3,5,0,0
34056,-90.9090909090908,4,2,3,60,0,0
36173,-111.111111111111,4,2,3,60,0,0
36879,-90.9090909090908,4,2,3,60,0,0
41115,-100,4,2,3,60,0,0
47379,-100,4,2,3,5,0,0
47468,-100,4,2,3,60,0,0
47821,-83.3333333333333,4,2,3,60,0,0
48085,-83.3333333333333,4,2,3,5,0,0
48173,-83.3333333333333,4,2,3,60,0,0
49409,-86.9565217391304,4,2,3,75,0,1
49593,-86.9565217391304,4,2,3,80,0,1
51967,-86.9565217391304,4,2,3,5,0,1
52056,-86.9565217391304,4,2,3,75,0,1
56555,-86.9565217391304,4,2,3,5,0,1
56644,-86.9565217391304,4,2,3,75,0,1
67849,-86.9565217391304,4,2,3,5,0,1
67938,-86.9565217391304,4,2,3,75,0,1
74291,355.029585798817,4,2,3,75,1,1
74822,-100,4,2,3,5,0,1
75001,352.941176470588,4,2,3,55,1,0
75001,-100,4,2,3,55,0,0
85413,-142.857142857143,4,2,3,55,0,0
86295,-100,4,2,3,60,0,0
86559,-100,4,2,3,5,0,0
86648,-100,4,2,3,60,0,0
92206,-100,4,2,3,5,0,0
92295,-100,4,2,3,60,0,0
95736,-100,4,2,3,5,0,0
95825,-100,4,2,3,60,0,0
97853,-100,4,2,3,5,0,0
97942,-100,4,2,3,60,0,0
100147,-100,4,2,3,5,0,0
100236,-100,4,2,3,60,0,0
101825,-83.3333333333333,4,2,3,60,0,0
103236,-142.857142857143,4,2,3,60,0,0
103942,-125,4,2,3,60,0,0
104648,-111.111111111111,4,2,3,60,0,0
105354,-100,4,2,3,60,0,0
106060,-200,4,2,3,60,0,0
108883,-90.9090909090909,4,2,3,60,0,0
109589,-111.111111111111,4,2,3,60,0,0
110295,-90.9090909090909,4,2,3,60,0,0
111618,-90.9090909090909,4,2,3,5,0,0
111707,-90.9090909090909,4,2,3,60,0,0
112413,-111.111111111111,4,2,3,60,0,0
113119,-90.9090909090909,4,2,3,60,0,0
114441,-90.9090909090909,4,2,3,5,0,0
114530,-90.9090909090909,4,2,3,60,0,0
115413,-111.111111111111,4,2,3,60,0,0
115942,-90.9090909090909,4,2,3,60,0,0
117618,-90.9090909090909,4,2,3,5,0,0
117707,-90.9090909090909,4,2,3,60,0,0
118147,-90.9090909090909,4,2,3,5,0,0
118236,-90.9090909090909,4,2,3,60,0,0
120177,354.295837023915,4,2,3,60,1,0
123011,352.422907488987,4,2,3,70,1,0
124420,-133.333333333333,4,2,3,70,0,0
125125,-100,4,2,3,70,0,0
125830,352.941176470588,4,2,3,70,1,0
132888,355.029585798817,4,2,3,70,1,0
134130,-86.9565217391304,4,2,3,80,0,1
134306,352.941176470588,4,2,3,80,1,1
134394,-86.9565217391304,4,2,3,5,0,1
134482,-86.9565217391304,4,2,3,80,0,1
135276,-86.9565217391304,4,2,3,5,0,1
135365,-86.9565217391304,4,2,3,80,0,1
137217,-86.9565217391304,4,2,3,5,0,1
137306,-86.9565217391304,4,2,3,80,0,1
141276,-86.9565217391304,4,2,3,5,0,1
141365,-86.9565217391304,4,2,3,80,0,1
142864,-86.9565217391304,4,2,3,5,0,1
142953,-86.9565217391304,4,2,3,80,0,1
145688,-86.9565217391304,4,2,3,5,0,1
145777,-86.9565217391304,4,2,3,80,0,1
148511,-86.9565217391304,4,2,3,5,0,1
148600,-86.9565217391304,4,2,3,80,0,1
152570,-86.9565217391304,4,2,3,5,0,1
152659,-86.9565217391304,4,2,3,80,0,1
158393,-86.9565217391304,4,2,3,5,0,1
158482,-86.9565217391304,4,2,3,80,0,1
159276,-86.9565217391304,4,2,3,5,0,1
159365,-86.9565217391304,4,2,3,80,0,1
159717,-100,4,2,3,65,0,0
160511,-100,4,2,3,5,0,0
160600,-100,4,2,3,65,0,0
170217,-100,4,2,3,5,0,0
170306,-100,4,2,3,65,0,0
173041,-100,4,2,3,5,0,0
173129,-100,4,2,3,65,0,0
175688,-100,4,2,3,5,0,0
175777,-100,4,2,3,65,0,0
178864,-100,4,2,3,5,0,0
178953,-100,4,2,3,65,0,0
186982,-100,4,2,3,5,0,0
187071,-100,4,2,3,65,0,0
189982,-100,4,2,3,5,0,0
190071,-100,4,2,3,65,0,0
193436,352.941176470588,4,2,3,65,1,0
193613,352.941176470588,4,2,3,65,1,0
195730,333.333333333333,4,2,3,65,1,0
196063,352.941176470588,4,2,3,65,1,0
196592,337.078651685393,4,2,3,65,1,0
196930,352.941176470588,4,2,3,65,1,0
197106,371.517027863777,4,2,3,65,1,0
197848,352.941176470588,4,2,3,50,1,0
198024,-100,4,2,3,70,0,0
198200,-83.3333333333333,4,2,3,70,0,0
199259,-111.111111111111,4,2,3,70,0,0
201906,-83.3333333333333,4,2,3,70,0,0
202170,-83.3333333333333,4,2,3,5,0,0
202259,-83.3333333333333,4,2,3,70,0,0
205083,-83.3333333333333,4,2,3,80,0,1
206406,-83.3333333333333,4,2,3,5,0,1
206495,-83.3333333333333,4,2,3,80,0,1
207288,-83.3333333333333,4,2,3,5,0,1
207377,-83.3333333333333,4,2,3,80,0,1
210817,-83.3333333333333,4,2,3,5,0,1
210906,-83.3333333333333,4,2,3,80,0,1
222111,-83.3333333333333,4,2,3,5,0,1
222200,-83.3333333333333,4,2,3,80,0,1
223523,-83.3333333333333,4,2,3,5,0,1
223612,-83.3333333333333,4,2,3,80,0,1
227406,-83.3333333333333,4,2,3,5,0,1
227495,-90.9090909090909,4,2,3,70,0,0

[Colours]
Combo1 : 239,201,215
Combo2 : 203,186,239
Combo3 : 164,167,200
Combo4 : 174,147,247

[HitObjects]
256,192,11464,12,8,12523,2:0:0:0:
340,152,12876,6,0,L|416:174,1,63.0000000000001,4|0,1:2|2:0,2:0:0:0:
347,240,13229,1,2,1:2:0:0:
232,146,13405,2,0,L|260:269,1,126,10|2,1:2|1:2,2:0:0:0:
199,359,13934,2,0,P|168:354|142:337,1,63.0000000000001,8|2,1:2|2:0,2:0:0:0:
49,337,14287,5,0,1:2:0:0:
49,337,14464,2,0,P|54:306|71:279,1,63.0000000000001,2|0,1:2|2:0,2:0:0:0:
61,170,14817,2,0,P|92:175|174:238,1,126,10|2,1:2|1:2,2:0:0:0:
256,173,15346,1,0,2:0:0:0:
256,173,15434,1,8,1:2:0:0:
256,173,15523,6,0,L|264:110,1,63.0000000000001,10|0,1:2|1:2,2:0:0:0:
370,36,15876,2,0,B|378:66|378:66|362:115,1,63.0000000000001,2|0,2:0|1:2,2:0:0:0:
446,158,16229,2,0,B|467:136|467:136|518:125,1,63.0000000000001,10|0,1:2|2:0,2:0:0:0:
508,39,16581,2,0,B|478:30|478:30|443:-7,1,63.0000000000001,2|8,1:2|1:2,2:0:0:0:
370,36,16934,1,2,2:0:0:0:
265,60,17111,5,0,1:2:0:0:
265,60,17287,2,0,L|252:125,1,63.0000000000001,0|0,1:2|1:2,2:0:0:0:
356,148,17640,2,0,L|383:286,1,126,8|2,1:2|1:2,2:0:0:0:
388,367,18170,1,14,1:2:0:0:
290,324,18346,1,10,1:2:0:0:
290,324,18434,1,8,1:2:0:0:
290,324,18523,6,0,B|228:340|228:340|176:284,1,126,0|2,1:2|1:2,2:0:0:0:
97,278,19052,2,0,P|55:277|48:361,1,126,10|2,1:2|1:2,2:0:0:0:
130,368,19581,2,0,L|204:348,1,63.0000000000001,8|2,1:2|2:0,2:0:0:0:
228,239,19934,5,0,1:2:0:0:
228,239,20111,2,0,L|160:222,1,63.0000000000001,2|0,1:2|2:0,2:0:0:0:
42,225,20464,2,0,L|60:306,1,63.0000000000001,10|0,1:2|2:0,2:0:0:0:
71,303,20729,1,8,1:2:0:0:
71,303,20817,2,0,L|60:377,1,63.0000000000001,2|8,1:2|1:2,2:0:0:0:
173,371,21170,6,0,L|196:227,1,126,2|2,2:0|2:0,2:0:0:0:
211,158,21699,1,0,1:2:0:0:
320,216,21876,2,0,B|291:79,1,126,10|2,1:2|1:2,2:0:0:0:
384,71,22405,2,0,B|412:85|412:85|432:109,1,63.0000000000001,12|2,1:2|2:0,2:0:0:0:
471,214,22758,5,12,1:2:0:0:
397,296,22934,1,0,1:2:0:0:
320,216,23111,1,0,1:2:0:0:
247,309,23287,6,0,B|214:290|186:295|186:295|163:318|131:322,1,140,12|2,1:2|1:2,2:0:0:0:
82,244,23819,1,14,1:2:0:0:
140,173,23997,1,8,1:3:0:0:
140,173,24085,1,8,1:3:0:0:
140,173,24174,6,0,L|281:150,1,140,6|0,1:2|1:2,2:0:0:0:
335,82,24703,2,0,P|310:63|280:55,1,70,10|8,1:2|1:3,2:0:0:0:
265,60,24968,1,8,1:2:0:0:
265,60,25056,1,2,1:2:0:0:
184,10,25232,2,0,P|158:28|128:33,1,70,10|2,1:2|2:0,2:0:0:0:
1,0,25585,6,0,B|42:41|42:41|24:117,1,140,2|0,1:2|1:2,2:0:0:0:
86,182,26115,2,0,L|223:146,1,140,10|2,1:2|1:2,2:0:0:0:
212,247,26644,2,0,L|151:261,1,70,10|2,1:2|2:0,2:0:0:0:
170,371,26997,6,0,P|218:331|283:338,1,140,2|0,1:2|1:2,2:0:0:0:
370,361,27526,2,0,B|380:331|380:331|369:288,1,70,10|8,1:2|1:3,2:0:0:0:
369,286,27791,1,8,1:2:0:0:
369,286,27879,1,2,1:2:0:0:
449,234,28056,2,0,B|479:244|479:244|509:236,1,70,8|2,1:2|2:0,2:0:0:0:
484,139,28409,6,0,B|476:94|476:94|448:69|448:69|440:22,1,140,0|0,1:2|1:2,2:0:0:0:
271,92,29115,6,0,L|282:17,1,70,2|8,1:2|1:3,2:0:0:0:
270,22,29379,1,8,1:3:0:0:
261,17,29468,2,0,L|205:24,3,35,10|8|10|8,1:3|1:2|1:2|1:2,2:0:0:0:
199,24,29821,6,0,L|136:33,1,70,14|2,1:2|2:0,2:0:0:0:
38,50,30173,2,0,L|30:112,1,70,2|10,1:2|1:2,2:0:0:0:
102,187,30526,1,2,1:2:0:0:
102,187,30703,2,0,L|168:198,1,70,2|8,1:2|1:2,2:0:0:0:
114,286,31056,6,0,P|52:288|9:331,1,140,2|2,2:0|2:0,2:0:0:0:
86,365,31585,1,2,1:2:0:0:
193,372,31762,2,0,B|214:368|234:357|247:343|247:343|247:343|247:343|263:327|282:317|302:314,1,140,10|2,1:2|1:2,2:0:0:0:
449,364,32291,2,0,B|419:366|419:366|377:342,1,70,8|2,1:2|2:0,2:0:0:0:
302,313,32644,5,2,1:2:0:0:
302,313,32821,2,0,L|290:228,1,77.0000000000001,0|0,1:2|1:2,2:0:0:0:
385,148,33173,2,0,P|423:149|456:169,1,77.0000000000001,10|0,1:2|1:2,2:0:0:0:
467,185,33438,1,8,1:3:0:0:
467,185,33526,1,0,1:2:0:0:
512,94,33703,6,0,P|462:62|401:54,1,115.5,12|0,1:2|2:0,2:0:0:0:
393,61,34056,5,4,1:2:0:0:
293,127,34232,1,8,1:2:0:0:
259,20,34409,1,0,1:2:0:0:
298,139,34585,6,0,B|322:218|322:218|267:286,1,154,12|0,1:2|1:2,2:0:0:0:
137,187,35115,2,0,L|128:135,3,38.5,10|8|8|8,1:2|1:3|1:3|1:3,2:0:0:0:
139,204,35468,6,0,L|16:180,2,115.5,6|0|2,1:2|1:2|1:2,2:0:0:0:
131,293,36173,6,0,L|8:269,1,126,8|2,1:2|2:0,2:0:0:0:
85,375,36703,1,10,2:0:0:0:
214,363,36879,6,0,B|232:308|232:308|207:241,2,115.5,2|0|2,1:2|1:2|1:2,2:0:0:0:
317,362,37585,1,8,1:2:0:0:
380,284,37762,1,2,1:2:0:0:
380,284,37850,1,0,1:2:0:0:
380,284,37938,6,0,P|380:209|342:168,1,115.5,14|0,2:0|2:0,2:0:0:0:
338,180,38291,6,0,L|261:191,1,77.0000000000001,6|0,1:2|2:0,2:0:0:0:
243,182,38556,1,0,1:2:0:0:
243,182,38644,2,0,B|238:143|238:143|254:86,1,77.0000000000001,10|0,1:2|2:0,2:0:0:0:
371,31,38997,6,0,B|410:26|410:26|467:42,1,77.0000000000001,2|0,1:2|1:2,2:0:0:0:
459,55,39262,1,0,1:2:0:0:
459,55,39350,2,0,L|440:145,1,77.0000000000001,10|0,1:2|2:0,2:0:0:0:
358,178,39703,5,6,1:2:0:0:
268,231,40409,6,0,L|281:299,2,51.3333333333334,10|0|0,1:2|1:2|1:2,2:0:0:0:
203,186,40762,2,0,L|216:121,2,51.3333333333334,10|0|0,1:2|1:2|1:2,2:0:0:0:
145,241,41115,6,0,P|111:244|78:231,1,70,6|0,1:2|2:0,2:0:0:0:
67,225,41379,1,0,2:0:0:0:
67,225,41468,2,0,L|84:324,1,70,2|0,1:2|2:0,2:0:0:0:
157,348,41821,6,0,B|192:356|192:356|242:342,1,70,2|0,1:2|2:0,2:0:0:0:
290,286,42173,2,0,B|298:251|298:251|284:201,1,70,2|0,1:2|2:0,2:0:0:0:
171,155,42526,6,0,L|181:75,1,70,2|0,1:2|2:0,2:0:0:0:
184,58,42791,1,0,2:0:0:0:
184,58,42879,2,0,P|146:50|117:57,1,70,2|0,1:2|2:0,2:0:0:0:
272,111,43232,6,0,L|362:95,1,70,2|0,1:2|2:0,2:0:0:0:
366,97,43497,1,0,2:0:0:0:
366,97,43585,1,2,1:2:0:0:
477,147,43762,1,10,1:2:0:0:
424,221,43938,6,0,L|416:264,3,35,6|0|0|0,1:2|2:0|2:0|2:0,2:0:0:0:
445,297,44291,2,0,L|437:340,3,35,2|0|0|0,1:2|2:0|2:0|2:0,2:0:0:0:
406,360,44644,5,2,1:2:0:0:
406,360,44821,1,2,2:0:0:0:
309,346,44997,1,2,1:2:0:0:
210,329,45173,2,0,L|196:247,1,70,10|2,1:2|1:2,2:0:0:0:
277,168,45526,1,8,1:2:0:0:
277,168,45615,1,0,1:2:0:0:
277,168,45703,2,0,L|326:177,3,35,8|0|8|0,1:2|1:2|1:2|1:2,2:0:0:0:
349,146,46056,6,0,L|340:97,3,35,10|8|8|8,1:2|1:2|1:2|1:2,2:0:0:0:
304,76,46409,2,0,L|313:27,3,35,10|8|8|8,1:2|1:2|1:2|1:2,2:0:0:0:
263,88,46762,5,12,1:2:0:0:
263,88,46938,1,0,1:2:0:0:
155,64,47115,2,0,P|111:35|60:40,1,105,2|0,1:2|2:0,2:0:0:0:
48,51,47468,2,0,B|42:87|42:87|55:133,1,70,10|0,1:2|2:0,2:0:0:0:
178,194,47821,6,0,B|116:182|116:182|62:215,1,126,14|0,1:2|2:0,2:0:0:0:
53,225,48173,5,8,1:2:0:0:
53,225,48350,1,8,1:3:0:0:
99,328,48526,1,8,1:3:0:0:
205,291,48703,1,8,1:3:0:0:
481,81,49409,6,0,B|452:73|425:80|405:98|405:98|405:98|405:98|385:117|355:122|330:116,1,161,6|2,1:2|2:0,2:0:0:0:
246,177,49938,2,0,B|228:214|228:214|240:263,1,80.5,10|2,1:2|2:0,2:0:0:0:
251,272,50203,1,2,2:0:0:0:
251,272,50291,2,0,L|144:251,1,80.5,2|0,1:2|2:0,2:0:0:0:
285,358,50644,1,10,1:2:0:0:
355,297,50821,6,0,L|512:328,1,161,2|2,2:0|2:0,2:0:0:0:
504,234,51350,1,10,1:2:0:0:
429,187,51526,1,2,2:0:0:0:
429,187,51615,1,2,2:0:0:0:
429,187,51703,2,0,L|399:35,1,120.75,2|0,1:2|2:0,2:0:0:0:
402,54,52056,1,10,1:2:0:0:
296,134,52232,6,0,P|256:130|224:107,1,80.5,2|0,2:0|1:2,2:0:0:0:
185,27,52585,1,2,2:0:0:0:
51,127,52762,2,0,P|83:104|123:101,1,80.5,8|2,1:2|2:0,2:0:0:0:
139,116,53026,1,2,2:0:0:0:
139,116,53115,6,0,L|120:245,2,120.75,2|2|2,1:2|2:0|2:0,2:0:0:0:
241,86,53821,2,0,L|264:176,1,80.5,2|0,1:2|2:0,2:0:0:0:
264,174,54085,2,0,P|255:232|212:277,1,120.75,2|2,2:0|2:0,2:0:0:0:
189,267,54438,1,2,2:0:0:0:
189,267,54526,2,0,B|136:240|136:240|75:250,2,120.75,2|2|2,1:2|2:0|2:0,2:0:0:0:
238,358,55232,6,0,P|282:308|380:323,1,161,2|8,1:2|1:2,2:0:0:0:
458,360,55762,1,2,2:0:0:0:
458,360,55850,1,2,2:0:0:0:
458,360,55938,2,0,B|465:319|465:319|456:280,1,80.5,2|0,1:2|2:0,2:0:0:0:
381,225,56291,2,0,L|399:98,1,120.75,10|0,1:2|2:0,2:0:0:0:
390,94,56644,6,0,B|364:68|314:71|314:71|287:104|237:110,1,161,2|8,1:2|1:2,2:0:0:0:
160,42,57173,1,2,2:0:0:0:
160,42,57262,1,2,2:0:0:0:
160,42,57350,1,2,1:2:0:0:
103,111,57526,1,2,2:0:0:0:
24,58,57703,1,8,1:2:0:0:
111,119,57879,6,0,L|77:288,1,161,14|0,1:2|1:2,2:0:0:0:
154,337,58409,2,0,B|192:349|192:349|232:338,1,80.5,8|0,1:2|1:2,2:0:0:0:
80,277,58762,2,0,B|42:265|42:265|2:274,1,80.5,8|0,1:2|1:2,2:0:0:0:
38,356,59115,1,0,1:2:0:0:
164,255,59291,6,0,P|174:178|119:123,1,161,12|0,1:2|1:2,2:0:0:0:
13,50,59821,2,0,L|96:36,1,80.5,8|0,1:2|2:0,2:0:0:0:
201,48,60173,1,10,1:2:0:0:
210,55,60262,1,8,1:2:0:0:
220,62,60350,2,0,L|230:121,3,40.25,8|8|10|8,1:2|1:2|1:2|1:2,2:0:0:0:
247,128,60703,6,0,P|284:143|324:141,1,80.5,14|0,1:2|1:2,2:0:0:0:
414,96,61056,1,2,2:0:0:0:
482,169,61232,1,10,1:2:0:0:
394,232,61409,1,2,2:0:0:0:
394,232,61497,1,2,2:0:0:0:
394,232,61585,2,0,B|386:274|386:274|402:334,1,80.5,2|0,1:2|2:0,2:0:0:0:
502,374,61938,1,10,1:2:0:0:
395,310,62115,6,0,L|229:334,1,161,2|2,2:0|2:0,2:0:0:0:
166,277,62644,2,0,P|161:237|174:200,1,80.5,10|2,1:2|2:0,2:0:0:0:
194,184,62909,1,2,2:0:0:0:
194,184,62997,2,0,B|232:201|232:201|294:192,1,80.5,2|0,1:2|2:0,2:0:0:0:
312,109,63350,1,10,1:2:0:0:
362,254,63526,6,0,B|379:216|379:216|372:152,1,80.5,2|0,2:0|1:2,2:0:0:0:
446,122,63879,2,0,P|474:150|513:161,1,80.5,2|10,2:0|1:2,2:0:0:0:
391,39,64232,1,2,2:0:0:0:
391,39,64321,1,2,2:0:0:0:
391,39,64409,6,0,L|256:57,2,120.75,2|2|2,1:2|2:0|2:0,2:0:0:0:
446,122,65115,2,0,B|454:162|454:162|443:200,1,80.5,2|0,1:2|2:0,2:0:0:0:
435,216,65379,2,0,P|387:180|327:181,1,120.75,2|2,2:0|2:0,2:0:0:0:
304,194,65732,1,2,2:0:0:0:
304,194,65821,2,0,P|244:193|194:161,2,120.75,2|2|2,1:2|2:0|2:0,2:0:0:0:
364,264,66526,6,0,P|368:304|350:341,1,80.5,2|0,1:2|2:0,2:0:0:0:
260,367,66879,1,10,1:2:0:0:
189,301,67056,1,2,2:0:0:0:
189,301,67144,1,2,2:0:0:0:
189,301,67232,2,0,L|103:287,1,80.5,2|0,1:2|2:0,2:0:0:0:
33,203,67585,2,0,L|162:185,1,120.75,10|0,1:2|2:0,2:0:0:0:
166,184,67938,6,0,B|137:185|112:171|97:149|97:149|82:125|55:113|29:114,1,161,2|8,1:2|1:2,2:0:0:0:
178,98,68468,1,2,2:0:0:0:
178,98,68556,1,2,2:0:0:0:
178,98,68644,1,2,1:2:0:0:
258,160,68821,2,0,B|263:198|263:198|246:250,1,80.5,2|8,2:0|1:2,2:0:0:0:
183,323,69173,1,12,1:2:0:0:
412,348,69526,5,10,1:2:0:0:
493,283,69703,2,0,L|499:239,3,40.25,10|8|8|8,1:2|1:2|1:2|1:2,2:0:0:0:
469,206,70056,2,0,L|463:162,3,40.25,10|8|8|8,1:2|1:2|1:2|1:2,2:0:0:0:
489,128,70409,1,10,1:2:0:0:
365,76,70585,5,10,1:2:0:0:
367,87,70673,1,8,1:2:0:0:
369,101,70762,2,0,L|374:140,3,40.25,8|8|10|8,1:2|1:2|1:2|1:2,2:0:0:0:
339,164,71115,6,0,L|247:149,1,80.5,10|8,1:2|1:2,2:0:0:0:
232,118,71379,1,8,1:2:0:0:
232,118,71468,2,0,L|152:105,1,80.5,10|8,1:2|1:2,2:0:0:0:
57,83,71821,1,0,1:2:0:0:
42,208,71997,6,0,L|127:197,1,80.5,12|2,1:2|2:0,2:0:0:0:
229,238,72350,1,0,1:2:0:0:
229,238,72526,6,0,P|218:277|191:317,1,80.5,8|2,1:2|1:2,2:0:0:0:
272,371,72879,2,0,P|311:359|359:363,1,80.5,8|0,1:2|1:2,2:0:0:0:
355,254,73232,1,2,1:2:0:0:
501,342,73409,6,0,B|441:326|441:326|462:229,1,161,12|2,1:2|1:2,2:0:0:0:
510,141,73938,2,0,L|494:54,1,80.5,8|0,1:2|1:2,2:0:0:0:
407,26,74291,1,10,1:2:0:0:
339,102,74468,2,0,P|259:98|199:47,1,175,0|0,1:2|2:0,2:0:0:0:
177,26,75001,6,0,L|96:42,1,70,6|2,1:2|2:0,1:2:0:0:
19,93,75354,1,2,1:2:0:0:
19,93,75530,2,0,B|8:167|8:167|45:230,1,140,10|0,1:2|1:2,2:0:0:0:
51,309,76060,2,0,P|95:303|118:279,1,70,10|0,1:2|2:0,2:0:0:0:
193,240,76413,5,0,1:2:0:0:
193,240,76589,2,0,P|246:254|266:332,1,140,2|8,1:2|1:2,2:0:0:0:
411,346,77295,5,0,1:2:0:0:
371,266,77472,1,0,1:2:0:0:
371,266,77560,1,8,1:2:0:0:
371,266,77648,1,8,1:2:0:0:
318,182,77825,6,0,L|233:166,2,70,2|2|2,2:0|2:0|1:2,2:0:0:0:
371,94,78354,2,0,L|232:67,1,140,10|0,1:2|1:2,2:0:0:0:
168,124,78883,2,0,B|157:159|157:159|168:198,1,70,10|0,1:2|2:0,2:0:0:0:
228,263,79236,5,0,1:2:0:0:
228,263,79413,2,0,P|188:308|130:294,1,140,2|8,1:2|1:2,2:0:0:0:
42,273,79942,2,0,P|39:241|51:212,1,70,2|0,1:2|2:0,2:0:0:0:
153,151,80295,1,14,1:2:0:0:
131,39,80472,1,12,1:2:0:0:
61,104,80648,6,0,L|-15:86,2,70,2|2|2,1:2|2:0|1:2,2:0:0:0:
153,151,81178,2,0,B|174:154|196:148|212:135|212:135|212:135|212:135|230:122|251:117|272:120,1,140,10|0,1:2|1:2,2:0:0:0:
366,160,81707,2,0,B|375:129|375:129|368:95,1,70,10|0,1:2|2:0,2:0:0:0:
297,26,82060,5,0,1:2:0:0:
271,119,82236,2,0,L|137:138,1,140,2|8,1:2|1:2,2:0:0:0:
62,103,82766,1,10,1:2:0:0:
62,103,82854,1,8,1:2:0:0:
62,103,82942,1,0,1:2:0:0:
21,188,83119,2,0,P|15:220|23:252,1,70,8|0,1:2|2:0,2:0:0:0:
102,317,83472,6,0,L|178:298,1,70,2|2,1:2|2:0,2:0:0:0:
253,338,83825,1,2,1:2:0:0:
253,338,84001,2,0,P|316:351|377:321,1,140,10|0,1:2|1:2,2:0:0:0:
481,312,84530,2,0,P|477:281|456:252,1,70,14|0,1:2|2:0,2:0:0:0:
372,232,84883,1,12,1:2:0:0:
450,155,85060,5,6,1:2:0:0:
372,75,85236,1,6,1:2:0:0:
285,139,85413,2,0,B|252:116|214:117|214:117|192:146|153:150,1,147,6|2,1:2|2:0,2:0:0:0:
43,76,86119,1,10,1:3:0:0:
43,76,86207,1,8,1:3:0:0:
43,76,86295,6,0,L|64:196,1,105,12|0,1:2|2:0,2:0:0:0:
64,193,86648,1,2,1:2:0:0:
28,281,86825,2,0,B|22:315|22:315|43:366,1,70,2|8,1:2|1:2,2:0:0:0:
143,333,87177,2,0,B|144:297|144:297|126:267,1,70,2|0,2:0|2:0,2:0:0:0:
236,323,87530,6,0,L|373:354,1,140,10|10,1:2|1:2,2:0:0:0:
427,284,88060,1,0,1:2:0:0:
427,284,88236,2,0,L|409:193,1,70,2|8,1:2|1:2,0:0:0:0:
371,126,88589,2,0,L|517:154,1,140,2|2,1:2|2:0,2:0:0:0:
486,52,89119,6,0,L|405:38,1,70,2|0,1:2|2:0,0:0:0:0:
313,14,89472,1,2,1:2:0:0:
313,14,89648,2,0,L|230:29,1,70,2|8,1:2|1:2,2:0:0:0:
185,102,90001,2,0,L|116:114,1,70,2|0,1:2|2:0,2:0:0:0:
19,190,90354,6,0,P|53:192|84:208,1,70,10|0,1:2|1:2,2:0:0:0:
169,250,90707,2,0,P|149:279|120:297,1,70,10|0,1:2|1:2,2:0:0:0:
43,346,91060,2,0,P|28:314|26:280,1,70,2|8,1:2|1:2,2:0:0:0:
84,208,91413,1,2,1:2:0:0:
182,139,91589,5,14,1:2:0:0:
68,92,91766,1,14,1:2:0:0:
193,143,91942,6,0,P|244:138|284:105,1,105,14|0,1:2|2:0,2:0:0:0:
290,93,92295,1,2,1:2:0:0:
394,33,92472,2,0,B|377:64|377:64|383:102,1,70,2|8,1:2|1:2,2:0:0:0:
475,122,92825,2,0,B|492:91|492:91|486:53,1,70,2|0,2:0|2:0,2:0:0:0:
386,23,93177,6,0,L|225:39,1,140,10|10,1:2|1:2,2:0:0:0:
188,96,93707,1,0,1:2:0:0:
136,157,93883,2,0,P|135:191|145:225,1,70,2|8,1:2|1:2,2:0:0:0:
208,290,94236,2,0,B|264:302|264:302|287:332|287:332|330:344,1,140,2|2,1:2|2:0,2:0:0:0:
430,368,94766,6,0,P|445:336|446:300,1,70,2|2,1:2|2:0,0:0:0:0:
405,210,95119,1,2,1:2:0:0:
405,210,95295,1,2,1:2:0:0:
496,168,95472,2,0,P|513:119|502:69,1,105,10|0,1:2|2:0,2:0:0:0:
485,65,95825,2,0,L|402:52,1,70,2|10,2:0|1:2,2:0:0:0:
309,36,96177,5,4,1:2:0:0:
335,139,96354,1,0,1:2:0:0:
415,54,96530,1,0,1:2:0:0:
327,148,96707,6,0,B|293:185|293:185|321:270,1,140,8|2,1:2|2:0,2:0:0:0:
395,356,97236,2,0,P|416:328|424:288,1,70,10|2,1:2|2:0,2:0:0:0:
321,270,97589,6,0,L|217:257,1,105,14|0,1:2|2:0,2:0:0:0:
202,255,97942,1,2,1:2:0:0:
106,299,98119,2,0,L|122:367,1,70,2|8,1:2|1:2,2:0:0:0:
25,248,98472,2,0,L|41:180,1,70,2|0,2:0|2:0,2:0:0:0:
13,84,98825,6,0,P|82:85|131:132,1,140,10|10,1:2|1:2,2:0:0:0:
207,86,99354,1,0,1:2:0:0:
207,86,99530,2,0,P|202:51|213:18,1,70,2|8,1:2|1:2,2:0:0:0:
297,65,99883,2,0,L|426:91,1,105,2|0,1:2|2:0,2:0:0:0:
412,92,100236,6,0,L|425:161,1,70,2|0,2:0|1:2,2:0:0:0:
348,229,100589,2,0,L|279:216,1,70,2|0,2:0|1:2,2:0:0:0:
382,340,100942,2,0,P|411:321|429:291,1,70,2|8,1:2|1:2,2:0:0:0:
512,246,101295,2,0,P|503:212|480:186,1,70,2|0,1:2|2:0,2:0:0:0:
394,161,101648,1,10,1:2:0:0:
382,50,101825,6,0,B|418:49|437:69|437:69|460:41|496:30,2,126,6|10|10,1:2|1:2|1:2,2:0:0:0:
283,107,102530,6,0,P|227:93|247:31,2,126,2|10|10,1:2|1:2|1:2,2:0:0:0:
385,156,103236,6,0,L|403:316,1,147,4|0,1:2|2:0,2:0:0:0:
257,363,103942,6,0,L|289:198,1,168,12|0,1:2|2:0,2:0:0:0:
203,120,104648,6,0,P|140:97|50:176,1,189,12|0,1:2|2:0,2:0:0:0:
0,275,105354,6,0,P|87:276|164:395,1,210,12|0,1:2|2:0,2:0:0:0:
285,375,106060,6,0,B|297:287|297:287|344:242|344:242|356:149,1,245,4|2,1:2|1:2,2:0:0:0:
330,41,107472,1,2,1:2:0:0:
223,120,107707,5,8,1:2:0:0:
356,152,107942,1,8,1:2:0:0:
243,236,108177,1,8,1:2:0:0:
203,22,108530,5,10,1:3:0:0:
367,77,108883,6,0,L|490:53,2,115.5,4|0|0,1:2|1:2|1:2,2:0:0:0:
316,173,109589,6,0,P|373:238|426:233,1,126,10|2,1:2|2:0,2:0:0:0:
283,293,110119,1,10,1:2:0:0:
367,338,110295,6,0,B|424:351|424:351|481:314,2,115.5,0|0|2,1:2|1:2|1:2,2:0:0:0:
283,293,111001,5,8,1:2:0:0:
199,332,111177,1,2,1:2:0:0:
292,286,111354,2,0,L|313:156,1,115.5,14|0,1:2|2:0,2:0:0:0:
300,160,111707,6,0,B|279:155|260:162|247:175|247:175|247:175|247:175|232:190|212:195|193:191,2,115.5,6|0|2,1:2|1:2|1:2,2:0:0:0:
388,221,112413,6,0,B|415:199|415:199|389:105,1,126,8|0,1:2|2:0,2:0:0:0:
306,43,112942,1,10,1:2:0:0:
195,111,113119,6,0,L|307:139,2,115.5,0|0|0,1:2|1:2|1:2,2:0:0:0:
64,150,113825,5,10,1:2:0:0:
96,36,114001,1,0,1:2:0:0:
195,111,114177,2,0,L|220:223,1,115.5,14|0,1:2|2:0,2:0:0:0:
234,233,114530,6,0,P|284:204|340:212,2,115.5,4|0|2,1:2|1:2|1:2,2:0:0:0:
168,305,115236,5,10,1:2:0:0:
123,221,115413,2,0,L|-11:195,1,126,2|10,2:0|1:2,2:0:0:0:
87,80,115942,6,0,B|139:53|139:53|205:65,2,115.5,0|0|2,1:2|1:2|1:2,2:0:0:0:
27,147,116648,5,8,1:2:0:0:
88,214,116825,1,2,1:2:0:0:
35,276,117001,2,0,P|21:311|26:349,1,77,14|2,1:2|2:0,2:0:0:0:
126,359,117354,6,0,B|177:333|177:333|251:351,1,115.5,4|0,1:2|2:0,2:0:0:0:
246,350,117707,1,2,1:2:0:0:
354,377,117883,2,0,P|371:323|342:271,1,115.5,10|0,1:2|2:0,2:0:0:0:
335,268,118236,1,10,1:3:0:0:
244,225,118413,2,0,L|157:243,1,77,8|2,1:2|2:0,2:0:0:0:
96,180,118766,5,6,1:2:0:0:
96,180,118942,1,10,1:2:0:0:
31,105,119119,1,2,1:2:0:0:
31,105,119295,1,14,1:2:0:0:
95,37,119472,2,0,L|175:53,1,77,2|2,1:2|1:2,2:0:0:0:
267,66,119825,1,10,1:2:0:0:
269,81,119913,1,8,1:2:0:0:
271,96,120001,1,8,1:2:0:0:
272,111,120089,1,8,1:2:0:0:
274,126,120177,6,0,L|278:171,3,35,14|0|0|0,1:2|2:0|2:0|2:0,2:0:0:0:
282,213,120531,2,0,L|327:209,3,35,0|0|2|0,1:2|2:0|2:0|2:0,2:0:0:0:
370,202,120885,2,0,L|366:157,3,35,0|0|2|0,1:2|2:0|2:0|2:0,2:0:0:0:
362,121,121239,2,0,L|451:111,1,70,2|2,1:2|2:0,2:0:0:0:
486,196,121594,6,0,L|479:247,3,35,2|0|0|0,1:2|2:0|2:0|2:0,2:0:0:0:
476,275,121948,2,0,L|425:282,3,35,0|0|2|0,1:2|2:0|2:0|2:0,2:0:0:0:
402,257,122302,2,0,L|363:251,3,35,0|0|2|0,1:2|2:0|2:0|2:0,2:0:0:0:
336,272,122657,1,2,1:2:0:0:
255,352,122834,1,14,1:2:0:0:
179,277,123011,6,0,B|171:244|171:244|182:210,1,70,6|0,1:2|2:0,2:0:0:0:
189,194,123275,1,0,1:2:0:0:
189,194,123363,2,0,L|97:213,1,70,10|0,1:2|2:0,2:0:0:0:
24,172,123715,5,2,1:2:0:0:
128,91,123892,1,0,1:2:0:0:
35,21,124068,1,10,1:2:0:0:
35,21,124420,6,0,B|20:76|20:76|36:124|36:124|20:190,1,157.5,6|0,1:2|2:0,2:0:0:0:
148,224,125125,6,0,L|221:207,2,46.6666666666667,10|0|0,1:2|1:2|1:2,2:0:0:0:
66,261,125477,2,0,L|56:306,2,46.6666666666667,10|0|0,1:2|1:2|1:2,2:0:0:0:
24,172,125830,6,0,L|42:83,1,70,6|0,1:2|2:0,2:0:0:0:
44,82,126094,1,0,2:0:0:0:
44,82,126182,1,2,1:2:0:0:
129,134,126359,1,8,1:2:0:0:
229,98,126535,6,0,B|220:65|220:65|233:31,1,70,2|0,1:2|2:0,2:0:0:0:
257,21,126800,1,0,2:0:0:0:
257,21,126888,2,0,L|330:33,1,70,10|0,1:2|2:0,2:0:0:0:
434,109,127241,6,0,P|399:108|368:123,1,70,2|0,1:2|2:0,2:0:0:0:
358,146,127506,1,0,2:0:0:0:
358,146,127594,1,2,1:2:0:0:
433,199,127771,1,8,1:2:0:0:
323,228,127947,6,0,P|322:262|337:293,1,70,2|0,1:2|2:0,2:0:0:0:
350,308,128212,1,0,2:0:0:0:
350,308,128300,1,2,1:2:0:0:
255,372,128477,1,14,1:2:0:0:
169,316,128653,6,0,L|123:326,3,35,0|0|0|0,1:2|2:0|2:0|2:0,2:0:0:0:
108,292,129006,2,0,L|115:257,3,35,0|0|8|0,1:2|2:0|1:2|2:0,2:0:0:0:
142,230,129359,2,0,L|134:195,3,35,0|0|2|0,1:2|2:0|2:0|2:0,2:0:0:0:
117,161,129712,1,2,1:2:0:0:
204,113,129888,6,0,L|217:31,1,70,14|0,1:2|1:2,2:0:0:0:
119,24,130241,1,8,1:2:0:0:
110,20,130330,1,8,1:2:0:0:
100,16,130418,2,0,L|65:21,3,35,8|8|8|8,1:2|1:2|1:2|1:2,2:0:0:0:
31,55,130771,6,0,L|36:89,3,35,10|8|8|8,1:2|1:2|1:2|1:2,2:0:0:0:
63,125,131124,2,0,L|57:159,3,35,10|8|8|8,1:2|1:2|1:2|1:2,2:0:0:0:
35,190,131477,5,14,1:2:0:0:
35,190,131653,1,0,1:2:0:0:
106,262,131830,2,0,L|185:245,1,70,6|0,1:2|2:0,2:0:0:0:
280,285,132182,2,0,B|267:319|267:319|272:359,1,70,10|0,1:2|2:0,2:0:0:0:
389,368,132535,2,0,B|402:334|402:334|397:294,1,70,14|0,1:2|2:0,2:0:0:0:
349,220,132888,5,10,1:2:0:0:
400,145,133065,1,8,1:3:0:0:
322,96,133243,1,8,1:3:0:0:
268,169,133420,1,8,1:3:0:0:
72,60,134130,6,0,P|128:65|173:109,1,120.039705882353,6|0,1:2|2:0,2:0:0:0:
177,123,134482,1,2,2:0:0:0:
107,186,134659,2,0,B|67:194|67:194|7:158,1,80.5,10|2,1:2|2:0,2:0:0:0:
202,228,135012,2,0,L|228:356,1,120.75,2|0,1:2|2:0,2:0:0:0:
229,358,135365,1,10,1:2:0:0:
314,270,135541,6,0,B|343:262|370:269|390:287|390:287|390:287|390:287|410:306|440:311|465:305,1,161,2|2,2:0|2:0,2:0:0:0:
452,192,136071,2,0,L|466:100,1,80.5,10|2,1:2|2:0,2:0:0:0:
443,89,136335,1,2,2:0:0:0:
443,89,136424,2,0,B|404:80|404:80|354:99,1,80.5,2|0,1:2|1:2,2:0:0:0:
289,167,136777,1,10,1:2:0:0:
365,250,136953,6,0,P|408:289|467:290,1,120.75,2|0,2:0|2:0,2:0:0:0:
480,280,137306,2,0,B|488:321|488:321|474:366,1,80.5,2|8,2:0|1:2,2:0:0:0:
339,370,137659,1,2,2:0:0:0:
264,302,137835,6,0,L|279:173,2,120.75,2|2|2,1:2|2:0|2:0,2:0:0:0:
179,354,138541,2,0,L|83:339,1,80.5,2|0,1:2|2:0,2:0:0:0:
88,338,138806,2,0,P|79:279|113:231,1,120.75,2|2,2:0|2:0,2:0:0:0:
137,227,139159,1,0,2:0:0:0:
137,227,139247,2,0,L|233:242,1,80.5,2|0,1:2|2:0,2:0:0:0:
323,203,139600,1,10,2:0:0:0:
303,312,139777,1,12,1:2:0:0:
423,294,139953,6,0,B|443:260|443:260|402:141,1,161,2|8,1:2|1:2,2:0:0:0:
310,81,140482,1,2,2:0:0:0:
310,81,140571,1,2,2:0:0:0:
310,81,140659,2,0,P|313:36|355:-13,1,80.5,2|0,1:2|2:0,2:0:0:0:
199,118,141012,2,0,P|163:98|75:105,1,120.75,10|0,1:2|2:0,2:0:0:0:
75,112,141365,6,0,B|66:167|66:167|84:210|84:210|71:279,1,161,2|8,1:2|1:2,2:0:0:0:
53,352,141894,1,10,2:0:0:0:
162,371,142071,1,2,1:2:0:0:
162,371,142247,1,2,2:0:0:0:
181,255,142424,1,8,1:2:0:0:
263,315,142600,6,0,B|285:291|318:288|318:288|341:305|374:298,1,120.75,14|0,1:2|2:0,2:0:0:0:
383,290,142953,1,0,1:2:0:0:
475,259,143130,2,0,P|486:207|495:169,1,80.5,8|0,1:2|1:2,2:0:0:0:
433,97,143482,1,8,1:2:0:0:
382,176,143659,1,0,1:2:0:0:
308,117,143835,1,0,1:2:0:0:
393,187,144012,6,0,L|365:355,1,161,12|0,1:2|1:2,2:0:0:0:
254,354,144541,2,0,B|250:311|250:311|265:271,1,80.5,8|0,1:2|2:0,2:0:0:0:
313,167,144894,1,10,1:2:0:0:
313,167,144982,1,8,1:2:0:0:
313,167,145071,2,0,L|371:182,3,40.25,8|8|10|8,1:2|1:2|1:2|1:2,2:0:0:0:
393,187,145424,6,0,L|371:45,1,120.75,14|0,1:2|2:0,2:0:0:0:
372,54,145777,1,2,2:0:0:0:
269,30,145953,2,0,B|227:23|227:23|187:46,1,80.5,10|2,1:2|2:0,2:0:0:0:
166,62,146218,1,2,2:0:0:0:
166,62,146306,2,0,L|68:37,1,80.5,2|0,1:2|2:0,2:0:0:0:
256,126,146659,1,10,1:2:0:0:
170,180,146835,6,0,B|181:240|181:240|167:285|167:285|178:354,1,161,2|2,2:0|2:0,2:0:0:0:
68,357,147365,2,0,B|51:319|51:319|60:264,1,80.5,10|2,1:2|2:0,2:0:0:0:
72,261,147630,1,2,2:0:0:0:
72,261,147718,2,0,L|58:174,1,80.5,2|0,1:2|2:0,2:0:0:0:
42,87,148071,1,10,1:2:0:0:
145,25,148247,6,0,P|188:65|247:68,1,120.75,2|0,2:0|2:0,2:0:0:0:
260,60,148600,2,0,P|240:94|241:134,1,80.5,2|10,2:0|1:2,2:0:0:0:
284,216,148953,1,2,2:0:0:0:
423,158,149130,6,0,P|381:116|322:114,2,120.75,2|2|2,1:2|2:0|2:0,2:0:0:0:
479,241,149835,2,0,P|454:272|417:286,1,80.5,2|0,1:2|2:0,2:0:0:0:
403,292,150100,2,0,L|263:260,1,120.75,2|2,2:0|2:0,2:0:0:0:
228,182,150541,1,2,1:2:0:0:
146,236,150718,5,8,1:2:0:0:
202,329,150894,1,12,1:2:0:0:
202,329,151071,1,2,2:0:0:0:
106,343,151247,6,0,B|28:358|28:358|2:274,1,161,6|10,1:2|1:2,2:0:0:0:
77,203,151777,1,2,2:0:0:0:
7,144,151953,2,0,P|4:104|22:68,1,80.5,2|0,1:2|2:0,2:0:0:0:
147,30,152306,2,0,L|280:56,1,120.75,10|0,1:2|2:0,2:0:0:0:
278,56,152659,6,0,B|250:60|226:75|210:95|210:95|210:95|210:95|191:117|167:129|141:133,1,161,2|8,1:2|1:2,2:0:0:0:
52,209,153188,2,0,P|100:216|140:234,1,80.5,2|0,2:0|1:2,2:0:0:0:
229,273,153541,1,2,1:2:0:0:
229,273,153718,1,8,1:2:0:0:
209,155,153894,6,0,P|213:115|228:77,1,80.5,14|0,1:2|1:2,2:0:0:0:
315,30,154247,1,10,1:2:0:0:
401,69,154424,6,0,L|411:138,3,40.25,10|8|8|8,1:2|1:2|1:2|1:2,2:0:0:0:
380,134,154777,2,0,L|370:203,3,40.25,10|8|8|8,1:2|1:2|1:2|1:2,2:0:0:0:
400,207,155130,1,10,1:2:0:0:
353,284,155306,1,10,1:2:0:0:
346,292,155394,1,8,1:2:0:0:
339,301,155482,2,0,L|290:290,3,40.25,8|8|10|8,1:2|1:2|1:2|1:2,2:0:0:0:
268,282,155835,6,0,L|259:242,3,40.25,10|8|8|8,1:2|1:2|1:2|1:2,2:0:0:0:
289,206,156188,2,0,L|297:166,3,40.25,10|8|8|8,1:2|1:2|1:2|1:2,2:0:0:0:
282,129,156541,1,0,1:2:0:0:
210,66,156718,6,0,B|171:61|171:61|123:83,1,80.5,12|2,1:2|2:0,2:0:0:0:
59,131,157071,1,0,1:2:0:0:
59,131,157247,5,8,1:2:0:0:
132,197,157424,1,2,1:2:0:0:
38,254,157600,2,0,L|22:332,1,80.5,8|0,1:2|1:2,2:0:0:0:
130,306,157953,1,2,1:2:0:0:
214,362,158129,6,0,P|272:357|310:312,1,120.75,12|0,1:2|2:0,2:0:0:0:
310,299,158482,1,2,1:2:0:0:
248,222,158659,1,8,1:2:0:0:
332,165,158835,1,0,1:2:0:0:
264,88,159012,6,0,B|206:65|206:65|143:83,1,120.75,10|0,1:2|2:0,2:0:0:0:
132,92,159365,2,0,L|53:75,1,80.5,6|0,2:0|2:0,2:0:0:0:
25,181,159718,6,0,L|98:197,1,70,2|2,1:2|1:2,2:0:0:0:
180,159,160071,1,10,1:2:0:0:
248,222,160247,2,0,L|272:337,1,105,2|0,1:2|2:0,2:0:0:0:
271,336,160600,2,0,B|238:326|238:326|191:337,1,70,10|2,1:2|1:2,2:0:0:0:
86,364,160953,6,0,P|89:297|32:261,1,140,10|0,1:2|1:2,2:0:0:0:
18,164,161482,2,0,B|60:159|86:179|86:179|109:143|149:134,1,140,8|0,1:2|1:2,2:0:0:0:
226,107,162012,1,10,1:2:0:0:
292,174,162188,1,2,1:2:0:0:
358,108,162365,6,0,B|396:89|426:96|426:96|447:125|494:128,1,140,10|0,1:2|1:2,2:0:0:0:
396,195,162894,2,0,P|379:271|364:353,1,140,8|0,1:2|1:2,2:0:0:0:
457,347,163424,1,10,1:2:0:0:
481,259,163600,1,2,1:2:0:0:
506,171,163777,6,0,P|474:110|408:95,1,140,10|0,1:2|1:2,2:0:0:0:
323,118,164306,2,0,B|317:84|317:84|340:36,1,70,8|0,1:2|1:2,2:0:0:0:
408,95,164659,1,0,1:2:0:0:
394,182,164835,2,0,P|365:202|331:210,1,70,10|0,1:2|1:2,2:0:0:0:
236,153,165188,1,10,1:2:0:0:
236,153,165277,1,0,1:2:0:0:
236,153,165365,6,0,L|146:137,1,70,2|2,1:2|1:2,2:0:0:0:
93,65,165718,1,10,1:2:0:0:
34,140,165894,2,0,L|61:281,1,140,2|10,1:2|1:2,2:0:0:0:
18,359,166424,1,2,1:2:0:0:
60,277,166600,6,0,P|124:277|176:327,1,140,10|0,1:2|1:2,2:0:0:0:
267,368,167129,2,0,B|275:333|275:333|266:287,1,70,8|0,1:2|1:2,2:0:0:0:
240,210,167482,1,2,1:2:0:0:
240,210,167659,1,10,1:2:0:0:
310,139,167835,1,2,1:2:0:0:
382,203,168012,6,0,B|407:203|429:213|445:229|445:229|445:229|445:229|462:247|485:256|508:256,1,140,10|0,1:2|1:2,2:0:0:0:
499,340,168541,2,0,P|463:349|428:361,1,70,8|0,1:2|1:2,2:0:0:0:
351,312,168894,1,2,1:2:0:0:
351,312,169071,1,10,1:2:0:0:
382,203,169247,1,2,1:2:0:0:
494,222,169424,6,0,L|508:149,1,70,10|0,1:2|1:2,1:2:0:0:
507,63,169777,1,0,1:2:0:0:
422,52,169953,2,0,L|313:74,1,105,0|0,1:2|2:0,2:0:0:0:
308,77,170306,1,0,1:2:0:0:
233,137,170482,1,0,1:2:0:0:
233,137,170571,1,0,1:2:0:0:
233,137,170659,2,0,P|217:94|193:70,1,70,6|2,1:2|2:0,2:0:0:0:
108,34,171012,6,0,L|95:112,1,70,6|0,1:2|1:2,2:0:0:0:
33,169,171365,1,10,1:2:0:0:
33,169,171541,1,2,1:2:0:0:
106,228,171718,1,2,1:2:0:0:
106,228,171894,1,10,1:2:0:0:
30,280,172071,2,0,P|10:309|3:343,1,70,2|10,1:2|1:2,2:0:0:0:
102,384,172424,6,0,P|121:354|128:320,1,70,2|2,1:2|1:2,2:0:0:0:
215,267,172777,2,0,P|251:303|301:315,1,105,10|0,1:2|2:0,2:0:0:0:
313,311,173129,2,0,B|339:286|339:286|350:241,1,70,2|10,1:2|1:2,2:0:0:0:
425,208,173482,2,0,B|415:173|415:173|381:141,1,70,2|10,1:2|1:2,2:0:0:0:
167,54,174012,5,2,1:2:0:0:
115,127,174188,2,0,L|39:109,1,70,10|2,1:2|1:2,2:0:0:0:
21,29,174541,1,2,1:2:0:0:
21,29,174718,1,10,1:2:0:0:
46,110,174894,2,0,L|64:186,1,70,2|10,1:2|1:2,2:0:0:0:
16,257,175247,5,2,1:2:0:0:
16,257,175424,2,0,B|62:280|62:280|118:270,1,105,2|0,1:2|2:0,2:0:0:0:
124,265,175777,2,0,P|110:297|108:332,1,70,2|0,1:2|1:2,2:0:0:0:
203,357,176129,2,0,P|217:325|219:290,1,70,10|2,1:2|1:2,2:0:0:0:
317,256,176482,1,8,1:2:0:0:
317,256,176571,1,2,1:2:0:0:
317,256,176659,6,0,P|337:284|366:303,1,70,2|2,1:2|1:2,2:0:0:0:
470,281,177012,1,10,1:2:0:0:
404,193,177188,2,0,P|438:189|469:174,1,70,2|2,1:2|1:2,2:0:0:0:
465,59,177541,2,0,P|389:64|342:134,1,140,10|10,1:2|1:2,2:0:0:0:
318,197,178071,5,2,1:2:0:0:
242,124,178247,2,0,B|210:110|210:110|163:114,1,70,2|10,1:2|1:2,2:0:0:0:
117,183,178600,2,0,L|101:286,1,105,2|0,1:2|2:0,2:0:0:0:
93,297,178953,2,0,L|78:220,2,70,10|2|10,1:2|1:2|1:2,2:0:0:0:
170,358,179482,6,0,P|238:360|270:285,1,140,2|8,1:2|1:2,2:0:0:0:
207,231,180012,1,2,1:2:0:0:
207,231,180188,2,0,B|197:155|197:155|233:86,1,140,2|2,1:2|1:2,2:0:0:0:
179,15,180718,1,10,1:2:0:0:
87,24,180894,5,2,1:2:0:0:
87,24,181071,1,2,1:2:0:0:
110,118,181247,1,8,1:2:0:0:
29,169,181424,1,10,1:2:0:0:
120,364,181777,5,10,1:2:0:0:
171,293,181953,1,10,1:2:0:0:
255,338,182129,1,2,1:2:0:0:
255,338,182218,1,0,1:2:0:0:
255,338,182306,6,0,L|332:358,1,70,6|0,1:2|1:2,2:0:0:0:
411,303,182659,1,10,1:2:0:0:
411,303,182835,1,2,1:2:0:0:
495,364,183012,2,0,B|505:330|505:330|498:281,1,70,2|10,1:2|1:2,2:0:0:0:
453,208,183365,2,0,B|419:198|419:198|384:202,1,70,2|10,1:2|1:2,2:0:0:0:
295,249,183718,5,2,1:2:0:0:
295,249,183894,1,2,1:2:0:0:
225,148,184071,2,0,P|277:104|345:110,1,140,10|2,1:2|1:2,2:0:0:0:
424,160,184600,1,10,1:2:0:0:
507,126,184777,1,2,1:2:0:0:
437,34,184953,6,0,L|298:13,1,140,10|2,1:2|1:2,2:0:0:0:
209,79,185482,2,0,L|226:154,1,70,10|2,1:2|1:2,2:0:0:0:
151,233,185835,1,2,1:2:0:0:
151,233,186012,1,10,1:2:0:0:
41,202,186188,1,2,1:2:0:0:
69,105,186365,1,10,1:2:0:0:
104,13,186541,5,2,1:2:0:0:
104,13,186718,2,0,B|151:38|151:38|209:25,1,105,2|0,1:2|2:0,2:0:0:0:
212,23,187071,2,0,L|196:105,1,70,2|0,1:2|1:2,2:0:0:0:
234,185,187424,1,10,1:2:0:0:
314,116,187600,2,0,L|327:70,3,35,0|0|8|0,1:2|1:2|1:2|1:2,2:0:0:0:
338,50,187953,6,0,P|396:15|463:31,1,140,2|8,1:2|1:2,2:0:0:0:
508,113,188482,1,0,1:2:0:0:
431,164,188659,2,0,B|420:199|420:199|430:250,1,70,2|8,1:2|1:2,2:0:0:0:
487,305,189012,1,2,1:2:0:0:
400,342,189188,6,0,L|328:325,1,70,10|0,1:2|1:2,2:0:0:0:
244,361,189541,1,2,1:2:0:0:
184,291,189718,2,0,L|205:177,1,105,10|0,1:2|2:0,2:0:0:0:
205,175,190071,2,0,P|146:211|79:198,1,140,0|2,1:2|1:2,2:0:0:0:
16,131,190600,1,10,1:2:0:0:
131,55,190777,5,2,1:2:0:0:
131,55,190953,2,0,B|139:91|139:91|130:131,1,70,2|8,1:2|1:2,2:0:0:0:
16,199,191306,2,0,B|8:163|8:163|17:123,1,70,2|0,1:2|1:2,2:0:0:0:
139,227,191659,1,10,1:2:0:0:
139,227,191747,1,0,1:2:0:0:
139,227,191835,2,0,L|147:296,1,70,0|8,1:2|1:2,2:0:0:0:
227,357,192188,5,2,1:2:0:0:
292,294,192365,1,8,1:3:0:0:
363,350,192541,1,8,1:3:0:0:
433,293,192718,1,8,1:3:0:0:
359,234,197848,5,2,2:0:0:0:
238,268,198024,1,8,1:2:0:0:
238,268,198112,1,0,1:2:0:0:
238,268,198200,2,0,L|252:177,1,84,8|8,1:3|1:3,2:0:0:0:
249,154,198465,1,0,1:2:0:0:
249,154,198553,2,0,P|212:136|170:139,1,84,10|0,1:2|1:2,2:0:0:0:
86,207,198906,5,8,1:2:0:0:
34,119,199083,1,14,1:2:0:0:
104,29,199259,6,0,L|233:54,1,126,2|0,1:2|1:2,1:2:0:0:
328,6,199789,1,2,2:0:0:0:
328,6,199965,2,0,L|351:150,1,126,2|2,1:2|2:0,2:0:0:0:
196,150,200671,6,0,B|133:162|133:162|69:118,1,126,2|0,1:2|1:2,2:0:0:0:
0,173,201200,2,0,P|12:212|21:245,1,63.0000000000001,2|0,1:2|1:2,0:0:0:0:
47,338,201553,5,10,1:2:0:0:
152,286,201730,1,8,1:2:0:0:
252,356,201906,6,0,B|300:338|300:338|281:266,1,126,14|0,1:2|2:0,2:0:0:0:
275,255,202259,1,0,1:2:0:0:
191,207,202436,6,0,P|189:165|207:127,1,84,8|0,1:2|1:2,2:0:0:0:
338,109,202789,5,8,1:2:0:0:
264,48,202965,1,0,1:2:0:0:
264,48,203142,1,0,1:2:0:0:
207,127,203318,6,0,B|177:127|150:138|130:156|130:156|108:176|81:185|53:185,1,168,12|0,1:2|1:2,2:0:0:0:
8,275,203848,2,0,P|49:285|90:314,1,84,8|0,1:2|1:2,2:0:0:0:
90,328,204112,1,0,1:2:0:0:
90,328,204200,5,10,1:2:0:0:
198,255,204377,1,2,1:2:0:0:
418,45,205083,5,4,1:2:0:0:
334,106,205259,2,0,L|235:84,1,84,8|2,1:2|1:2,2:0:0:0:
235,83,205524,1,2,1:2:0:0:
235,83,205612,1,2,1:2:0:0:
141,21,205789,2,0,B|122:59|122:59|139:116,1,84,2|8,2:0|1:2,2:0:0:0:
202,172,206142,2,0,P|210:233|176:285,1,126,2|0,2:0|2:0,2:0:0:0:
165,291,206495,2,0,L|65:274,1,84,2|8,2:0|1:2,2:0:0:0:
289,279,206848,1,2,2:0:0:0:
289,279,206936,1,2,2:0:0:0:
289,279,207024,6,0,L|413:300,1,126,2|0,1:2|2:0,2:0:0:0:
425,303,207377,1,10,1:2:0:0:
510,229,207553,2,0,P|494:190|461:164,1,84,2|0,2:0|1:2,2:0:0:0:
425,75,207906,2,0,P|383:69|345:84,1,84,2|8,2:0|1:2,2:0:0:0:
290,156,208259,1,2,2:0:0:0:
290,156,208348,1,0,2:0:0:0:
290,156,208436,6,0,B|229:132|229:132|250:72,2,126,2|2|2,1:2|2:0|2:0,2:0:0:0:
365,232,209142,2,0,P|400:208|440:199,1,84,2|0,1:2|2:0,2:0:0:0:
452,196,209406,2,0,L|425:346,1,126,2|2,2:0|2:0,2:0:0:0:
418,349,209759,1,0,2:0:0:0:
418,349,209848,2,0,P|364:316|302:321,2,126,2|2|14,1:2|2:0|2:0,2:0:0:0:
452,196,210553,6,0,L|308:166,1,126,2|0,1:2|2:0,2:0:0:0:
315,167,210906,1,8,1:2:0:0:
248,250,211083,1,2,2:0:0:0:
248,250,211171,1,2,2:0:0:0:
248,250,211259,2,0,L|141:272,1,84,2|0,1:2|2:0,2:0:0:0:
113,161,211612,1,10,1:2:0:0:
212,139,211789,1,0,2:0:0:0:
248,250,211965,6,0,B|279:249|306:264|322:288|322:288|338:314|367:326|395:325,1,168,2|8,1:2|1:2,2:0:0:0:
503,313,212495,1,2,2:0:0:0:
503,313,212583,1,2,2:0:0:0:
503,313,212671,2,0,B|508:269|508:269|492:225,1,84,2|2,1:2|2:0,2:0:0:0:
439,165,213024,1,8,1:2:0:0:
510,67,213200,6,0,L|416:48,1,84,14|0,1:2|2:0,2:0:0:0:
357,111,213553,1,10,1:2:0:0:
295,38,213730,2,0,L|248:29,3,42,10|8|8|8,1:2|1:2|1:2|1:2,2:0:0:0:
227,51,214083,2,0,L|218:98,3,42,10|8|8|8,1:2|1:2|1:2|1:2,2:0:0:0:
236,127,214436,1,10,1:2:0:0:
296,205,214612,6,0,L|282:290,1,84,10|8,1:2|1:2,2:0:0:0:
205,338,214965,1,10,1:2:0:0:
205,338,215053,1,8,1:2:0:0:
205,338,215142,2,0,L|155:348,3,42,10|8|8|8,1:2|1:2|1:2|1:2,2:0:0:0:
131,329,215495,2,0,L|81:319,3,42,10|8|8|8,1:2|1:2|1:2|1:2,2:0:0:0:
62,337,215848,1,8,1:2:0:0:
12,231,216024,6,0,P|6:189|21:151,1,84,4|0,1:2|2:0,2:0:0:0:
103,85,216377,1,2,1:2:0:0:
103,85,216465,1,0,1:2:0:0:
103,85,216553,1,10,1:2:0:0:
231,117,216730,1,2,1:2:0:0:
126,199,216906,2,0,L|155:381,1,168,10|8,1:2|1:2,2:0:0:0:
261,370,217436,6,0,P|279:328|311:303,1,84,6|8,1:2|1:2,2:0:0:0:
405,260,217789,1,2,1:2:0:0:
502,274,217965,1,10,1:2:0:0:
512,168,218142,1,2,1:2:0:0:
417,155,218318,2,0,B|387:157|362:171|343:191|343:191|343:191|343:191|323:213|297:225|269:227,1,168,10|8,1:2|1:2,2:0:0:0:
180,258,218848,6,0,P|173:217|188:178,1,84,6|8,1:2|1:2,2:0:0:0:
275,134,219200,1,2,1:2:0:0:
275,134,219377,1,10,1:2:0:0:
350,233,219553,2,0,P|309:240|270:225,1,84,2|8,1:2|1:2,2:0:0:0:
187,178,219906,1,2,1:2:0:0:
100,225,220083,1,10,1:2:0:0:
0,160,220259,6,0,P|17:227|35:339,1,168,6|0,1:2|1:2,2:0:0:0:
129,338,220789,2,0,P|164:316|206:313,1,84,8|2,1:2|1:2,2:0:0:0:
226,327,221053,1,0,1:2:0:0:
226,327,221142,2,0,P|256:356|296:366,1,84,10|0,1:2|1:2,2:0:0:0:
401,306,221495,1,8,1:2:0:0:
477,370,221671,1,6,1:2:0:0:
391,298,221847,6,0,L|414:168,1,126,10|0,1:2|2:0,2:0:0:0:
404,166,222200,2,0,B|363:159|363:159|324:176,1,84,12|0,1:2|1:2,2:0:0:0:
301,186,222465,1,0,1:2:0:0:
301,186,222553,2,0,P|261:173|230:138,1,84,12|0,1:2|1:2,2:0:0:0:
270,40,222906,1,12,1:2:0:0:
376,61,223083,1,0,1:2:0:0:
258,38,223259,6,0,B|196:28|196:28|129:67,1,126,12|0,1:2|2:0,2:0:0:0:
131,68,223612,2,0,L|43:48,1,84,12|0,1:2|1:2,2:0:0:0:
32,44,223877,1,0,1:2:0:0:
32,44,223965,1,12,1:2:0:0:
83,137,224142,1,0,1:2:0:0:
12,190,224318,1,12,1:2:0:0:
12,190,224495,1,4,1:2:0:0:
98,239,224671,6,0,B|114:277|114:277|104:322,1,84,2|0,2:0|1:2,2:0:0:0:
202,357,225024,2,0,L|296:341,1,84,8|2,1:2|2:0,2:0:0:0:
396,361,225377,1,8,1:2:0:0:
367,272,225553,2,0,L|383:173,1,84,0|2,1:2|1:2,2:0:0:0:
306,92,225906,6,0,B|268:68|228:71|228:71|188:112|139:108,1,168,12|2,1:2|1:2,2:0:0:0:
145,21,226436,1,8,1:2:0:0:
145,21,226612,1,0,1:2:0:0:
152,108,226789,2,0,P|151:150|134:188,1,84,10|0,1:2|2:0,2:0:0:0:
28,246,227142,2,0,P|92:258|128:317,1,126,14|0,1:2|2:0,2:0:0:0:
126,315,227495,6,0,P|147:351|187:368,1,77,12|0,1:2|1:2,2:0:0:0:
210,280,227847,1,0,1:2:0:0:
288,358,228024,2,0,P|322:298|425:293,1,154,12|0,1:2|1:2,2:0:0:0:
495,325,228553,2,0,B|504:285|504:285|491:227,1,77,12|0,1:2|1:2,2:0:0:0:
443,169,228906,5,12,1:2:0:0:
494,96,229083,1,0,1:2:0:0:
494,96,229259,1,0,1:2:0:0:
410,38,229436,2,0,B|380:38|354:50|334:68|334:68|334:68|334:68|312:88|284:98|257:98,1,154,12|0,1:2|1:2,2:0:0:0:
189,53,229965,2,0,P|145:32|91:35,1,77,12|0,1:2|1:2,2:0:0:0:
17,125,230318,5,12,1:2:0:0:
88,185,230495,2,0,L|179:163,1,77,0|0,1:2|1:2,2:0:0:0:
211,248,230847,2,0,L|34:294,1,154,12|0,1:2|1:2,2:0:0:0:
21,363,231377,1,12,1:2:0:0:
165,345,231553,6,0,B|218:356|218:356|265:336|265:336|316:348,1,154,4|0,1:2|1:2,2:0:0:0:
396,361,232083,5,8,1:2:0:0:
427,263,232259,1,0,1:2:0:0:
512,342,232436,1,8,1:2:0:0:
512,342,232612,1,0,1:2:0:0:
419,255,232789,2,0,B|410:217|410:217|425:158,1,77,8|0,1:2|1:2,2:0:0:0:
341,131,233142,6,0,P|312:156|262:163,1,77,12|0,1:2|1:2,2:0:0:0:
266,74,233495,1,0,1:2:0:0:
390,52,233671,2,0,P|434:113|427:188,1,154,12|0,1:2|1:2,2:0:0:0:
430,283,234200,2,0,B|391:280|391:280|359:257,1,77,12|0,1:2|1:2,2:0:0:0:
278,166,234553,5,12,1:2:0:0:
205,225,234730,1,0,1:2:0:0:
205,225,234906,1,0,1:2:0:0:
134,153,235083,2,0,B|78:166|78:166|50:200|50:200|-10:217,1,154,12|0,1:2|1:2,2:0:0:0:
41,291,235612,2,0,P|79:297|113:320,1,77,12|0,1:2|1:2,2:0:0:0:
217,373,235965,5,12,1:2:0:0:
276,306,236142,2,0,L|359:286,1,77,0|0,1:2|1:2,2:0:0:0:
467,230,236495,2,0,L|434:380,1,154,12|0,1:2|1:2,2:0:0:0:
350,287,237024,1,12,1:2:0:0:
419,135,237200,6,0,P|369:191|295:190,1,154,4|0,1:2|1:2,2:0:0:0:
207,140,237730,1,8,1:2:0:0:
151,217,237906,1,8,1:2:0:0:
69,165,238083,1,8,1:2:0:0:
127,83,238259,1,8,1:2:0:0:
207,140,238436,5,8,1:2:0:0:
282,94,238612,2,0,L|376:75,1,77,8|0,1:2|1:2,2:0:0:0:
461,102,238965,6,0,P|475:199|378:181,1,231,12|0,1:2|1:2,2:0:0:0:
355,75,239671,5,12,1:2:0:0:
260,176,239847,1,12,1:2:0:0:
211,41,240024,1,12,1:2:0:0:
256,192,240112,12,0,241921,2:0:0:0:
