osu file format v14

[General]
AudioFilename: audio.mp3
AudioLeadIn: 0
PreviewTime: 48799
Countdown: 0
SampleSet: Soft
StackLeniency: 0.4
Mode: 0
LetterboxInBreaks: 0
WidescreenStoryboard: 1

[Editor]
Bookmarks: 12876,49409,75001,134130,159718,205083,227495
DistanceSpacing: 1.2
BeatDivisor: 8
GridSize: 4
TimelineZoom: 3.299999

[Metadata]
Title:Koe?
TitleUnicode:声?
Artist:Hatena
ArtistUnicode:はてな
Creator:Narrative
Version:Perseverance?
Source:Dr.STONE
Tags:rock jrock j-rock dr. pop-rock pop jpop j-pop anime 2021 japanese season 2 stone wars 2nd 第2期 あさぎりゲン asagiri gen voice? telescope ドクターストーン dr ed ending 3 full ver version Confusianism
BeatmapID:3923278
BeatmapSetID:1902951

[Difficulty]
HPDrainRate:6.5
CircleSize:4.3
OverallDifficulty:9
ApproachRate:9.2
SliderMultiplier:1.8
SliderTickRate:0.5

[Events]
//Background and Video events
0,0,"bg 77a.jpeg",0,0
//Break Periods
//Storyboard Layer 0 (Background)
//Storyboard Layer 1 (Fail)
//Storyboard Layer 2 (Pass)
//Storyboard Layer 3 (Foreground)
//Storyboard Layer 4 (Overlay)
//Storyboard Sound Samples

[TimingPoints]
1582,352.941176470588,4,2,3,60,1,0
11464,-400,4,2,3,60,0,0
12434,-400,4,2,3,5,0,0
12523,-66.6666666666667,4,2,3,60,0,0
12787,-66.6666666666667,4,2,3,5,0,0
12876,-105.263157894737,4,2,3,60,0,0
15523,-76.9230769230769,4,2,3,60,0,0
16229,-105.263157894737,4,2,3,60,0,0
17904,-105.263157894737,4,2,3,5,0,0
17993,-80.0000000000001,4,2,3,60,0,0
19052,-105.263157894737,4,2,3,60,0,0
20905,-105.263157894737,4,2,3,5,0,0
20993,-105.263157894737,4,2,3,60,0,0
22140,-105.263157894737,4,2,3,5,0,0
22229,-105.263157894737,4,2,3,60,0,0
22405,-86.9565217391306,4,2,3,60,0,0
22669,-86.9565217391306,4,2,3,5,0,0
22758,-86.9565217391306,4,2,3,60,0,0
23287,355.029585798817,4,2,3,60,1,0
23287,-86.9565217391304,4,2,3,50,0,0
23553,-100,4,2,3,5,0,0
23642,-100,4,2,3,60,0,0
24174,352.941176470588,4,2,3,60,1,0
24174,-105.263157894737,4,2,3,60,0,0
24438,-105.263157894737,4,2,3,5,0,0
24526,-105.263157894737,4,2,3,60,0,0
30967,-105.263157894737,4,2,3,5,0,0
31056,-105.263157894737,4,2,3,60,0,0
33173,-90.9090909090909,4,2,3,60,0,0
33703,-80,4,2,3,60,0,0
33967,-80,4,2,3,5,0,0
34056,-80,4,2,3,60,0,0
34849,-80,4,2,3,5,0,0
34938,-80,4,2,3,60,0,0
35468,-83.3333333333333,4,2,3,60,0,0
35644,-83.3333333333333,4,2,3,5,0,0
35732,-83.3333333333333,4,2,3,60,0,0
35908,-83.3333333333333,4,2,3,5,0,0
35997,-83.3333333333333,4,2,3,60,0,0
36173,-125,4,2,3,60,0,0
36879,-83.3333333333333,4,2,3,60,0,0
37055,-83.3333333333333,4,2,3,5,0,0
37144,-83.3333333333333,4,2,3,60,0,0
37320,-83.3333333333333,4,2,3,5,0,0
37409,-83.3333333333333,4,2,3,60,0,0
37938,-66.6666666666667,4,2,3,60,0,0
38291,-71.4285714285714,4,2,3,60,0,0
38644,-83.3333333333333,4,2,3,60,0,0
38908,-83.3333333333333,4,2,3,5,0,0
38997,-71.4285714285714,4,2,3,60,0,0
39350,-83.3333333333333,4,2,3,60,0,0
39614,-83.3333333333333,4,2,3,5,0,0
39703,-200,4,2,3,60,0,0
40232,-200,4,2,3,5,0,0
40409,-83.3333333333333,4,2,3,60,0,0
41115,-100,4,2,3,60,0,0
43762,-66.6666666666667,4,2,3,60,0,0
43850,-66.6666666666667,4,2,3,5,0,0
43938,-66.6666666666667,4,2,3,60,0,0
44821,-100,4,2,3,60,0,0
45173,-66.6666666666667,4,2,3,60,0,0
45350,-80,4,2,3,60,0,0
47115,-100,4,2,3,60,0,0
47732,-100,4,2,3,5,0,0
47821,-76.9230769230769,4,2,3,60,0,0
48085,-76.9230769230769,4,2,3,5,0,0
48173,-76.9230769230769,4,2,3,60,0,0
48261,-76.9230769230769,4,2,3,5,0,0
48350,-58.8235294117647,4,2,3,60,0,0
48438,-58.8235294117647,4,2,3,5,0,0
48526,-58.8235294117647,4,2,3,60,0,0
48614,-58.8235294117647,4,2,3,5,0,0
48703,-58.8235294117647,4,2,3,60,0,0
48879,-133.333333333333,4,2,3,60,0,0
49143,-133.333333333333,4,2,3,5,0,0
49232,-133.333333333333,4,2,3,60,0,0
49409,-74.074074074074,4,2,3,75,0,1
49673,-74.074074074074,4,2,3,5,0,1
49762,-74.074074074074,4,2,3,75,0,1
49938,-90.9090909090909,4,2,3,75,0,1
51085,-90.9090909090909,4,2,3,5,0,1
51173,-90.9090909090909,4,2,3,75,0,1
51967,-90.9090909090909,4,2,3,5,0,1
52056,-90.9090909090909,4,2,3,75,0,1
52496,-90.9090909090909,4,2,3,5,0,1
52585,-90.9090909090909,4,2,3,75,0,1
56202,-90.9090909090909,4,2,3,5,0,1
56291,-90.9090909090909,4,2,3,75,0,1
58143,-90.9090909090909,4,2,3,5,0,1
58232,-90.9090909090909,4,2,3,75,0,1
62379,-90.9090909090909,4,2,3,5,0,1
62468,-90.9090909090909,4,2,3,75,0,1
63790,-90.9090909090909,4,2,3,5,0,1
63879,-90.9090909090909,4,2,3,75,0,1
66790,-90.9090909090909,4,2,3,5,0,1
66879,-90.9090909090909,4,2,3,75,0,1
67849,-90.9090909090909,4,2,3,5,0,1
67938,-90.9090909090909,4,2,3,75,0,1
68732,-90.9090909090909,4,2,3,5,0,1
68821,-90.9090909090909,4,2,3,75,0,1
69437,-90.9090909090909,4,2,3,5,0,1
69526,-90.9090909090909,4,2,3,75,0,1
73673,-90.9090909090909,4,2,3,5,0,1
73762,-66.6666666666667,4,2,3,75,0,1
74291,355.029585798817,4,2,3,75,1,1
74468,-125,4,2,3,75,0,1
75001,352.941176470588,4,2,3,55,1,0
75001,-125,4,2,3,55,0,0
75530,-111.111111111111,4,2,3,55,0,0
76853,-111.111111111111,4,2,3,5,0,0
76942,-111.111111111111,4,2,3,55,0,0
79147,-111.111111111111,4,2,3,5,0,0
79236,-111.111111111111,4,2,3,55,0,0
80030,-111.111111111111,4,2,3,5,0,0
80119,-111.111111111111,4,2,3,55,0,0
80295,-83.3333333333333,4,2,3,55,0,0
80383,-83.3333333333333,4,2,3,5,0,0
80472,-83.3333333333333,4,2,3,55,0,0
80560,-83.3333333333333,4,2,3,5,0,0
80648,-83.3333333333333,4,2,3,55,0,0
80825,-111.111111111111,4,2,3,55,0,0
81707,-83.3333333333333,4,2,3,55,0,0
82236,-111.111111111111,4,2,3,55,0,0
82500,-111.111111111111,4,2,3,5,0,0
82589,-111.111111111111,4,2,3,55,0,0
83383,-111.111111111111,4,2,3,5,0,0
83472,-111.111111111111,4,2,3,55,0,0
84530,-90.9090909090909,4,2,3,55,0,0
84794,-90.9090909090909,4,2,3,5,0,0
84883,-90.9090909090909,4,2,3,55,0,0
85060,-71.4285714285714,4,2,3,55,0,0
85148,-71.4285714285714,4,2,3,5,0,0
85236,-71.4285714285714,4,2,3,55,0,0
85324,-71.4285714285714,4,2,3,5,0,0
85413,-142.857142857143,4,2,3,55,0,0
86295,-105.263157894737,4,2,3,60,0,0
86559,-105.263157894737,4,2,3,5,0,0
86648,-105.263157894737,4,2,3,60,0,0
90265,-105.263157894737,4,2,3,5,0,0
90354,-105.263157894737,4,2,3,60,0,0
91589,-74.0740740740742,4,2,3,60,0,0
91677,-74.0740740740742,4,2,3,5,0,0
91766,-74.0740740740742,4,2,3,60,0,0
91854,-74.0740740740742,4,2,3,5,0,0
91942,-105.263157894737,4,2,3,60,0,0
92206,-105.263157894737,4,2,3,5,0,0
92295,-105.263157894737,4,2,3,60,0,0
95736,-105.263157894737,4,2,3,5,0,0
95825,-105.263157894737,4,2,3,60,0,0
97236,-80.0000000000001,4,2,3,60,0,0
97500,-80.0000000000001,4,2,3,5,0,0
97589,-105.263157894737,4,2,3,60,0,0
97853,-105.263157894737,4,2,3,5,0,0
97942,-105.263157894737,4,2,3,60,0,0
100147,-105.263157894737,4,2,3,5,0,0
100236,-105.263157894737,4,2,3,60,0,0
101825,-80.0000000000001,4,2,3,60,0,0
102001,-80.0000000000001,4,2,3,5,0,0
102089,-80.0000000000001,4,2,3,60,0,0
102265,-80.0000000000001,4,2,3,5,0,0
102354,-80.0000000000001,4,2,3,60,0,0
102442,-80.0000000000001,4,2,3,5,0,0
102530,-80.0000000000001,4,2,3,60,0,0
102706,-80.0000000000001,4,2,3,5,0,0
102795,-80.0000000000001,4,2,3,60,0,0
102971,-80.0000000000001,4,2,3,5,0,0
103060,-80.0000000000001,4,2,3,60,0,0
103148,-80.0000000000001,4,2,3,5,0,0
103236,-142.857142857143,4,2,3,60,0,0
103853,-142.857142857143,4,2,3,5,0,0
103942,-125,4,2,3,60,0,0
104559,-125,4,2,3,5,0,0
104648,-111.111111111111,4,2,3,60,0,0
105265,-111.111111111111,4,2,3,5,0,0
105354,-100,4,2,3,60,0,0
105971,-100,4,2,3,5,0,0
106060,-200,4,2,3,60,0,0
107383,-200,4,2,3,5,0,0
107472,-200,4,2,3,60,0,0
107707,-71.4285714285714,4,2,3,60,0,0
108177,-125,4,2,3,60,0,0
108530,-66.6666666666667,4,2,3,60,0,0
108794,-66.6666666666667,4,2,3,5,0,0
108883,-83.3333333333333,4,2,3,60,0,0
109059,-83.3333333333333,4,2,3,5,0,0
109148,-83.3333333333333,4,2,3,60,0,0
109324,-83.3333333333333,4,2,3,5,0,0
109413,-83.3333333333333,4,2,3,60,0,0
109589,-117.647058823529,4,2,3,60,0,0
110295,-83.3333333333333,4,2,3,60,0,0
110471,-83.3333333333333,4,2,3,5,0,0
110560,-83.3333333333333,4,2,3,60,0,0
110736,-83.3333333333333,4,2,3,5,0,0
110825,-83.3333333333333,4,2,3,60,0,0
111618,-83.3333333333333,4,2,3,5,0,0
111707,-83.3333333333333,4,2,3,60,0,0
111883,-83.3333333333333,4,2,3,5,0,0
111972,-83.3333333333333,4,2,3,60,0,0
112148,-83.3333333333333,4,2,3,5,0,0
112236,-83.3333333333333,4,2,3,60,0,0
112413,-117.647058823529,4,2,3,60,0,0
113119,-83.3333333333333,4,2,3,60,0,0
113295,-83.3333333333333,4,2,3,5,0,0
113383,-83.3333333333333,4,2,3,60,0,0
113559,-83.3333333333333,4,2,3,5,0,0
113648,-83.3333333333333,4,2,3,60,0,0
114441,-83.3333333333333,4,2,3,5,0,0
114530,-83.3333333333333,4,2,3,60,0,0
114706,-83.3333333333333,4,2,3,5,0,0
114795,-83.3333333333333,4,2,3,60,0,0
114971,-83.3333333333333,4,2,3,5,0,0
115060,-83.3333333333333,4,2,3,60,0,0
115413,-117.647058823529,4,2,3,60,0,0
115677,-117.647058823529,4,2,3,5,0,0
115766,-117.647058823529,4,2,3,60,0,0
115942,-83.3333333333333,4,2,3,60,0,0
116383,-83.3333333333333,4,2,3,5,0,0
116472,-83.3333333333333,4,2,3,60,0,0
117001,-71.4285714285714,4,2,3,60,0,0
117265,-71.4285714285714,4,2,3,5,0,0
117354,-83.3333333333333,4,2,3,60,0,0
118413,-66.6666666666667,4,2,3,60,0,0
118677,-66.6666666666667,4,2,3,5,0,0
118766,-66.6666666666667,4,2,3,60,0,0
118854,-66.6666666666667,4,2,3,5,0,0
118942,-80,4,2,3,60,0,0
119030,-80,4,2,3,5,0,0
119119,-100,4,2,3,60,0,0
119207,-100,4,2,3,5,0,0
119295,-133.333333333333,4,2,3,60,0,0
119383,-133.333333333333,4,2,3,5,0,0
119472,-133.333333333333,4,2,3,60,0,0
120177,354.295837023915,4,2,3,70,1,0
122834,-66.6666666666667,4,2,3,70,0,0
123011,352.422907488987,4,2,3,70,1,0
123011,-71.4285714285714,4,2,3,70,0,0
123363,-100,4,2,3,70,0,0
123627,-100,4,2,3,5,0,0
123715,-100,4,2,3,70,0,0
124420,-200,4,2,3,70,0,0
124948,-200,4,2,3,5,0,0
125125,-83.3333333333333,4,2,3,70,0,0
125830,352.941176470588,4,2,3,70,1,0
126359,-66.6666666666667,4,2,3,70,0,0
126535,-100,4,2,3,70,0,0
126888,-66.6666666666667,4,2,3,70,0,0
127241,-100,4,2,3,70,0,0
127771,-66.6666666666667,4,2,3,70,0,0
127947,-100,4,2,3,70,0,0
128477,-66.6666666666667,4,2,3,70,0,0
129535,-83.3333333333333,4,2,3,70,0,0
129888,-66.6666666666667,4,2,3,70,0,0
131830,-100,4,2,3,70,0,0
132446,-100,4,2,3,5,0,0
132535,-66.6666666666667,4,2,3,70,0,0
132799,-66.6666666666667,4,2,3,5,0,0
132888,355.029585798817,4,2,3,70,1,0
132888,-58.8235294117647,4,2,3,70,0,0
132976,-58.8235294117647,4,2,3,5,0,0
133065,-58.8235294117647,4,2,3,70,0,0
133153,-58.8235294117647,4,2,3,5,0,0
133243,-58.8235294117647,4,2,3,70,0,0
133331,-58.8235294117647,4,2,3,5,0,0
133420,-58.8235294117647,4,2,3,70,0,0
133598,-133.333333333333,4,2,3,70,0,0
133864,-133.333333333333,4,2,3,5,0,0
133953,-133.333333333333,4,2,3,70,0,0
134130,-74.074074074074,4,2,3,80,0,1
134306,352.941176470588,4,2,3,80,1,1
134394,-74.074074074074,4,2,3,5,0,1
134482,-74.074074074074,4,2,3,80,0,1
135012,-90.9090909090909,4,2,3,80,0,1
135276,-90.9090909090909,4,2,3,5,0,1
135365,-90.9090909090909,4,2,3,80,0,1
135805,-90.9090909090909,4,2,3,5,0,1
135894,-90.9090909090909,4,2,3,80,0,1
136688,-90.9090909090909,4,2,3,5,0,1
136777,-90.9090909090909,4,2,3,80,0,1
137217,-90.9090909090909,4,2,3,5,0,1
137306,-90.9090909090909,4,2,3,80,0,1
139600,-66.6666666666667,4,2,3,80,0,1
139953,-90.9090909090909,4,2,3,80,0,1
140923,-90.9090909090909,4,2,3,5,0,1
141012,-90.9090909090909,4,2,3,80,0,1
142424,-66.6666666666667,4,2,3,80,0,1
142864,-66.6666666666667,4,2,3,5,0,1
142953,-66.6666666666667,4,2,3,80,0,1
143659,-90.9090909090909,4,2,3,80,0,1
143747,-90.9090909090909,4,2,3,5,0,1
143835,-90.9090909090909,4,2,3,80,0,1
143923,-90.9090909090909,4,2,3,5,0,1
144012,-90.9090909090909,4,2,3,80,0,1
144276,-90.9090909090909,4,2,3,5,0,1
144365,-90.9090909090909,4,2,3,80,0,1
147099,-90.9090909090909,4,2,3,5,0,1
147188,-90.9090909090909,4,2,3,80,0,1
148511,-90.9090909090909,4,2,3,5,0,1
148600,-90.9090909090909,4,2,3,80,0,1
150718,-66.6666666666667,4,2,3,80,0,1
151247,-90.9090909090909,4,2,3,80,0,1
151511,-90.9090909090909,4,2,3,5,0,1
151600,-90.9090909090909,4,2,3,80,0,1
152570,-90.9090909090909,4,2,3,5,0,1
152659,-90.9090909090909,4,2,3,80,0,1
152923,-90.9090909090909,4,2,3,5,0,1
153012,-66.6666666666667,4,2,3,80,0,1
153188,-90.9090909090909,4,2,3,80,0,1
153452,-90.9090909090909,4,2,3,5,0,1
153541,-90.9090909090909,4,2,3,80,0,1
153718,-66.6666666666667,4,2,3,80,0,1
155130,-76.9230769230769,4,2,3,80,0,1
158393,-76.9230769230769,4,2,3,5,0,1
158482,-76.9230769230769,4,2,3,80,0,1
158923,-76.9230769230769,4,2,3,5,0,1
159012,-100,4,2,3,80,0,1
159276,-100,4,2,3,5,0,1
159365,-76.923076923077,4,2,3,80,0,1
159629,-76.923076923077,4,2,3,5,0,1
159717,-76.923076923077,4,2,3,65,0,0
160600,-100,4,2,3,65,0,0
161217,-100,4,2,3,5,0,0
161306,-100,4,2,3,65,0,0
164217,-100,4,2,3,5,0,0
164306,-100,4,2,3,65,0,0
166158,-100,4,2,3,5,0,0
166247,-100,4,2,3,65,0,0
173041,-100,4,2,3,5,0,0
173129,-100,4,2,3,65,0,0
175688,-100,4,2,3,5,0,0
175777,-100,4,2,3,65,0,0
178864,-100,4,2,3,5,0,0
178953,-100,4,2,3,65,0,0
181688,-100,4,2,3,5,0,0
181777,-100,4,2,3,65,0,0
182570,-100,4,2,3,5,0,0
182659,-100,4,2,3,65,0,0
186982,-100,4,2,3,5,0,0
187071,-100,4,2,3,65,0,0
189452,-100,4,2,3,5,0,0
189541,-100,4,2,3,65,0,0
190512,-100,4,2,3,5,0,0
190600,-100,4,2,3,65,0,0
190688,-100,4,2,3,5,0,0
190777,-100,4,2,3,65,0,0
191217,-100,4,2,3,5,0,0
191306,-100,4,2,3,65,0,0
192188,-58.8235294117647,4,2,3,65,0,0
192276,-58.8235294117647,4,2,3,5,0,0
192365,-58.8235294117647,4,2,3,65,0,0
192453,-58.8235294117647,4,2,3,5,0,0
192541,-58.8235294117647,4,2,3,65,0,0
192629,-58.8235294117647,4,2,3,5,0,0
192718,-58.8235294117647,4,2,3,65,0,0
192806,-58.8235294117647,4,2,3,5,0,0
192894,-142.857142857143,4,2,3,65,0,0
193158,-142.857142857143,4,2,3,5,0,0
193247,-142.857142857143,4,2,3,65,0,0
193436,352.941176470588,4,2,3,50,1,0
193436,-142.857142857143,4,2,3,50,0,0
193613,352.941176470588,4,2,3,50,1,0
193965,-142.857142857143,4,2,3,50,0,0
195730,333.333333333333,4,2,3,50,1,0
195730,-142.857142857143,4,2,3,50,0,0
196063,352.941176470588,4,2,3,50,1,0
196239,-142.857142857143,4,2,3,50,0,0
196503,-142.857142857143,4,2,3,5,0,0
196592,337.078651685393,4,2,3,50,1,0
196592,-142.857142857143,4,2,3,50,0,0
196930,352.941176470588,4,2,3,50,1,0
197106,371.517027863777,4,2,3,50,1,0
197106,-166.666666666667,4,2,3,50,0,0
197848,352.941176470588,4,2,3,50,1,0
198024,-68.9655172413793,4,2,3,70,0,0
198553,-83.3333333333333,4,2,3,70,0,0
198817,-83.3333333333333,4,2,3,5,0,0
198906,-83.3333333333333,4,2,3,70,0,0
199612,-133.333333333333,4,2,3,70,0,0
201906,-66.6666666666667,4,2,3,70,0,0
202170,-66.6666666666667,4,2,3,5,0,0
202259,-66.6666666666667,4,2,3,70,0,0
203582,-66.6666666666667,4,2,3,5,0,0
203671,-66.6666666666667,4,2,3,70,0,0
205083,-74.0740740740741,4,2,3,80,0,1
205789,-86.9565217391304,4,2,3,80,0,1
206406,-86.9565217391304,4,2,3,5,0,1
206495,-86.9565217391304,4,2,3,80,0,1
207465,-86.9565217391304,4,2,3,5,0,1
207553,-86.9565217391304,4,2,3,80,0,1
210817,-86.9565217391304,4,2,3,5,0,1
210906,-86.9565217391304,4,2,3,80,0,1
213112,-86.9565217391304,4,2,3,5,0,1
213200,-86.9565217391304,4,2,3,80,0,1
213464,-86.9565217391304,4,2,3,5,0,1
213553,-86.9565217391304,4,2,3,80,0,1
216024,-68.9655172413793,4,2,3,80,0,1
216288,-68.9655172413793,4,2,3,5,0,1
216377,-68.9655172413793,4,2,3,80,0,1
221671,-57.1428571428571,4,2,3,80,0,1
221847,-68.9655172413793,4,2,3,80,0,1
224230,-68.9655172413793,4,2,3,5,0,1
224318,-68.9655172413793,4,2,3,80,0,1
224406,-68.9655172413793,4,2,3,5,0,1
224495,-68.9655172413793,4,2,3,80,0,1
224583,-68.9655172413793,4,2,3,5,0,1
224671,-68.9655172413793,4,2,3,80,0,1
224935,-68.9655172413793,4,2,3,5,0,1
225024,-68.9655172413793,4,2,3,80,0,1
226170,-68.9655172413793,4,2,3,5,0,1
226259,-68.9655172413793,4,2,3,80,0,1
226700,-68.9655172413793,4,2,3,5,0,1
226789,-83.3333333333333,4,2,3,80,0,1
227053,-83.3333333333333,4,2,3,5,0,1
227142,-68.9655172413793,4,2,3,80,0,1
227406,-68.9655172413793,4,2,3,5,0,1
227495,-68.9655172413793,4,2,3,70,0,0
228024,-86.9565217391304,4,2,3,70,0,0
228288,-86.9565217391304,4,2,3,5,0,0
228377,-86.9565217391304,4,2,3,70,0,0
229700,-86.9565217391304,4,2,3,5,0,0
229789,-86.9565217391304,4,2,3,70,0,0
231111,-86.9565217391304,4,2,3,5,0,0
231200,-86.9565217391304,4,2,3,70,0,0
231377,-74.0740740740741,4,2,3,70,0,0
231817,-74.0740740740741,4,2,3,5,0,0
231906,-74.0740740740741,4,2,3,70,0,0
233671,-86.9565217391304,4,2,3,70,0,0
233935,-86.9565217391304,4,2,3,5,0,0
234024,-86.9565217391304,4,2,3,70,0,0
235347,-86.9565217391304,4,2,3,5,0,0
235436,-86.9565217391304,4,2,3,70,0,0
236759,-86.9565217391304,4,2,3,5,0,0
236847,-86.9565217391304,4,2,3,70,0,0
237024,-74.0740740740741,4,2,3,70,0,0
237464,-74.0740740740741,4,2,3,5,0,0
237553,-74.0740740740741,4,2,3,70,0,0
238965,-117.647058823529,4,2,3,70,0,0
239406,-117.647058823529,4,2,3,5,0,0
239495,-117.647058823529,4,2,3,70,0,0
239671,-57.1428571428571,4,2,3,70,0,0

[Colours]
Combo1 : 239,201,215
Combo2 : 203,186,239
Combo3 : 164,167,200
Combo4 : 174,147,247

[HitObjects]
216,315,11464,6,0,P|183:348|192:302,1,123.75,2|0,2:0|2:0,2:0:0:0:
283,246,12523,6,0,P|284:164|223:217,1,202.5,8|0,2:0|2:0,2:0:0:0:
290,259,12876,6,0,L|462:223,1,171,4|2,1:2|1:2,2:0:0:0:
511,371,13405,2,0,P|470:362|438:335,1,85.4999999999999,10|0,1:2|2:0,2:0:0:0:
370,242,13758,1,2,1:2:0:0:
252,339,13934,2,0,L|339:368,1,85.4999999999999,8|2,1:2|2:0,2:0:0:0:
507,294,14287,5,0,1:2:0:0:
507,294,14464,2,0,L|485:204,1,85.4999999999999,2|0,1:2|2:0,2:0:0:0:
408,122,14817,2,0,B|377:115|349:125|329:145|329:145|329:145|329:145|308:168|278:175|251:169,1,171,10|2,1:2|1:2,2:0:0:0:
81,32,15434,5,8,1:2:0:0:
68,34,15523,2,0,L|57:98,1,58.5,10|0,1:2|2:0,2:0:0:0:
108,178,15699,5,0,1:2:0:0:
238,133,15876,1,2,2:0:0:0:
148,78,16052,1,0,1:2:0:0:
15,221,16229,2,0,P|27:287|133:314,1,171,10|2,1:2|1:2,2:0:0:0:
225,362,16758,2,0,B|237:321|237:321|211:267,1,85.4999999999999,8|2,1:2|2:0,2:0:0:0:
15,221,17111,5,0,1:2:0:0:
161,129,17287,2,0,L|141:231,1,85.4999999999999,0|0,1:2|1:2,2:0:0:0:
225,362,17640,2,0,B|278:350|278:350|297:326|297:326|339:316,1,128.25,8|0,1:2|2:0,2:0:0:0:
414,356,17993,6,0,P|417:328|424:300,1,56.2499999999999,2|0,1:2|2:0,2:0:0:0:
319,146,18170,2,0,P|315:173|308:201,1,56.2499999999999,14|0,1:2|2:0,2:0:0:0:
503,302,18346,1,10,1:2:0:0:
504,285,18434,1,8,1:2:0:0:
498,271,18523,5,2,1:2:0:0:
391,200,18699,1,2,2:0:0:0:
339,309,18876,1,2,1:2:0:0:
197,143,19052,2,0,B|225:319,1,171,10|2,1:2|1:2,2:0:0:0:
71,300,19581,2,0,P|81:259|114:226,1,85.4999999999999,8|2,1:2|2:0,2:0:0:0:
197,143,19934,5,0,1:2:0:0:
197,143,20111,2,0,P|239:140|281:158,1,85.4999999999999,2|0,1:2|2:0,2:0:0:0:
389,251,20464,2,0,L|371:342,1,85.4999999999999,10|0,1:2|2:0,2:0:0:0:
298,327,20729,1,8,1:2:0:0:
287,323,20817,2,0,L|298:277,1,42.7499999999999,2|0,1:2|2:0,2:0:0:0:
472,225,20993,5,8,1:2:0:0:
372,90,21170,2,0,P|376:132|400:167,1,85.4999999999999,2|0,2:0|1:2,2:0:0:0:
499,128,21523,2,0,P|495:86|471:51,1,85.4999999999999,2|0,2:0|1:2,2:0:0:0:
300,38,21876,6,0,B|251:48|251:48|227:74|227:74|182:84,1,128.25,10|0,1:2|2:0,2:0:0:0:
120,51,22229,1,2,1:2:0:0:
10,194,22405,6,0,L|170:229,1,155.25,12|0,1:2|2:0,2:0:0:0:
352,284,22758,5,12,1:2:0:0:
230,308,22934,1,0,1:2:0:0:
108,337,23111,1,0,1:2:0:0:
332,178,23287,6,0,B|300:140|267:131|267:131|236:157|182:146,1,155.250002961159,12|0,1:2|2:0,2:0:0:0:
205,67,23642,1,2,1:2:0:0:
332,178,23819,1,14,1:2:0:0:
469,63,23997,1,8,1:3:0:0:
469,63,24085,1,8,1:3:0:0:
469,63,24174,6,0,P|407:52|355:87,1,128.25,6|0,1:2|2:0,2:0:0:0:
423,134,24526,1,0,1:2:0:0:
290,43,24703,2,0,L|201:22,1,85.4999999999999,10|8,1:2|1:3,2:0:0:0:
197,29,24968,1,8,1:2:0:0:
189,36,25056,1,2,1:2:0:0:
111,142,25232,1,10,1:2:0:0:
41,31,25409,1,2,2:0:0:0:
119,152,25585,6,0,B|119:182|103:209|81:225|81:225|81:225|81:225|56:241|42:270|43:298,1,171,2|0,1:2|1:2,2:0:0:0:
239,371,26115,2,0,B|227:330|227:330|245:289,1,85.4999999999999,10|0,1:2|1:2,2:0:0:0:
413,272,26468,1,2,1:2:0:0:
341,322,26644,1,10,1:2:0:0:
309,235,26821,1,2,2:0:0:0:
446,351,26997,6,0,B|513:322|513:322|483:228,1,171,2|0,1:2|1:2,2:0:0:0:
347,115,27526,2,0,P|373:147|413:158,1,85.4999999999999,10|8,1:2|1:3,2:0:0:0:
423,150,27791,1,8,1:2:0:0:
431,140,27879,1,2,1:2:0:0:
512,2,28056,2,0,L|413:24,1,85.4999999999999,8|2,1:2|2:0,2:0:0:0:
347,115,28409,6,0,B|334:178|334:178|300:211|300:211|287:268,1,171,0|0,1:2|1:2,2:0:0:0:
378,348,28938,2,0,L|461:331,1,85.4999999999999,8|2,1:2|1:2,2:0:0:0:
286,268,29291,1,8,1:3:0:0:
282,275,29379,1,8,1:3:0:0:
279,283,29468,1,10,1:3:0:0:
260,300,29556,1,8,1:2:0:0:
224,313,29644,1,10,1:2:0:0:
173,302,29732,1,8,1:2:0:0:
128,267,29821,5,14,1:2:0:0:
163,120,29997,1,2,2:0:0:0:
23,171,30173,1,2,1:2:0:0:
174,117,30350,1,10,1:2:0:0:
121,279,30526,1,2,1:2:0:0:
212,344,30703,2,0,L|341:313,1,128.25,2|0,1:2|2:0,2:0:0:0:
405,352,31056,6,0,L|426:259,1,85.4999999999999,2|0,2:0|1:2,2:0:0:0:
369,157,31409,1,2,2:0:0:0:
449,113,31585,1,2,1:2:0:0:
490,183,31762,2,0,P|409:136|405:55,1,171,10|2,1:2|1:2,2:0:0:0:
472,25,32291,1,8,1:2:0:0:
472,25,32468,1,2,2:0:0:0:
294,125,32644,6,0,B|286:81|286:81|310:47,1,85.4999999999999,2|0,1:2|1:2,2:0:0:0:
372,111,32997,1,0,1:2:0:0:
130,21,33173,6,0,L|152:141,1,99,10|0,1:2|1:2,2:0:0:0:
142,132,33438,1,8,1:3:0:0:
137,146,33526,1,0,1:2:0:0:
6,257,33703,6,0,B|63:273|63:273|93:332|93:332|147:345,1,168.75,12|0,1:2|2:0,2:0:0:0:
7,346,34056,5,4,1:2:0:0:
221,230,34232,1,8,1:2:0:0:
150,268,34409,1,0,1:2:0:0:
13,77,34585,6,0,B|59:66|90:100|90:100|114:49|168:36,1,168.75,12|0,1:2|2:0,2:0:0:0:
221,33,34938,1,0,1:2:0:0:
275,49,35026,1,0,1:2:0:0:
303,83,35115,1,10,1:2:0:0:
319,112,35203,1,8,1:3:0:0:
318,134,35291,1,8,1:3:0:0:
313,144,35379,1,8,1:3:0:0:
308,147,35468,6,0,L|180:176,1,108,6|0,1:2|2:0,2:0:0:0:
134,136,35732,2,0,B|118:189|118:189|160:247,1,108,0|0,1:2|2:0,2:0:0:0:
202,170,35997,1,2,1:2:0:0:
34,304,36173,6,0,P|104:311|153:361,1,144,8|2,1:2|2:0,2:0:0:0:
148,231,36703,1,10,2:0:0:0:
306,356,36879,6,0,B|294:304|294:304|329:260,1,108,2|0,1:2|2:0,2:0:0:0:
417,282,37144,2,0,B|429:334|429:334|394:378,1,108,0|0,1:2|2:0,2:0:0:0:
328,261,37409,1,2,1:2:0:0:
500,202,37585,6,0,B|469:183|469:183|498:106,1,108,8|2,1:2|1:2,2:0:0:0:
425,59,37850,1,0,1:2:0:0:
430,70,37938,6,0,P|394:110|299:112,1,135,14|2,2:0|2:0,2:0:0:0:
95,12,38291,6,0,P|109:75|120:135,1,126,6|0,1:2|2:0,2:0:0:0:
191,173,38556,1,0,1:2:0:0:
183,166,38644,2,0,P|102:177|58:269,1,162,10|0,1:2|2:0,2:0:0:0:
120,354,38997,6,0,P|193:344|181:288,1,126,2|0,1:2|1:2,2:0:0:0:
260,264,39262,1,0,1:2:0:0:
256,255,39350,2,0,P|289:221|318:305,1,162,10|0,1:2|2:0,2:0:0:0:
39,373,39703,6,0,L|62:228,1,135,6|0,1:2|2:0,2:0:0:0:
149,134,40409,6,0,P|181:149|210:184,1,72,10|0,1:2|1:2,2:0:0:0:
132,209,40644,1,0,1:2:0:0:
79,89,40762,6,0,P|103:63|138:54,1,72,10|0,1:2|1:2,2:0:0:0:
149,134,40997,1,0,1:2:0:0:
275,41,41115,6,0,L|259:129,1,90,6|0,1:2|2:0,2:0:0:0:
366,11,41379,1,0,2:0:0:0:
377,18,41468,2,0,L|395:118,1,90,2|0,1:2|2:0,2:0:0:0:
270,271,41732,1,0,2:0:0:0:
259,262,41821,6,0,P|257:217|279:179,1,90,2|0,1:2|2:0,2:0:0:0:
433,276,42085,1,0,2:0:0:0:
421,283,42173,2,0,P|378:270|348:237,1,90,2|0,1:2|2:0,2:0:0:0:
197,113,42438,1,0,2:0:0:0:
194,103,42526,6,0,B|231:77|231:77|312:93,1,90,2|0,1:2|2:0,2:0:0:0:
137,206,42791,1,0,2:0:0:0:
140,196,42879,2,0,B|103:170|103:170|59:178,1,90,2|0,1:2|2:0,2:0:0:0:
66,325,43144,1,0,2:0:0:0:
78,333,43232,6,0,L|174:313,1,90,2|0,1:2|2:0,2:0:0:0:
220,263,43497,1,0,2:0:0:0:
228,256,43585,2,0,L|276:265,1,45,2|0,1:2|2:0,2:0:0:0:
375,372,43762,6,0,L|361:299,1,67.5,10|0,1:2|2:0,2:0:0:0:
337,132,43938,1,6,1:2:0:0:
328,106,44026,1,0,2:0:0:0:
310,87,44115,1,0,2:0:0:0:
286,77,44203,1,0,2:0:0:0:
259,77,44291,1,2,1:2:0:0:
235,89,44379,1,0,2:0:0:0:
217,109,44468,1,0,2:0:0:0:
211,134,44556,1,0,2:0:0:0:
214,161,44644,1,2,1:2:0:0:
230,183,44732,1,0,2:0:0:0:
246,197,44821,6,0,L|301:183,1,45,2|0,2:0|2:0,2:0:0:0:
359,226,44997,2,0,L|414:240,1,45,2|0,1:2|2:0,2:0:0:0:
496,130,45173,6,0,L|430:145,1,67.5,10|0,1:2|2:0,2:0:0:0:
283,275,45350,2,0,P|272:301|269:329,1,56.25,2|0,1:2|2:0,2:0:0:0:
188,360,45526,5,8,1:2:0:0:
178,301,45615,1,0,1:2:0:0:
139,256,45703,1,8,1:2:0:0:
84,236,45791,1,0,1:2:0:0:
26,247,45879,1,8,1:2:0:0:
22,257,45968,1,0,1:2:0:0:
17,267,46056,5,10,1:2:0:0:
65,289,46144,1,8,1:2:0:0:
117,277,46232,1,8,1:2:0:0:
151,235,46321,1,8,1:2:0:0:
157,181,46409,5,10,1:2:0:0:
126,127,46497,1,8,1:2:0:0:
111,68,46585,1,8,1:2:0:0:
143,15,46673,1,8,1:2:0:0:
200,1,46762,5,12,1:2:0:0:
300,41,46938,1,0,1:2:0:0:
402,79,47115,2,0,L|519:41,1,90,2|0,1:2|2:0,2:0:0:0:
505,249,47468,6,0,P|469:194|404:189,1,135,10|0,1:2|2:0,2:0:0:0:
332,166,47821,6,0,P|279:222|161:210,1,175.5,14|0,1:2|2:0,2:0:0:0:
120,258,48173,2,0,P|108:227|130:184,1,58.5,8|0,1:2|2:0,2:0:0:0:
269,10,48350,6,0,P|307:33|348:44,1,76.5,8|0,1:3|2:0,2:0:0:0:
393,100,48526,2,0,P|431:77|472:66,1,76.5,8|0,1:3|2:0,2:0:0:0:
507,0,48703,5,8,1:3:0:0:
332,166,48879,6,0,P|379:184|417:218,1,101.25,2|0,2:0|2:0,2:0:0:0:
486,235,49232,2,0,P|491:210|501:183,1,33.7500000000001,2|0,2:0|2:0,2:0:0:0:
278,283,49409,6,0,B|248:282|218:295|200:322|200:322|183:346|154:363|122:361,1,182.25,6|0,1:2|2:0,2:0:0:0:
67,302,49762,2,0,P|78:270|84:234,1,60.7500000000001,2|0,2:0|2:0,2:0:0:0:
147,199,49938,2,0,P|136:170|130:140,1,49.5,10|0,1:2|2:0,2:0:0:0:
0,23,50115,1,2,2:0:0:0:
5,33,50203,1,2,2:0:0:0:
12,44,50291,6,0,P|55:66|103:63,1,99,2|0,1:2|2:0,2:0:0:0:
206,15,50644,1,10,1:2:0:0:
261,179,50821,6,0,B|230:184|209:228|209:228|183:190|141:199,1,148.5,2|0,2:0|2:0,2:0:0:0:
191,127,51173,2,0,P|184:103|175:80,1,49.5,2|0,2:0|2:0,2:0:0:0:
339,0,51350,2,0,P|345:23|354:46,1,49.5,10|0,1:2|2:0,2:0:0:0:
431,84,51526,1,2,2:0:0:0:
431,84,51615,1,2,2:0:0:0:
431,84,51703,6,0,P|359:94|303:159,1,148.5,2|0,1:2|2:0,2:0:0:0:
358,207,52056,1,10,1:2:0:0:
202,304,52232,6,0,B|235:273|276:278|276:278|300:312|341:312,1,148.5,2|0,2:0|2:0,2:0:0:0:
376,379,52585,2,0,P|405:340|406:287,1,99,2|8,2:0|1:2,2:0:0:0:
236,49,52938,1,2,2:0:0:0:
230,57,53026,1,2,2:0:0:0:
225,65,53115,6,0,L|253:169,1,99,2|0,1:2|2:0,2:0:0:0:
199,224,53379,2,0,L|76:203,1,99,2|0,2:0|2:0,2:0:0:0:
71,134,53644,2,0,L|109:79,1,49.5,2|0,2:0|2:0,2:0:0:0:
278,256,53821,6,0,P|251:296|205:313,1,99,2|0,1:2|2:0,2:0:0:0:
144,365,54085,2,0,P|96:352|66:314,1,99,2|0,2:0|2:0,2:0:0:0:
4,268,54350,2,0,P|7:243|19:222,1,49.5,2|2,2:0|2:0,2:0:0:0:
237,127,54526,6,0,B|187:136|187:136|140:91,1,99,2|0,1:2|2:0,2:0:0:0:
178,26,54791,2,0,B|228:17|228:17|275:62,1,99,2|0,2:0|2:0,2:0:0:0:
318,107,55056,2,0,L|334:172,1,49.5,2|0,2:0|2:0,2:0:0:0:
280,357,55232,6,0,B|213:332|213:332|248:202,1,198,2|8,1:2|1:2,2:0:0:0:
506,264,55762,1,2,2:0:0:0:
500,255,55850,1,2,2:0:0:0:
494,246,55938,2,0,P|420:246|374:312,1,148.5,2|0,1:2|2:0,2:0:0:0:
426,362,56291,2,0,B|477:371|477:371|531:323,1,99,10|0,1:2|2:0,2:0:0:0:
384,119,56644,6,0,B|349:113|316:126|294:150|294:150|294:150|294:150|270:176|236:186|204:181,1,198,2|8,1:2|1:2,2:0:0:0:
44,35,57173,5,2,2:0:0:0:
44,35,57262,1,2,2:0:0:0:
44,35,57350,1,2,1:2:0:0:
66,138,57526,1,2,2:0:0:0:
104,326,57703,5,8,1:2:0:0:
384,119,57879,6,0,B|338:105|338:105|313:70|313:70|257:56,1,148.5,14|0,1:2|2:0,2:0:0:0:
185,88,58232,1,0,1:2:0:0:
464,55,58409,5,8,1:2:0:0:
426,257,58585,1,0,1:2:0:0:
369,8,58762,5,8,1:2:0:0:
460,150,58938,1,0,1:2:0:0:
308,253,59115,1,0,1:2:0:0:
185,88,59291,6,0,B|129:74|88:105|88:105|78:156|25:181,1,198,12|0,1:2|1:2,2:0:0:0:
3,96,59821,5,8,1:2:0:0:
156,167,59997,1,0,2:0:0:0:
14,333,60173,5,10,1:2:0:0:
33,287,60262,1,8,1:2:0:0:
72,257,60350,1,8,1:2:0:0:
120,252,60438,1,8,1:2:0:0:
165,272,60526,2,0,P|181:293|214:308,1,49.5,10|8,1:2|1:2,2:0:0:0:
287,364,60703,2,0,P|307:348|322:315,1,49.5,14|0,1:2|2:0,2:0:0:0:
287,86,60879,6,0,P|296:115|304:153,1,49.5,0|0,1:2|2:0,2:0:0:0:
394,106,61056,2,0,P|385:77|377:39,1,49.5,2|0,2:0|2:0,2:0:0:0:
117,41,61232,5,10,1:2:0:0:
114,50,61321,1,2,2:0:0:0:
111,59,61409,1,2,2:0:0:0:
108,68,61497,1,2,2:0:0:0:
105,77,61585,6,0,P|160:47|215:54,1,99,2|0,1:2|2:0,2:0:0:0:
287,86,61938,1,10,1:2:0:0:
21,147,62115,6,0,P|87:178|117:245,1,148.50000453186,2|0,2:0|2:0,2:0:0:0:
158,311,62468,2,0,P|187:299|224:288,1,49.5000015106202,2|0,2:0|2:0,2:0:0:0:
399,188,62644,2,0,P|370:176|333:165,1,49.5,10|0,1:2|2:0,2:0:0:0:
308,240,62821,1,2,2:0:0:0:
308,240,62909,1,2,2:0:0:0:
308,240,62997,6,0,P|360:255|404:273,1,99,2|0,1:2|2:0,2:0:0:0:
467,338,63350,1,10,1:2:0:0:
491,119,63526,6,0,P|421:93|349:73,1,148.5,2|0,2:0|2:0,2:0:0:0:
279,100,63879,2,0,P|251:59|254:11,1,99,2|10,2:0|1:2,2:0:0:0:
52,169,64232,1,2,2:0:0:0:
60,164,64321,1,2,2:0:0:0:
66,158,64409,6,0,L|178:187,1,99,2|0,1:2|2:0,2:0:0:0:
220,245,64673,2,0,B|244:200|244:200|232:123,1,99,2|0,2:0|2:0,2:0:0:0:
174,109,64938,2,0,L|182:47,1,49.5,2|0,2:0|2:0,2:0:0:0:
414,39,65115,6,0,P|367:53|338:92,1,99,2|0,1:2|2:0,2:0:0:0:
393,159,65379,2,0,P|439:144|468:105,1,99,2|0,2:0|2:0,2:0:0:0:
421,30,65644,2,0,L|366:18,1,49.5,2|2,2:0|2:0,2:0:0:0:
326,214,65821,6,0,B|361:249|361:249|431:240,1,99,2|0,1:2|2:0,2:0:0:0:
432,322,66085,2,0,B|384:334|384:334|356:399,1,99,2|0,2:0|2:0,2:0:0:0:
290,336,66350,2,0,P|288:306|266:277,1,49.5,2|0,2:0|2:0,2:0:0:0:
106,171,66526,6,0,P|144:231|215:240,1,148.5,2|0,1:2|2:0,2:0:0:0:
248,168,66879,1,10,1:2:0:0:
203,45,67056,1,2,2:0:0:0:
203,45,67144,1,2,2:0:0:0:
203,45,67232,6,0,L|93:27,1,99,2|0,1:2|2:0,2:0:0:0:
0,205,67585,2,0,B|39:194|53:156|53:156|85:187|131:184,1,148.5,10|0,1:2|2:0,2:0:0:0:
75,247,67938,6,0,P|61:294|52:343,1,99,2|0,1:2|2:0,2:0:0:0:
116,100,68291,5,8,1:2:0:0:
205,280,68468,2,0,P|248:337|320:345,1,148.5,2|0,2:0|2:0,2:0:0:0:
385,307,68821,1,2,2:0:0:0:
362,124,68997,1,8,1:2:0:0:
124,251,69173,6,0,B|57:232|57:232|75:155,1,148.5,12|0,1:2|2:0,2:0:0:0:
140,113,69526,2,0,P|136:78|116:47,1,49.5,10|8,1:2|1:2,2:0:0:0:
266,6,69703,5,2,1:2:0:0:
281,36,69791,1,8,1:2:0:0:
307,58,69879,1,8,1:2:0:0:
341,67,69968,1,8,1:2:0:0:
375,62,70056,5,10,1:2:0:0:
423,66,70144,1,8,1:2:0:0:
458,99,70232,1,8,1:2:0:0:
465,147,70321,1,8,1:2:0:0:
440,189,70409,2,0,P|412:195|385:202,1,49.5,10|8,1:2|1:2,2:0:0:0:
188,221,70585,5,10,1:2:0:0:
234,207,70673,1,8,1:2:0:0:
282,218,70762,1,8,1:2:0:0:
317,252,70850,1,8,1:2:0:0:
332,301,70938,2,0,P|326:327|313:362,1,49.5,10|8,1:2|1:2,2:0:0:0:
135,359,71115,5,10,1:2:0:0:
89,340,71203,1,8,1:2:0:0:
62,300,71291,1,8,1:2:0:0:
63,251,71379,1,8,1:2:0:0:
91,212,71468,1,10,1:2:0:0:
130,174,71556,1,8,1:2:0:0:
141,122,71644,1,8,1:2:0:0:
122,71,71732,1,8,1:2:0:0:
78,40,71821,5,0,1:2:0:0:
149,275,71997,1,12,1:2:0:0:
234,207,72173,2,0,L|330:230,1,99,2|0,2:0|1:2,2:0:0:0:
482,364,72526,5,8,1:2:0:0:
444,160,72703,1,2,1:2:0:0:
359,328,72879,5,8,1:2:0:0:
470,75,73056,1,0,1:2:0:0:
470,75,73232,1,2,1:2:0:0:
210,90,73409,6,0,P|219:157|287:155,1,148.5,12|0,1:2|2:0,2:0:0:0:
358,142,73762,2,0,P|375:113|373:80,1,67.5,2|0,1:2|2:0,2:0:0:0:
123,36,73938,5,8,1:2:0:0:
309,11,74115,1,0,1:2:0:0:
66,121,74291,5,10,1:2:0:0:
119,192,74468,2,0,P|102:262|89:332,1,144,0|0,1:2|2:0,2:0:0:0:
301,77,75001,5,6,1:2:0:0:
225,118,75178,1,2,1:2:0:0:
191,42,75354,1,2,1:2:0:0:
313,81,75530,2,0,B|349:61|349:61|408:78,1,81.0000000000001,10|0,1:2|2:0,2:0:0:0:
361,160,75883,1,0,1:2:0:0:
510,70,76060,6,0,B|474:88|474:88|453:184,1,121.5,10|0,1:2|2:0,2:0:0:0:
492,233,76413,1,0,1:2:0:0:
342,245,76589,2,0,P|396:269|422:323,1,121.5,2|0,1:2|2:0,2:0:0:0:
360,359,76942,2,0,L|262:378,1,81.0000000000001,8|2,1:2|2:0,2:0:0:0:
229,309,77295,1,0,1:2:0:0:
41,361,77560,1,8,1:2:0:0:
52,352,77648,2,0,P|57:322|62:306,1,40.5,8|0,1:2|2:0,2:0:0:0:
119,257,77825,5,2,1:2:0:0:
55,192,78001,1,2,2:0:0:0:
133,140,78178,1,2,1:2:0:0:
17,37,78354,2,0,B|62:45|72:91|72:91|102:56|171:66,1,162,10|0,1:2|1:2,2:0:0:0:
277,127,78883,2,0,P|234:143|218:83,1,121.5,10|0,1:2|2:0,2:0:0:0:
292,40,79236,5,0,1:2:0:0:
434,98,79413,2,0,P|377:116|356:146,1,81.0000000000001,2|0,1:2|1:2,2:0:0:0:
363,229,79766,2,0,B|402:276|402:276|457:253,1,121.5,8|0,1:2|2:0,2:0:0:0:
429,177,80119,1,2,1:2:0:0:
261,322,80295,6,0,L|342:340,1,54,14|0,1:2|2:0,2:0:0:0:
468,368,80472,6,0,L|387:350,1,54,12|0,1:2|2:0,2:0:0:0:
250,318,80648,5,2,1:2:0:0:
191,249,80825,2,0,P|197:193|221:161,1,81.0000000000001,2|2,2:0|1:2,2:0:0:0:
155,70,81178,2,0,P|89:106|-4:60,1,162,10|0,1:2|1:2,2:0:0:0:
0,228,81707,6,0,B|51:216|51:216|96:267,1,108,10|0,1:2|2:0,2:0:0:0:
17,343,82060,5,0,1:2:0:0:
116,375,82236,2,0,B|138:371|156:357|166:339|166:339|166:339|166:339|176:318|195:306|216:303,1,121.5,2|0,1:2|2:0,2:0:0:0:
272,261,82589,2,0,P|308:277|329:311,1,81.0000000000001,8|10,1:2|1:2,2:0:0:0:
399,254,82854,1,8,1:2:0:0:
390,257,82942,6,0,P|374:237|365:210,1,40.5,0|0,1:2|2:0,2:0:0:0:
478,72,83119,2,0,B|493:132|493:132|432:152,1,121.5,8|0,1:2|2:0,2:0:0:0:
401,75,83472,5,2,1:2:0:0:
302,183,83648,2,0,P|328:212|367:222,1,81.0000000000001,2|2,2:0|1:2,2:0:0:0:
512,279,84001,2,0,P|428:311|399:378,1,162,10|0,1:2|1:2,2:0:0:0:
264,367,84530,6,0,B|250:316|250:316|209:295|209:295|194:234,1,148.5,14|0,1:2|2:0,2:0:0:0:
275,236,84883,5,12,1:2:0:0:
170,373,85060,6,0,L|110:351,1,63,6|0,1:2|2:0,2:0:0:0:
0,251,85236,6,0,L|59:229,1,63,6|0,1:2|2:0,2:0:0:0:
259,88,85413,6,0,B|216:85|179:131|179:131|187:75|139:34,1,189,6|2,1:2|2:0,2:0:0:0:
269,177,86119,1,10,1:3:0:0:
269,177,86207,1,8,1:3:0:0:
269,177,86295,6,0,P|312:221|378:219,1,128.25,12|0,1:2|2:0,2:0:0:0:
432,170,86648,1,2,1:2:0:0:
413,95,86825,1,2,1:2:0:0:
392,23,87001,2,0,L|298:5,1,85.4999999999999,8|2,1:2|2:0,2:0:0:0:
198,105,87354,1,0,2:0:0:0:
268,175,87530,2,0,B|295:140|295:140|287:88,1,85.4999999999999,10|0,1:2|1:2,2:0:0:0:
151,30,87883,5,10,1:2:0:0:
97,100,88060,1,0,1:2:0:0:
19,56,88236,1,2,1:2:0:0:
154,173,88413,5,8,1:2:0:0:
81,208,88589,2,0,P|65:269|36:377,1,171,2|2,1:2|2:0,2:0:0:0:
209,357,89119,5,2,1:2:0:0:
170,290,89295,1,0,2:0:0:0:
224,230,89472,1,2,1:2:0:0:
303,306,89648,5,2,1:2:0:0:
361,369,89825,1,8,1:2:0:0:
427,318,90001,2,0,L|463:177,1,128.25,2|0,1:2|2:0,2:0:0:0:
480,124,90354,1,10,1:2:0:0:
349,67,90530,5,0,1:2:0:0:
368,158,90707,1,10,1:2:0:0:
345,57,90883,2,0,P|311:31|267:25,1,85.4999999999999,0|2,1:2|1:2,2:0:0:0:
199,75,91236,1,8,1:2:0:0:
250,152,91413,1,2,1:2:0:0:
94,51,91589,6,0,P|87:87|65:126,1,60.7499999999999,14|0,1:2|2:0,2:0:0:0:
177,230,91766,6,0,P|165:202|160:172,1,60.7499999999999,14|0,1:2|2:0,2:0:0:0:
2,248,91942,6,0,P|65:249|108:294,1,128.25,14|0,1:2|2:0,2:0:0:0:
65,353,92295,1,2,1:2:0:0:
226,307,92472,1,2,1:2:0:0:
306,357,92648,1,8,1:2:0:0:
217,300,92825,2,0,L|200:208,1,85.4999999999999,2|0,2:0|2:0,2:0:0:0:
332,63,93177,6,0,B|341:105|341:105|314:152,1,85.4999999999999,10|0,1:2|1:2,2:0:0:0:
224,126,93530,2,0,B|214:84|214:84|241:37,1,85.4999999999999,10|0,1:2|1:2,2:0:0:0:
406,23,93883,5,2,1:2:0:0:
470,87,94060,1,8,1:2:0:0:
332,63,94236,2,0,B|301:64|276:81|261:104|261:104|261:104|261:104|244:130|217:144|190:145,1,171,2|2,1:2|2:0,2:0:0:0:
82,60,94766,5,2,1:2:0:0:
82,60,94942,1,2,2:0:0:0:
153,20,95119,1,2,1:2:0:0:
116,144,95295,1,2,1:2:0:0:
5,15,95472,2,0,B|-14:70|-14:70|26:133,1,128.25,10|0,1:2|2:0,2:0:0:0:
82,60,95825,1,2,2:0:0:0:
17,213,96001,6,0,P|39:216|58:228,1,42.7499988584519,10|0,1:2|2:0,2:0:0:0:
108,323,96177,5,4,1:2:0:0:
287,356,96354,1,0,1:2:0:0:
399,205,96530,1,0,1:2:0:0:
281,362,96707,6,0,B|268:300|268:300|219:270|219:270|204:208,1,171,8|2,1:2|2:0,2:0:0:0:
173,31,97236,6,0,P|236:37|180:51,1,168.75,10|0,1:2|2:0,2:0:0:0:
91,52,97589,6,0,L|116:190,1,128.25,14|0,1:2|2:0,2:0:0:0:
129,251,97942,1,2,1:2:0:0:
0,327,98119,2,0,B|33:354|33:354|80:358,1,85.4999999999999,2|8,1:2|1:2,2:0:0:0:
225,120,98472,2,0,L|205:204,1,85.4999999999999,2|0,2:0|2:0,2:0:0:0:
343,377,98825,6,0,B|390:362|390:362|357:241,1,171,10|10,1:2|1:2,2:0:0:0:
249,273,99354,1,0,1:2:0:0:
448,223,99530,1,2,1:2:0:0:
319,164,99707,1,8,1:2:0:0:
457,227,99883,2,0,P|494:181|459:98,1,128.25,2|0,1:2|2:0,2:0:0:0:
423,78,100236,1,2,2:0:0:0:
287,27,100413,5,0,1:2:0:0:
287,27,100589,2,0,B|272:67|272:67|296:124,1,85.4999999999999,2|0,2:0|1:2,2:0:0:0:
207,182,100942,2,0,B|180:149|180:149|118:141,1,85.4999999999999,2|8,1:2|1:2,2:0:0:0:
92,41,101295,2,0,P|137:31|172:-15,1,85.4999999999999,2|0,1:2|2:0,2:0:0:0:
288,106,101648,1,10,1:2:0:0:
36,229,101825,6,0,L|56:103,1,112.5,6|0,1:2|2:0,2:0:0:0:
129,134,102089,2,0,L|111:245,1,112.5,10|0,1:2|2:0,2:0:0:0:
63,302,102354,2,0,L|79:371,1,56.2499999999999,10|0,1:2|2:0,2:0:0:0:
221,358,102530,6,0,P|249:303|311:283,1,112.5,2|0,1:2|2:0,2:0:0:0:
360,249,102795,2,0,B|378:302|378:302|359:373,1,112.5,10|0,1:2|2:0,2:0:0:0:
437,367,103060,2,0,L|459:285,1,56.2499999999999,10|0,1:2|2:0,2:0:0:0:
482,115,103236,6,0,B|519:170|519:170|370:130,1,220.5,4|0,1:2|2:0,2:0:0:0:
240,165,103942,6,0,P|275:65|170:78,1,252,12|0,1:2|2:0,2:0:0:0:
49,257,104648,6,0,P|45:141|135:209,1,283.5,12|0,1:2|2:0,2:0:0:0:
331,275,105354,6,0,B|273:257|214:276|176:315|176:315|176:315|176:315|134:358|74:372|21:356,1,315,12|0,1:2|2:0,2:0:0:0:
53,42,106060,6,0,B|70:60|72:88|58:109|38:118|38:118|76:103|117:117|138:148|138:148|143:116|168:93|198:88|198:88|221:92|236:113|235:135,1,337.5,4|0,1:2|2:0,2:0:0:0:
206,185,107472,5,0,1:2:0:0:
424,171,107707,6,0,B|391:146|391:146|324:158,1,83.9999974365235,8|0,1:2|2:0,2:0:0:0:
333,230,107942,2,0,B|366:255|366:255|433:243,1,83.9999974365235,8|0,1:2|2:0,2:0:0:0:
450,95,108177,6,0,B|407:64|407:64|333:76,1,108,8|0,1:2|2:0,2:0:0:0:
286,105,108530,6,0,P|217:104|285:100,1,202.5,10|0,1:3|2:0,2:0:0:0:
353,73,108883,6,0,L|374:178,1,108,4|0,1:2|2:0,2:0:0:0:
441,219,109148,2,0,L|419:324,1,108,0|0,1:2|2:0,2:0:0:0:
344,344,109413,1,0,1:2:0:0:
182,290,109589,6,0,B|227:280|250:312|250:312|267:269|312:259,1,153.000000000001,10|2,1:2|2:0,2:0:0:0:
225,214,110119,1,10,1:2:0:0:
43,363,110295,6,0,B|19:331|19:331|30:250,1,108,0|2,1:2|2:0,2:0:0:0:
87,201,110560,2,0,B|111:233|111:233|100:314,1,108,0|0,1:2|2:0,2:0:0:0:
43,363,110825,1,2,1:2:0:0:
225,214,111001,5,8,1:2:0:0:
204,362,111177,1,2,1:2:0:0:
509,340,111354,6,0,L|349:368,1,162,14|0,1:2|2:0,2:0:0:0:
295,314,111707,6,0,P|298:260|332:219,1,108,6|0,1:2|2:0,2:0:0:0:
346,144,111972,2,0,P|393:120|446:129,1,108,0|0,1:2|2:0,2:0:0:0:
484,195,112236,1,2,1:2:0:0:
277,65,112413,6,0,P|251:133|173:153,1,153.000000000001,8|0,1:2|2:0,2:0:0:0:
195,72,112942,1,10,1:2:0:0:
477,67,113119,6,0,L|371:42,1,108,0|0,1:2|2:0,2:0:0:0:
354,117,113383,2,0,L|459:141,1,108,0|0,1:2|2:0,2:0:0:0:
386,203,113648,1,0,1:2:0:0:
355,289,113825,5,10,1:2:0:0:
188,323,114001,1,0,1:2:0:0:
109,149,114177,6,0,B|165:160|165:160|190:194|190:194|251:208,1,162,14|0,1:2|2:0,2:0:0:0:
337,178,114530,6,0,P|355:128|338:78,1,108,4|2,1:2|2:0,2:0:0:0:
276,37,114795,2,0,L|155:53,1,108,0|0,1:2|2:0,2:0:0:0:
98,64,115060,1,2,1:2:0:0:
39,224,115236,5,10,1:2:0:0:
86,292,115413,2,0,P|132:327|188:329,1,114.75,2|0,2:0|2:0,2:0:0:0:
256,365,115766,2,0,P|260:337|270:304,1,38.2500000000001,10|0,1:2|2:0,2:0:0:0:
427,219,115942,6,0,P|386:251|333:250,1,108,0|2,1:2|2:0,2:0:0:0:
300,182,116207,2,0,P|341:149|394:150,1,108,0|0,1:2|2:0,2:0:0:0:
427,219,116472,1,2,1:2:0:0:
212,227,116648,5,8,1:2:0:0:
254,70,116825,1,2,1:2:0:0:
56,211,117001,6,0,B|91:205|125:228|136:260|136:260|148:294|183:314|217:308,1,189,14|0,1:2|2:0,2:0:0:0:
340,377,117354,6,0,B|366:330|366:330|351:254,1,108,4|0,1:2|2:0,2:0:0:0:
340,204,117619,1,0,2:0:0:0:
334,197,117707,2,0,L|263:180,1,54,2|0,1:2|2:0,2:0:0:0:
476,74,117883,6,0,L|371:47,1,108,10|0,1:2|2:0,2:0:0:0:
299,24,118148,1,0,2:0:0:0:
291,34,118236,2,0,L|309:104,1,54,10|0,1:3|2:0,2:0:0:0:
244,263,118413,6,0,P|155:283|177:195,1,202.5,8|0,1:2|2:0,2:0:0:0:
238,188,118766,6,0,P|242:147|221:109,1,67.5,6|0,1:2|2:0,2:0:0:0:
210,41,118942,2,0,P|185:27|157:24,1,56.25,10|0,1:2|2:0,2:0:0:0:
35,86,119119,6,0,L|48:152,1,45,2|0,1:2|2:0,2:0:0:0:
113,177,119295,2,0,L|119:137,1,33.7500000000001,14|0,1:2|2:0,2:0:0:0:
26,236,119472,5,2,1:2:0:0:
150,266,119648,1,2,1:2:0:0:
17,360,119825,5,10,1:2:0:0:
29,348,119913,1,8,1:2:0:0:
56,338,120001,1,8,1:2:0:0:
92,333,120089,1,8,1:2:0:0:
132,352,120177,6,0,B|178:359|178:359|213:326,1,90,14|0,1:2|2:0,2:0:0:0:
270,288,120442,1,0,2:0:0:0:
284,286,120531,2,0,L|327:298,1,45,0|0,1:2|2:0,2:0:0:0:
467,362,120708,6,0,L|450:256,1,90,2|0,2:0|1:2,2:0:0:0:
404,214,120974,1,0,2:0:0:0:
396,206,121062,2,0,L|405:151,1,45,2|0,2:0|2:0,2:0:0:0:
491,105,121239,2,0,L|483:149,1,45,2|0,1:2|2:0,2:0:0:0:
317,165,121417,2,0,L|309:120,1,45,2|0,2:0|2:0,2:0:0:0:
201,21,121594,6,0,P|168:51|124:56,1,90,2|0,1:2|2:0,2:0:0:0:
59,27,121859,1,0,2:0:0:0:
52,20,121948,2,0,L|41:71,1,45,0|0,1:2|2:0,2:0:0:0:
75,197,122125,6,0,B|111:223|111:223|179:208,1,90,2|0,2:0|1:2,2:0:0:0:
227,224,122391,1,0,2:0:0:0:
232,235,122479,2,0,P|251:255|276:263,1,45,2|0,2:0|2:0,2:0:0:0:
278,131,122657,2,0,P|251:137|231:155,1,45,2|0,1:2|2:0,2:0:0:0:
361,233,122834,6,0,B|373:201|373:201|360:168,1,67.5,14|0,1:2|2:0,2:0:0:0:
195,45,123011,6,0,L|324:25,1,126,6|0,1:2|2:0,2:0:0:0:
459,57,123275,1,0,1:2:0:0:
449,47,123363,2,0,P|389:50|403:108,1,135,10|0,1:2|2:0,2:0:0:0:
479,133,123715,5,2,1:2:0:0:
319,25,123892,1,0,1:2:0:0:
260,267,124068,1,10,1:2:0:0:
260,267,124420,6,0,B|303:257|322:282|322:282|345:252|382:249,1,135,6|0,1:2|2:0,2:0:0:0:
246,348,125125,6,0,P|218:340|187:300,1,72,10|0,1:2|1:2,2:0:0:0:
188,235,125360,1,0,1:2:0:0:
296,217,125477,5,8,1:2:0:0:
327,250,125595,1,0,1:2:0:0:
378,249,125712,1,10,1:2:0:0:
418,137,125830,6,0,P|385:108|342:99,1,90,6|0,1:2|2:0,2:0:0:0:
273,84,126094,1,0,2:0:0:0:
261,79,126182,2,0,L|249:28,1,45,2|0,1:2|2:0,2:0:0:0:
445,0,126359,6,0,L|458:77,1,67.5,8|0,1:2|2:0,2:0:0:0:
344,182,126535,6,0,L|237:209,1,90,2|0,1:2|2:0,2:0:0:0:
118,244,126800,1,0,2:0:0:0:
107,245,126888,2,0,P|115:196|133:172,1,67.5,10|0,1:2|2:0,2:0:0:0:
220,36,127065,1,0,2:0:0:0:
220,36,127153,1,0,2:0:0:0:
220,36,127241,6,0,B|231:79|231:79|210:127,1,90,2|0,1:2|2:0,2:0:0:0:
151,72,127506,1,0,2:0:0:0:
142,70,127594,2,0,L|87:57,1,45,2|0,1:2|2:0,2:0:0:0:
0,185,127771,6,0,B|29:168|29:168|85:177,1,67.5,8|0,1:2|2:0,2:0:0:0:
105,332,127947,2,0,P|61:331|29:301,1,90,2|0,1:2|2:0,2:0:0:0:
94,260,128212,1,0,2:0:0:0:
105,256,128300,2,0,L|165:266,1,45,2|0,1:2|2:0,2:0:0:0:
276,365,128477,6,0,L|264:293,1,67.5,14|0,1:2|2:0,2:0:0:0:
249,160,128653,5,0,1:2:0:0:
271,173,128741,1,0,2:0:0:0:
298,177,128830,1,0,2:0:0:0:
323,171,128918,1,0,2:0:0:0:
343,161,129006,5,0,1:2:0:0:
389,156,129094,1,0,2:0:0:0:
419,188,129182,2,0,P|418:222|403:252,1,67.5,8|0,1:2|2:0,2:0:0:0:
191,290,129359,5,0,1:2:0:0:
186,286,129447,1,0,2:0:0:0:
180,283,129535,2,0,L|192:213,1,54,2|0,2:0|2:0,2:0:0:0:
298,177,129712,2,0,L|307:230,1,54,2|0,1:2|2:0,2:0:0:0:
100,237,129888,6,0,B|89:205|89:205|105:148,1,67.5,14|0,1:2|2:0,2:0:0:0:
239,24,130065,1,0,1:2:0:0:
242,35,130153,1,0,2:0:0:0:
245,44,130241,5,8,1:2:0:0:
231,89,130330,1,8,1:2:0:0:
195,119,130418,1,8,1:2:0:0:
152,139,130506,1,8,1:2:0:0:
104,136,130594,1,8,1:2:0:0:
64,108,130682,1,8,1:2:0:0:
41,66,130771,5,10,1:2:0:0:
90,44,130859,1,8,1:2:0:0:
142,54,130947,1,8,1:2:0:0:
180,92,131035,1,8,1:2:0:0:
208,137,131124,5,10,1:2:0:0:
254,175,131212,1,8,1:2:0:0:
311,193,131300,1,8,1:2:0:0:
370,178,131388,1,8,1:2:0:0:
420,143,131477,5,14,1:2:0:0:
483,255,131653,1,0,1:2:0:0:
412,131,131830,2,0,L|430:43,1,90,6|0,1:2|2:0,2:0:0:0:
180,92,132182,6,0,P|256:102|297:168,1,135,10|0,1:2|2:0,2:0:0:0:
292,220,132535,6,0,P|194:228|127:157,1,202.5,14|0,1:2|2:0,2:0:0:0:
88,88,132888,6,0,B|58:114|58:114|42:162,1,76.5,10|0,1:2|2:0,2:0:0:0:
149,289,133065,6,0,P|187:309|235:307,1,76.5,8|0,1:3|2:0,2:0:0:0:
312,354,133243,6,0,P|343:324|356:278,1,76.5,8|0,1:3|2:0,2:0:0:0:
331,151,133420,5,8,1:3:0:0:
490,267,133598,6,0,B|471:265|455:300|455:300|461:261|444:244,1,101.25,2|0,2:0|2:0,2:0:0:0:
496,194,133953,2,0,L|505:152,1,33.7500000000001,2|0,2:0|2:0,2:0:0:0:
312,6,134130,6,0,B|316:36|334:63|364:76|364:76|391:89|412:114|416:146,1,181.17794117647,6|0,1:2|2:0,2:0:0:0:
388,215,134482,2,0,P|369:215|379:210,1,60.7500000000001,2|0,2:0|2:0,2:0:0:0:
477,69,134659,1,10,1:2:0:0:
334,152,134835,1,2,2:0:0:0:
236,61,135012,6,0,L|81:27,1,148.5,2|0,1:2|2:0,2:0:0:0:
42,80,135365,2,0,L|62:140,1,49.5,10|0,1:2|2:0,2:0:0:0:
62,296,135541,6,0,P|80:232|143:279,1,148.5,2|0,2:0|2:0,2:0:0:0:
131,332,135894,2,0,P|145:352|166:365,1,49.5,2|0,2:0|2:0,2:0:0:0:
388,215,136071,2,0,P|340:219|304:253,1,99,10|2,1:2|2:0,2:0:0:0:
445,363,136335,1,2,2:0:0:0:
455,358,136424,6,0,L|487:214,1,148.5,2|0,1:2|2:0,2:0:0:0:
449,145,136777,1,10,1:2:0:0:
228,295,136953,6,0,B|275:354|275:354|356:327,1,148.5,2|0,2:0|2:0,2:0:0:0:
303,260,137306,1,2,2:0:0:0:
100,351,137482,5,8,1:2:0:0:
26,251,137659,2,0,L|46:182,1,49.5,2|0,2:0|2:0,2:0:0:0:
172,135,137835,6,0,B|153:90|153:90|166:22,1,99,2|0,1:2|2:0,2:0:0:0:
244,33,138100,2,0,B|263:78|263:78|250:146,1,99,2|0,2:0|2:0,2:0:0:0:
226,195,138365,2,0,L|240:251,1,49.5,2|0,2:0|2:0,2:0:0:0:
344,347,138541,6,0,P|373:308|373:259,1,99,2|0,1:2|2:0,2:0:0:0:
451,229,138806,2,0,P|470:274|512:298,1,99,2|0,2:0|2:0,2:0:0:0:
469,360,139071,2,0,P|444:359|417:376,1,49.5,2|0,2:0|2:0,2:0:0:0:
343,138,139247,6,0,B|373:145|385:163|385:163|406:148|445:151,1,99,2|0,1:2|2:0,2:0:0:0:
399,78,139512,1,2,2:0:0:0:
390,70,139600,2,0,P|404:30|410:2,1,67.5,8|0,1:2|2:0,2:0:0:0:
251,156,139777,2,0,P|263:188|270:220,1,67.5,14|0,2:0|2:0,2:0:0:0:
0,51,139953,6,0,B|40:15|95:25|95:25|122:75|189:79,1,198,2|8,1:2|1:2,2:0:0:0:
57,175,140482,1,2,2:0:0:0:
345,106,140659,6,0,P|275:94|257:170,1,148.5,2|0,1:2|2:0,2:0:0:0:
296,217,141012,2,0,B|346:224|346:224|417:190,1,99,10|0,1:2|2:0,2:0:0:0:
504,334,141365,6,0,P|473:303|403:293,1,99,2|0,1:2|2:0,2:0:0:0:
352,308,141630,1,0,2:0:0:0:
345,314,141718,2,0,P|353:343|359:374,1,49.5,8|0,1:2|2:0,2:0:0:0:
389,203,141894,5,10,2:0:0:0:
246,339,142071,1,2,1:2:0:0:
188,166,142247,1,2,2:0:0:0:
65,327,142424,6,0,P|59:350|83:333,1,67.5,8|0,1:2|2:0,2:0:0:0:
268,193,142600,6,0,B|230:260|230:260|107:229,1,202.5,14|0,1:2|2:0,2:0:0:0:
43,196,142953,2,0,P|34:157|20:128,1,67.5,0|0,1:2|2:0,2:0:0:0:
188,40,143130,5,8,1:2:0:0:
378,130,143306,1,0,1:2:0:0:
470,42,143482,5,8,1:2:0:0:
386,268,143659,2,0,P|376:246|376:221,1,49.5,0|0,1:2|2:0,2:0:0:0:
455,207,143835,2,0,P|465:229|465:254,1,49.5,0|0,1:2|2:0,2:0:0:0:
322,355,144012,6,0,B|320:328|304:306|281:296|281:296|281:296|281:296|258:284|244:260|242:236,1,148.5,12|0,1:2|2:0,2:0:0:0:
291,181,144365,2,0,P|302:160|303:135,1,49.5,0|0,1:2|2:0,2:0:0:0:
207,36,144541,5,8,1:2:0:0:
19,89,144718,1,0,2:0:0:0:
118,283,144894,5,10,1:2:0:0:
163,264,144982,1,8,1:2:0:0:
196,228,145071,1,8,1:2:0:0:
211,181,145159,1,8,1:2:0:0:
203,133,145247,2,0,L|138:117,1,49.5,10|8,1:2|1:2,2:0:0:0:
65,33,145424,2,0,L|130:17,1,49.5,14|0,1:2|2:0,2:0:0:0:
303,134,145600,6,0,P|290:112|286:88,1,49.5,0|0,1:2|2:0,2:0:0:0:
379,65,145777,2,0,P|391:86|395:110,1,49.5,2|0,2:0|2:0,2:0:0:0:
312,283,145953,6,0,P|315:258|328:237,1,49.5,10|0,1:2|2:0,2:0:0:0:
398,257,146130,2,0,P|394:281|381:302,1,49.5,2|2,2:0|2:0,2:0:0:0:
166,352,146306,6,0,B|144:305|144:305|159:233,1,99,2|0,1:2|2:0,2:0:0:0:
101,203,146571,1,0,2:0:0:0:
91,197,146659,2,0,L|30:210,1,49.5,10|0,1:2|2:0,2:0:0:0:
144,19,146835,6,0,B|147:44|162:68|188:79|188:79|212:90|230:112|233:139,1,148.5,2|0,2:0|2:0,2:0:0:0:
292,184,147188,2,0,P|311:154|315:123,1,49.5,2|0,2:0|2:0,2:0:0:0:
87,122,147365,1,10,1:2:0:0:
191,312,147541,1,2,2:0:0:0:
201,314,147630,1,2,2:0:0:0:
212,317,147718,6,0,L|227:205,1,99,2|0,1:2|2:0,2:0:0:0:
292,184,147982,1,0,2:0:0:0:
300,196,148071,2,0,L|311:248,1,49.5,10|0,1:2|2:0,2:0:0:0:
108,361,148247,6,0,P|80:293|7:266,1,148.5,2|0,2:0|2:0,2:0:0:0:
33,194,148600,2,0,B|63:194|80:208|80:208|99:186|130:183,1,99,2|10,2:0|1:2,2:0:0:0:
70,119,148865,1,0,2:0:0:0:
64,113,148953,2,0,P|51:74|56:43,1,49.5,2|0,2:0|2:0,2:0:0:0:
193,35,149130,6,0,B|243:29|243:29|301:68,1,99,2|0,1:2|2:0,2:0:0:0:
358,30,149394,2,0,B|364:80|364:80|325:138,1,99,2|0,2:0|2:0,2:0:0:0:
280,174,149659,2,0,L|291:231,1,49.5,2|0,2:0|2:0,2:0:0:0:
429,347,149835,6,0,P|404:305|411:257,1,99,2|0,1:2|2:0,2:0:0:0:
488,242,150100,2,0,P|512:283|505:331,1,99,2|0,2:0|2:0,2:0:0:0:
422,353,150365,2,0,L|363:337,1,49.5,2|0,2:0|2:0,2:0:0:0:
269,294,150541,5,2,1:2:0:0:
492,162,150718,6,0,L|413:141,1,67.5,8|2,1:2|2:0,2:0:0:0:
299,19,150894,2,0,L|316:84,1,67.5,12|0,1:2|2:0,2:0:0:0:
300,226,151071,1,2,2:0:0:0:
35,118,151247,6,0,B|88:132|88:132|112:174|112:174|155:184,1,148.5,6|0,1:2|2:0,2:0:0:0:
230,186,151600,2,0,P|229:161|218:139,1,49.5,10|0,1:2|2:0,2:0:0:0:
201,68,151777,2,0,P|177:60|153:64,1,49.5,2|2,2:0|2:0,2:0:0:0:
30,207,151953,5,2,1:2:0:0:
247,266,152129,1,0,2:0:0:0:
16,202,152306,2,0,L|47:363,1,148.5,10|0,1:2|2:0,2:0:0:0:
117,362,152659,6,0,B|143:321|186:330|186:330|215:358|258:360,1,148.5,2|0,1:2|2:0,2:0:0:0:
318,343,153012,2,0,P|337:324|310:324,1,67.5,8|0,1:2|2:0,2:0:0:0:
146,171,153188,6,0,B|162:101|162:101|238:114,1,148.5,2|0,2:0|2:0,2:0:0:0:
224,186,153541,1,2,1:2:0:0:
90,63,153718,2,0,P|111:37|142:23,1,67.5,8|0,1:2|2:0,2:0:0:0:
312,67,153894,5,14,1:2:0:0:
224,186,154071,1,0,1:2:0:0:
395,264,154247,2,0,L|381:191,1,67.5,10|8,1:2|1:2,2:0:0:0:
207,103,154424,1,10,1:2:0:0:
161,90,154512,1,8,1:2:0:0:
114,96,154600,1,8,1:2:0:0:
72,118,154688,1,8,1:2:0:0:
50,159,154777,5,10,1:2:0:0:
96,186,154865,1,8,1:2:0:0:
115,236,154953,1,8,1:2:0:0:
106,289,155041,1,8,1:2:0:0:
63,322,155130,2,0,L|6:310,1,58.5,10|8,1:2|1:2,2:0:0:0:
208,220,155306,5,10,1:2:0:0:
255,215,155394,1,8,1:2:0:0:
295,238,155482,1,8,1:2:0:0:
325,272,155571,1,8,1:2:0:0:
355,306,155659,1,10,1:2:0:0:
395,329,155747,1,8,1:2:0:0:
442,324,155835,5,10,1:2:0:0:
418,277,155924,1,8,1:2:0:0:
372,251,156012,1,8,1:2:0:0:
319,255,156100,1,8,1:2:0:0:
272,281,156188,2,0,L|263:349,1,58.5,10|8,1:2|1:2,2:0:0:0:
427,196,156365,2,0,L|419:138,1,58.5,8|8,1:2|1:2,2:0:0:0:
236,75,156541,5,0,1:2:0:0:
446,31,156718,1,12,1:2:0:0:
222,80,156894,2,0,P|164:78|115:48,1,117,2|0,2:0|1:2,2:0:0:0:
29,248,157247,6,0,P|69:233|93:226,1,58.5,8|0,1:2|2:0,2:0:0:0:
246,248,157424,1,2,1:2:0:0:
30,124,157600,6,0,P|59:126|87:133,1,58.5,8|0,1:2|2:0,2:0:0:0:
215,321,157777,1,0,1:2:0:0:
86,17,157953,6,0,P|110:33|131:54,1,58.5,2|0,1:2|2:0,2:0:0:0:
124,347,158129,6,0,B|65:333|65:333|87:218,1,175.5,12|0,1:2|2:0,2:0:0:0:
109,147,158482,2,0,P|136:156|158:193,1,58.5,2|0,1:2|2:0,2:0:0:0:
310,356,158659,6,0,B|341:355|368:339|384:315|384:315|384:315|384:315|401:289|429:275|457:274,1,175.5,8|0,1:2|2:0,2:0:0:0:
418,199,159012,6,0,B|381:201|354:223|354:223|340:177|309:158,1,135,10|0,1:2|2:0,2:0:0:0:
370,48,159365,6,0,P|391:119|450:74,1,175.5,6|0,2:0|2:0,2:0:0:0:
431,3,159718,5,2,1:2:0:0:
431,3,159894,1,2,1:2:0:0:
291,136,160071,1,10,1:2:0:0:
230,41,160247,1,2,1:2:0:0:
140,104,160424,1,0,1:2:0:0:
349,213,160600,6,0,P|376:176|381:132,1,90,10|2,1:2|1:2,2:0:0:0:
128,100,160953,2,0,L|161:253,1,135,10|0,1:2|2:0,2:0:0:0:
227,264,161306,2,0,L|234:208,1,45,0|0,1:2|2:0,2:0:0:0:
5,310,161482,6,0,B|36:269|94:288|94:288|120:340|186:335,1,180,8|0,1:2|1:2,2:0:0:0:
301,234,162012,1,10,1:2:0:0:
357,365,162188,1,2,1:2:0:0:
293,220,162365,6,0,B|307:159|307:159|351:130|351:130|367:60,1,180,10|0,1:2|1:2,2:0:0:0:
495,217,162894,2,0,B|507:269|507:269|383:297,1,180,8|0,1:2|1:2,2:0:0:0:
220,326,163424,1,10,1:2:0:0:
293,220,163600,1,2,1:2:0:0:
383,296,163777,1,10,1:2:0:0:
202,222,163953,6,0,B|178:215|154:224|139:240|139:240|122:258|98:264|76:259,1,135,0|0,1:2|2:0,2:0:0:0:
7,299,164306,2,0,B|-2:253|-2:253|21:201,1,90,8|0,1:2|1:2,2:0:0:0:
200,97,164659,1,0,1:2:0:0:
15,75,164835,2,0,P|38:113|77:134,1,90,10|0,1:2|1:2,2:0:0:0:
212,92,165188,1,10,1:2:0:0:
358,104,165365,5,2,1:2:0:0:
379,196,165541,1,2,1:2:0:0:
402,292,165718,1,10,1:2:0:0:
269,244,165894,2,0,P|314:196|380:197,1,135,2|0,1:2|2:0,2:0:0:0:
455,220,166247,1,10,1:2:0:0:
475,357,166424,1,2,1:2:0:0:
305,321,166600,6,0,B|273:312|241:324|221:345|221:345|198:370|165:378|137:371,1,180,10|0,1:2|1:2,2:0:0:0:
70,230,167129,2,0,P|122:229|161:264,1,90,8|0,1:2|1:2,2:0:0:0:
45,373,167482,5,2,1:2:0:0:
2,275,167659,1,10,1:2:0:0:
140,371,167835,1,2,1:2:0:0:
232,155,168012,6,0,B|262:275|262:275|221:314,1,180,10|0,1:2|1:2,2:0:0:0:
390,110,168541,2,0,L|366:196,1,90,8|0,1:2|1:2,2:0:0:0:
455,308,168894,5,2,1:2:0:0:
331,342,169071,1,10,1:2:0:0:
479,209,169247,1,2,1:2:0:0:
254,276,169424,1,10,1:2:0:0:
339,102,169600,5,0,1:2:0:0:
411,160,169777,1,0,1:2:0:0:
317,184,169953,5,0,1:2:0:0:
427,71,170129,1,0,1:2:0:0:
405,267,170306,5,0,1:2:0:0:
197,105,170482,1,0,1:2:0:0:
153,330,170659,5,6,1:2:0:0:
221,270,170835,1,2,2:0:0:0:
146,339,171012,6,0,L|34:322,1,90,6|0,1:2|1:2,2:0:0:0:
50,316,171277,1,0,1:2:0:0:
44,304,171365,1,10,1:2:0:0:
162,173,171541,1,2,1:2:0:0:
95,100,171718,1,2,1:2:0:0:
95,100,171894,1,10,1:2:0:0:
143,29,172071,1,2,1:2:0:0:
215,82,172247,1,10,1:2:0:0:
10,49,172424,5,2,1:2:0:0:
36,162,172600,1,2,1:2:0:0:
60,276,172777,2,0,B|100:279|123:256|123:256|140:290|182:307,1,135,10|0,1:2|2:0,2:0:0:0:
107,358,173129,1,2,1:2:0:0:
107,358,173306,1,10,1:2:0:0:
170,301,173482,1,2,1:2:0:0:
249,344,173659,2,0,L|352:361,1,90,10|0,1:2|1:2,2:0:0:0:
506,238,174012,5,2,1:2:0:0:
427,264,174188,1,10,1:2:0:0:
375,198,174365,1,2,1:2:0:0:
418,126,174541,5,2,1:2:0:0:
506,238,174718,1,10,1:2:0:0:
459,58,174894,1,2,1:2:0:0:
375,198,175071,1,10,1:2:0:0:
510,127,175247,5,2,1:2:0:0:
366,47,175424,2,0,B|320:55|320:55|292:93|292:93|252:100,1,135,2|0,1:2|2:0,2:0:0:0:
183,65,175777,2,0,P|150:36|105:33,1,90,2|0,1:2|1:2,2:0:0:0:
32,80,176129,1,10,1:2:0:0:
42,169,176306,1,2,1:2:0:0:
131,205,176482,1,8,1:2:0:0:
131,205,176571,1,2,1:2:0:0:
131,205,176659,1,2,1:2:0:0:
253,140,176835,5,2,1:2:0:0:
232,246,177012,1,10,1:2:0:0:
117,119,177188,1,2,1:2:0:0:
265,141,177365,1,2,1:2:0:0:
131,205,177541,2,0,B|104:240|104:240|93:286,1,90,10|0,1:2|1:2,2:0:0:0:
260,360,177894,5,10,1:2:0:0:
316,294,178071,1,2,1:2:0:0:
174,327,178247,1,2,1:2:0:0:
327,291,178424,1,10,1:2:0:0:
162,332,178600,2,0,L|30:306,1,135,2|0,1:2|2:0,2:0:0:0:
9,236,178953,2,0,B|4:190|4:190|29:133,1,90,10|2,1:2|1:2,2:0:0:0:
93,202,179306,1,10,1:2:0:0:
73,40,179482,6,0,B|88:98|88:98|213:74,1,180,2|8,1:2|1:2,2:0:0:0:
272,24,180012,1,2,1:2:0:0:
414,115,180188,6,0,P|383:146|339:156,1,90,2|8,1:2|1:2,2:0:0:0:
205,75,180541,1,2,1:2:0:0:
205,75,180718,1,10,1:2:0:0:
172,203,180894,1,2,1:2:0:0:
315,245,181071,5,2,1:2:0:0:
77,178,181247,1,8,1:2:0:0:
273,24,181424,6,0,B|293:65|293:65|262:168,1,135,10|0,1:2|2:0,2:0:0:0:
244,224,181777,1,10,1:2:0:0:
377,149,181953,1,10,1:2:0:0:
137,72,182129,1,2,1:2:0:0:
130,69,182218,1,0,1:2:0:0:
123,65,182306,6,0,L|147:214,1,135,6|0,1:2|2:0,2:0:0:0:
157,271,182659,1,10,1:2:0:0:
313,206,182835,1,2,1:2:0:0:
291,365,183012,1,2,1:2:0:0:
258,283,183188,1,10,1:2:0:0:
358,308,183365,1,2,1:2:0:0:
358,308,183541,1,10,1:2:0:0:
200,353,183718,5,2,1:2:0:0:
118,337,183894,1,2,1:2:0:0:
36,328,184071,2,0,L|17:227,1,90,10|0,1:2|1:2,2:0:0:0:
124,41,184424,5,2,1:2:0:0:
26,86,184600,1,10,1:2:0:0:
85,176,184777,1,2,1:2:0:0:
181,128,184953,1,10,1:2:0:0:
390,327,185306,5,2,1:2:0:0:
345,258,185482,1,10,1:2:0:0:
345,258,185659,1,2,1:2:0:0:
431,218,185835,5,2,1:2:0:0:
311,151,186012,1,10,1:2:0:0:
451,109,186188,1,2,1:2:0:0:
282,36,186365,1,10,1:2:0:0:
463,3,186541,1,2,1:2:0:0:
300,161,186718,6,0,B|266:138|231:148|231:148|210:178|163:189,1,135,2|0,1:2|2:0,2:0:0:0:
114,143,187071,2,0,B|106:98|106:98|121:52,1,90,2|0,1:2|1:2,2:0:0:0:
253,243,187424,5,10,1:2:0:0:
230,276,187512,1,0,1:2:0:0:
196,297,187600,1,0,1:2:0:0:
156,304,187688,1,0,1:2:0:0:
118,293,187777,2,0,L|105:241,1,45,8|0,1:2|1:2,2:0:0:0:
300,161,187953,6,0,B|332:159|361:174|378:198|378:198|378:198|378:198|397:224|427:236|456:234,1,180,2|8,1:2|1:2,2:0:0:0:
452,152,188482,1,0,1:2:0:0:
306,242,188659,2,0,L|287:341,1,90,2|8,1:2|1:2,2:0:0:0:
356,358,188924,1,0,1:2:0:0:
369,364,189012,2,0,L|427:346,1,45,2|0,1:2|2:0,2:0:0:0:
211,325,189188,6,0,P|157:267|83:280,1,135,10|0,1:2|2:0,2:0:0:0:
133,340,189541,1,2,1:2:0:0:
42,190,189718,5,10,1:2:0:0:
183,121,189894,1,0,1:2:0:0:
34,196,190071,2,0,L|57:83,1,90,0|8,1:2|1:2,2:0:0:0:
210,45,190424,6,0,P|235:53|256:73,1,45,2|0,1:2|2:0,2:0:0:0:
328,38,190600,2,0,P|333:63|326:91,1,45,10|0,1:2|2:0,2:0:0:0:
292,187,190777,5,2,1:2:0:0:
494,124,190953,2,0,P|428:126|386:176,1,135,2|0,1:2|2:0,2:0:0:0:
402,251,191306,2,0,B|447:259|447:259|491:235,1,90,2|0,1:2|1:2,2:0:0:0:
292,187,191659,1,10,1:2:0:0:
284,183,191747,1,0,1:2:0:0:
275,175,191835,2,0,L|205:189,1,45,0|0,1:2|2:0,2:0:0:0:
257,295,192012,2,0,L|301:286,1,45,8|0,1:2|2:0,2:0:0:0:
271,97,192188,6,0,L|191:114,1,76.5,2|0,1:2|2:0,2:0:0:0:
37,300,192365,6,0,B|72:315|72:315|118:306,1,76.5,8|0,1:3|2:0,2:0:0:0:
58,161,192541,6,0,B|27:183|27:183|12:228,1,76.5,8|0,1:3|2:0,2:0:0:0:
172,244,192718,6,0,B|167:206|167:206|136:170,1,76.5,8|0,1:3|2:0,2:0:0:0:
82,55,192894,6,0,B|119:90|119:90|179:81,1,94.4999999999999,2|0,2:0|2:0,2:0:0:0:
148,9,193247,1,2,2:0:0:0:
254,35,193436,6,0,P|236:95|222:158,1,126.356996154785,2|2,2:0|2:0,2:0:0:0:
150,206,193965,2,0,P|140:171|129:143,1,62.9999999999999,2|0,2:0|2:0,2:0:0:0:
0,238,194318,6,0,P|48:241|90:277,1,94.4999999999999,2|0,2:0|2:0,2:0:0:0:
84,268,194671,1,2,2:0:0:0:
150,206,194848,6,0,B|172:208|192:217|207:230|207:230|207:230|207:230|225:244|245:252|265:254,1,126,2|2,2:0|2:0,2:0:0:0:
338,210,195377,1,2,2:0:0:0:
328,122,195554,1,2,2:0:0:0:
328,122,195642,1,2,2:0:0:0:
328,122,195730,6,0,B|284:96|284:96|233:101,1,94.4999999999999,2|0,2:0|2:0,2:0:0:0:
240,100,196063,1,2,2:0:0:0:
392,192,196239,2,0,P|419:143|413:91,1,94.4999999999999,2|0,2:0|2:0,2:0:0:0:
385,35,196592,2,0,L|307:18,1,62.9999999999999,2|0,2:0|2:0,2:0:0:0:
234,96,196930,1,2,2:0:0:0:
230,105,197018,1,2,2:0:0:0:
225,116,197106,6,0,L|246:196,2,71.9999999999999,2|2|2,2:0|2:0|2:0,2:0:0:0:
63,18,197848,5,2,2:0:0:0:
143,129,198024,6,0,P|137:161|128:202,1,65.25,8|0,1:2|2:0,2:0:0:0:
56,334,198200,1,8,1:3:0:0:
49,329,198289,1,8,1:3:0:0:
42,325,198377,2,0,P|32:304|47:252,1,65.25,8|0,1:3|1:2,2:0:0:0:
251,146,198553,6,0,B|306:136|306:136|358:161|358:161|406:153,1,162,10|2,1:2|2:0,2:0:0:0:
375,80,198906,5,8,1:2:0:0:
310,222,199083,1,14,1:2:0:0:
258,353,199259,5,2,1:2:0:0:
347,311,199436,1,0,2:0:0:0:
421,358,199612,2,0,L|497:374,1,67.5000000000002,0|2,1:2|2:0,2:0:0:0:
505,211,199965,6,0,L|513:244,1,33.7500000000001,2|0,1:2|2:0,2:0:0:0:
426,280,200142,2,0,L|434:247,1,33.7500000000001,2|0,2:0|2:0,2:0:0:0:
383,159,200318,2,0,L|350:167,1,33.7500000000001,2|0,1:2|2:0,2:0:0:0:
309,234,200495,2,0,L|342:242,1,33.7500000000001,2|0,2:0|2:0,2:0:0:0:
459,132,200671,5,2,1:2:0:0:
428,59,200848,1,0,2:0:0:0:
356,32,201024,2,0,P|323:31|289:44,1,67.5000000000002,0|2,1:2|2:0,2:0:0:0:
237,157,201377,1,0,1:2:0:0:
130,85,201553,5,10,1:2:0:0:
170,288,201730,1,8,1:2:0:0:
425,103,201906,6,0,B|377:96|338:147|338:147|326:91|270:78,1,202.5,14|0,1:2|2:0,2:0:0:0:
356,31,202259,1,0,1:2:0:0:
473,187,202436,5,8,1:2:0:0:
237,157,202612,1,0,1:2:0:0:
452,320,202789,5,8,1:2:0:0:
215,272,202965,1,0,1:2:0:0:
351,224,203142,1,0,1:2:0:0:
188,359,203318,6,0,B|144:318|86:335|86:335|59:373|7:377,1,202.5,12|0,1:2|2:0,2:0:0:0:
0,284,203671,2,0,P|26:283|5:299,1,67.5,0|0,1:2|2:0,2:0:0:0:
186,169,203848,5,8,1:2:0:0:
16,168,204024,5,0,1:2:0:0:
0,123,204112,1,0,1:2:0:0:
30,86,204200,1,10,1:2:0:0:
306,213,204377,5,2,1:2:0:0:
306,213,205083,6,0,L|316:133,1,60.75,4|0,1:2|2:0,2:0:0:0:
232,31,205259,2,0,B|224:63|224:63|245:110,1,60.75,8|0,1:2|2:0,2:0:0:0:
383,70,205436,1,2,1:2:0:0:
389,50,205524,1,2,1:2:0:0:
379,31,205612,5,2,1:2:0:0:
157,134,205789,2,0,P|194:169|244:180,1,103.5,2|8,2:0|1:2,2:0:0:0:
503,208,206142,6,0,B|462:143|462:143|379:164,1,155.25,2|0,2:0|2:0,2:0:0:0:
338,225,206495,2,0,P|345:248|372:275,1,51.75,2|0,2:0|2:0,2:0:0:0:
493,300,206671,2,0,P|470:295|433:304,1,51.75,8|0,1:2|2:0,2:0:0:0:
275,357,206848,1,2,2:0:0:0:
275,357,206936,1,2,2:0:0:0:
275,357,207024,6,0,L|161:329,1,103.5,2|0,1:2|2:0,2:0:0:0:
104,344,207289,1,0,2:0:0:0:
95,352,207377,2,0,L|76:284,1,51.75,10|0,1:2|2:0,2:0:0:0:
40,102,207553,6,0,B|92:96|92:96|141:131,1,103.5,2|0,2:0|1:2,2:0:0:0:
204,102,207818,1,0,2:0:0:0:
215,94,207906,2,0,P|216:68|207:43,1,51.75,2|0,2:0|2:0,2:0:0:0:
71,180,208083,2,0,L|61:235,1,51.75,8|0,1:2|2:0,2:0:0:0:
126,288,208259,1,2,2:0:0:0:
126,288,208348,1,0,2:0:0:0:
126,288,208436,6,0,L|228:271,1,103.5,2|0,1:2|2:0,2:0:0:0:
285,218,208700,2,0,P|307:263|293:312,1,103.5,2|0,2:0|2:0,2:0:0:0:
247,369,208965,2,0,L|197:360,1,51.75,2|0,2:0|2:0,2:0:0:0:
393,250,209142,6,0,B|444:243|444:243|498:278,1,103.5,2|0,1:2|2:0,2:0:0:0:
476,341,209406,1,2,2:0:0:0:
472,354,209495,2,0,L|412:340,1,51.75,8|0,1:2|2:0,2:0:0:0:
326,193,209671,1,2,2:0:0:0:
322,186,209759,1,0,2:0:0:0:
318,179,209848,6,0,P|354:142|420:141,1,103.5,2|0,1:2|2:0,2:0:0:0:
259,28,210112,2,0,P|273:78|241:135,1,103.5,2|0,2:0|2:0,2:0:0:0:
392,48,210377,2,0,B|365:41|365:41|336:10,1,51.75,14|0,2:0|2:0,2:0:0:0:
175,34,210553,6,0,B|157:32|130:44|114:70|114:70|114:70|114:70|99:92|74:107|45:106,1,155.25,2|0,1:2|2:0,2:0:0:0:
0,13,210906,2,0,P|25:18|61:37,1,51.75,8|0,1:2|2:0,2:0:0:0:
189,125,211083,1,2,2:0:0:0:
189,125,211171,1,2,2:0:0:0:
189,125,211259,5,2,1:2:0:0:
21,204,211436,1,0,2:0:0:0:
199,240,211612,1,10,1:2:0:0:
45,106,211789,1,0,2:0:0:0:
104,356,211965,6,0,B|146:316|198:318|198:318|240:355|318:344,1,207,2|8,1:2|1:2,2:0:0:0:
495,270,212495,2,0,P|484:298|478:326,1,51.75,2|2,2:0|2:0,2:0:0:0:
406,359,212671,6,0,P|397:301|381:251,1,103.5,2|2,1:2|2:0,2:0:0:0:
323,210,212936,1,0,2:0:0:0:
312,206,213024,2,0,P|297:178|299:144,1,51.75,8|0,1:2|2:0,2:0:0:0:
480,49,213200,6,0,B|451:118|451:118|374:93,1,155.25,14|0,1:2|2:0,2:0:0:0:
312,49,213553,2,0,P|332:30|372:21,1,51.75,10|8,1:2|1:2,2:0:0:0:
488,191,213730,5,10,1:2:0:0:
442,193,213818,1,8,1:2:0:0:
404,218,213906,1,8,1:2:0:0:
383,258,213995,1,8,1:2:0:0:
385,303,214083,5,10,1:2:0:0:
432,272,214171,1,8,1:2:0:0:
453,220,214259,1,8,1:2:0:0:
441,166,214348,1,8,1:2:0:0:
399,128,214436,2,0,L|325:113,1,51.75,10|8,1:2|1:2,2:0:0:0:
209,131,214612,5,10,1:2:0:0:
181,180,214700,1,8,1:2:0:0:
181,236,214789,1,8,1:2:0:0:
207,286,214877,1,8,1:2:0:0:
254,317,214965,2,0,L|320:327,1,51.75,10|8,1:2|1:2,2:0:0:0:
487,352,215142,5,10,1:2:0:0:
479,295,215230,1,8,1:2:0:0:
472,239,215318,1,8,1:2:0:0:
464,182,215406,1,8,1:2:0:0:
457,126,215495,6,0,L|445:56,1,51.75,10|8,1:2|1:2,2:0:0:0:
303,16,215671,2,0,L|294:67,1,51.75,8|8,1:2|1:2,2:0:0:0:
356,222,215848,1,8,1:2:0:0:
135,151,216024,6,0,P|145:67|209:117,1,195.75,4|0,1:2|2:0,2:0:0:0:
203,194,216377,6,0,P|193:227|156:254,1,65.25,2|0,1:2|1:2,2:0:0:0:
43,234,216553,1,10,1:2:0:0:
221,303,216730,5,2,1:2:0:0:
44,155,216906,1,10,1:2:0:0:
92,343,217083,5,0,1:2:0:0:
122,103,217259,1,8,1:2:0:0:
312,358,217436,6,0,L|300:277,1,65.25,6|0,1:2|2:0,2:0:0:0:
271,108,217612,5,8,1:2:0:0:
423,150,217789,1,2,1:2:0:0:
244,187,217965,5,10,1:2:0:0:
374,48,218142,1,2,1:2:0:0:
410,250,218318,5,10,1:2:0:0:
292,27,218495,1,0,1:2:0:0:
227,271,218671,5,8,1:2:0:0:
423,150,218848,2,0,P|441:123|452:92,1,65.25,6|0,1:2|2:0,2:0:0:0:
205,43,219024,5,8,1:2:0:0:
298,215,219200,1,2,1:2:0:0:
126,308,219377,1,10,1:2:0:0:
55,124,219553,6,0,B|122:116|122:116|185:167,1,130.5,2|8,1:2|1:2,2:0:0:0:
27,364,219906,5,2,1:2:0:0:
94,201,220083,1,10,1:2:0:0:
271,355,220259,2,0,L|195:371,1,65.25,6|0,1:2|2:0,2:0:0:0:
0,238,220436,5,8,1:2:0:0:
221,141,220612,1,0,1:2:0:0:
122,44,220789,5,8,1:2:0:0:
197,226,220965,2,0,L|260:247,1,65.25,2|0,1:2|1:2,2:0:0:0:
400,187,221142,6,0,P|391:123|342:82,1,130.5,10|0,1:2|1:2,2:0:0:0:
289,35,221406,1,2,2:0:0:0:
282,26,221495,2,0,L|357:3,1,65.25,8|0,1:2|2:0,2:0:0:0:
507,66,221671,6,0,L|484:141,1,78.75,6|0,1:2|2:0,2:0:0:0:
403,349,221847,6,0,B|337:356|337:356|289:308,1,130.5,10|0,1:2|1:2,2:0:0:0:
171,119,222200,1,12,1:2:0:0:
41,303,222377,1,0,1:2:0:0:
66,332,222465,1,0,1:2:0:0:
105,335,222553,5,12,1:2:0:0:
291,310,222730,1,0,1:2:0:0:
75,161,222906,5,12,1:2:0:0:
299,136,223083,1,0,1:2:0:0:
200,317,223259,5,12,1:2:0:0:
6,231,223436,1,0,1:2:0:0:
140,50,223612,5,12,1:2:0:0:
299,136,223789,1,0,1:2:0:0:
299,136,223877,1,0,1:2:0:0:
299,136,223965,1,12,1:2:0:0:
47,21,224142,6,0,L|34:96,1,65.25,0|0,1:2|2:0,2:0:0:0:
232,233,224318,6,0,L|220:163,1,65.25,12|0,1:2|2:0,2:0:0:0:
78,283,224495,6,0,P|65:298|89:290,1,65.25,4|0,1:2|2:0,2:0:0:0:
330,264,224671,6,0,B|365:264|394:285|409:313|409:313|409:313|409:313|427:343|458:361|490:362,1,195.75,2|0,2:0|2:0,2:0:0:0:
481,275,225024,5,8,1:2:0:0:
232,233,225200,1,2,2:0:0:0:
339,355,225377,5,8,1:2:0:0:
390,149,225553,1,0,1:2:0:0:
390,149,225730,1,2,1:2:0:0:
169,281,225906,6,0,B|156:224|156:224|92:183|92:183|74:120,1,195.75,12|0,1:2|2:0,2:0:0:0:
51,50,226259,2,0,B|81:39|81:39|117:58,1,65.25,2|0,1:2|2:0,2:0:0:0:
88,288,226436,6,0,P|11:313|30:235,1,195.75,8|0,1:2|2:0,2:0:0:0:
114,211,226789,6,0,P|147:166|100:199,1,162,10|0,1:2|2:0,2:0:0:0:
181,280,227142,6,0,P|256:269|304:165,1,195.75,14|0,1:2|2:0,2:0:0:0:
259,100,227495,5,12,1:2:0:0:
453,144,227671,1,0,1:2:0:0:
244,97,227847,1,0,1:2:0:0:
361,267,228024,6,0,B|400:289|408:326|408:326|431:297|480:310,1,155.25,12|0,1:2|2:0,2:0:0:0:
440,225,228377,1,0,1:2:0:0:
247,376,228553,6,0,B|267:328|267:328|255:275,1,103.5,12|0,1:2|1:2,2:0:0:0:
201,76,228906,5,12,1:2:0:0:
93,157,229083,1,0,1:2:0:0:
51,37,229259,1,0,1:2:0:0:
234,158,229436,6,0,B|206:158|183:174|171:196|171:196|171:196|171:196|157:220|132:234|107:235,1,155.25,12|0,1:2|2:0,2:0:0:0:
93,157,229789,1,0,1:2:0:0:
277,332,229965,6,0,P|276:281|250:237,1,103.5,12|0,1:2|1:2,2:0:0:0:
21,314,230318,5,12,1:2:0:0:
110,330,230495,1,0,1:2:0:0:
196,349,230671,1,0,1:2:0:0:
68,97,230847,6,0,B|94:184|94:184|41:220,1,155.25,12|0,1:2|2:0,2:0:0:0:
7,151,231200,1,0,1:2:0:0:
194,25,231377,6,0,L|181:84,1,60.75,12|0,1:2|2:0,2:0:0:0:
293,217,231553,6,0,P|371:223|353:147,1,182.25,4|0,1:2|2:0,2:0:0:0:
279,140,231906,2,0,P|271:110|277:81,1,60.75,0|0,1:2|2:0,2:0:0:0:
512,24,232083,5,8,1:2:0:0:
451,149,232259,1,0,1:2:0:0:
490,220,232436,5,8,1:2:0:0:
401,45,232612,1,0,1:2:0:0:
336,216,232789,5,8,1:2:0:0:
512,24,232965,1,0,1:2:0:0:
225,34,233142,5,12,1:2:0:0:
262,119,233318,1,0,1:2:0:0:
345,76,233495,1,0,1:2:0:0:
124,137,233671,6,0,P|194:161|213:233,1,155.25,12|0,1:2|2:0,2:0:0:0:
136,220,234024,1,0,1:2:0:0:
327,286,234200,6,0,B|297:329|297:329|247:341,1,103.5,12|0,1:2|1:2,2:0:0:0:
47,219,234553,5,12,1:2:0:0:
98,368,234730,1,0,1:2:0:0:
43,207,234906,1,0,1:2:0:0:
217,146,235083,6,0,L|365:191,1,155.25,12|0,1:2|2:0,2:0:0:0:
435,214,235436,1,0,1:2:0:0:
479,39,235612,6,0,B|427:36|427:36|374:68,1,103.5,12|0,1:2|1:2,2:0:0:0:
238,230,235965,5,12,1:2:0:0:
217,146,236142,1,0,1:2:0:0:
198,65,236318,1,0,1:2:0:0:
2,278,236495,6,0,B|37:250|77:259|77:259|97:294|139:298,1,155.25,12|0,1:2|2:0,2:0:0:0:
143,219,236847,1,0,1:2:0:0:
282,344,237024,6,0,P|260:335|279:337,1,60.75,12|0,1:2|2:0,2:0:0:0:
422,266,237200,6,0,P|434:342|359:323,1,182.25,4|0,1:2|2:0,2:0:0:0:
342,242,237553,5,0,1:2:0:0:
494,86,237730,5,8,1:2:0:0:
237,151,237906,1,8,1:2:0:0:
413,17,238083,5,8,1:2:0:0:
496,232,238259,1,8,1:2:0:0:
154,239,238436,5,8,1:2:0:0:
438,144,238612,1,8,1:2:0:0:
304,189,238789,1,0,1:2:0:0:
461,368,238965,6,0,B|373:339|373:339|403:232,1,191.250000000001,12|0,1:2|2:0,2:0:0:0:
465,289,239495,2,0,L|515:277,1,38.2500000000001,0|0,1:2|2:0,2:0:0:0:
257,360,239671,6,0,B|252:321|252:321|273:267,1,78.75,12|0,1:2|2:0,2:0:0:0:
236,133,239847,6,0,B|275:128|275:128|329:149,1,78.75,12|0,1:2|2:0,2:0:0:0:
461,368,240024,5,12,1:2:0:0:
256,192,240112,12,0,241921,2:0:0:0:
