osu file format v14

[General]
AudioFilename: audio.mp3
AudioLeadIn: 0
PreviewTime: 50311
Countdown: 0
SampleSet: Soft
StackLeniency: 0.7
Mode: 0
LetterboxInBreaks: 0
WidescreenStoryboard: 1

[Editor]
Bookmarks: 59940,99690
DistanceSpacing: 1
BeatDivisor: 4
GridSize: 4
TimelineZoom: 1.5

[Metadata]
Title:Qubism
TitleUnicode:Qubism
Artist:Hate vs. Brilliance
ArtistUnicode:Hate vs. Brilliance
Creator:Mafumafu
Version:STANDARD
Source:SOUND VOLTEX II -infinite infection-
Tags:SDVX edm electronics mug music game taku bluoxy habiholic danielexus regraz
BeatmapID:1172725
BeatmapSetID:524503

[Difficulty]
HPDrainRate:3
CircleSize:3.2
OverallDifficulty:4
ApproachRate:5.8
SliderMultiplier:0.85
SliderTickRate:1

[Events]
//Background and Video events
0,0,"BG.jpg",0,0
//Break Periods
2,71844,81232
//Storyboard Layer 0 (Background)
//Storyboard Layer 1 (Fail)
//Storyboard Layer 2 (Pass)
//Storyboard Layer 3 (Foreground)
//Storyboard Layer 4 (Overlay)
//Storyboard Sound Samples

[TimingPoints]
978,333.333333333333,4,2,2,20,1,0
978,-100,4,2,4,80,0,0
1977,-100,4,2,2,60,0,0
2227,-100,4,2,1,5,0,0
2311,-100,4,2,2,60,0,0
3894,-100,4,2,2,60,0,0
6977,-100,4,2,2,60,0,0
7311,-100,4,2,2,60,0,0
7644,-100,4,2,1,60,0,0
16977,-100,4,2,1,60,0,0
17311,-100,4,2,1,60,0,0
18311,-100,4,2,1,60,0,0
28311,-100,4,2,1,60,0,0
28977,-100,4,3,1,60,0,0
34311,-100,4,2,1,60,0,0
36894,-100,4,3,1,60,0,0
39644,-100,4,3,1,70,0,0
40311,-100,4,3,1,70,0,0
44977,-100,4,2,1,40,0,0
45311,-100,4,3,1,70,0,0
48311,-100,4,3,1,70,0,0
48977,-100,4,3,1,70,0,0
49644,-100,4,2,1,70,0,0
50311,-100,4,2,1,60,0,0
50644,-100,4,2,1,70,0,0
65644,-100,4,2,1,60,0,0
65977,-100,4,2,2,30,0,0
66311,-100,4,2,2,100,0,0
66422,-100,4,2,2,25,0,0
66533,-100,4,2,2,100,0,0
66755,-100,4,2,2,100,0,0
66977,-100,4,2,2,100,0,0
67200,-100,4,2,2,100,0,0
67422,-100,4,2,2,100,0,0
67644,-100,4,2,2,100,0,0
67866,-100,4,2,2,100,0,0
68089,-100,4,2,2,100,0,0
68311,-100,4,2,2,100,0,0
68533,-100,4,2,2,100,0,0
70311,-100,4,2,1,50,0,0
70477,-100,4,2,2,60,0,0
71644,-100,4,2,3,80,0,0
82311,-100,4,2,1,80,0,0
84977,-100,4,2,3,70,0,0
86311,-100,4,3,1,60,0,0
86644,-100,4,2,3,50,0,0
86977,-100,4,2,3,60,0,0
87144,-100,4,3,1,40,0,0
87311,-100,4,2,3,70,0,0
87477,-100,4,2,3,80,0,0
88977,-100,4,2,1,60,0,0
92977,-100,4,2,1,60,0,0
93311,-100,4,2,1,60,0,0
93644,-100,4,2,1,60,0,0
94311,-100,4,2,1,60,0,0
98311,-100,4,2,1,60,0,0
98977,-100,4,2,1,60,0,0
102311,-100,4,2,1,60,0,0
103644,-100,4,1,3,50,0,0
104311,-100,4,1,3,60,0,0
104977,-100,4,2,1,60,0,0
105977,-100,4,2,1,60,0,0
106144,-100,4,2,1,60,0,0
106311,-100,4,2,1,60,0,0
106644,-100,4,2,1,60,0,0
107311,-100,4,2,1,60,0,0
107477,-100,4,2,1,60,0,0
107644,-100,4,2,1,60,0,0
108977,-100,4,2,1,5,0,0
109200,-100,4,2,4,25,0,0
109311,-100,4,2,1,25,0,0
111977,-100,4,2,1,25,0,0

[Colours]
Combo1 : 255,128,64
Combo2 : 192,192,192
Combo3 : 255,128,128
Combo4 : 0,128,255

[HitObjects]
36,45,2311,6,0,L|52:231,1,170,4|0,1:0|0:0,0:0:0:0:
110,275,3311,1,4,1:2:0:0:
141,196,3644,2,0,L|126:26,1,170,4|0,1:0|0:0,0:0:0:0:
211,33,4644,1,4,1:2:0:0:
286,70,4977,6,0,P|341:72|368:95,1,85,0|0,1:0|1:0,0:0:0:0:
420,152,5644,2,0,L|408:252,1,85,0|0,1:0|1:0,0:0:0:0:
457,306,6311,1,0,1:0:0:0:
374,324,6644,2,0,P|293:296|205:329,1,170,0|0,1:0|0:0,0:0:0:0:
133,343,7644,6,0,L|34:338,1,85,4|4,0:3|0:3,0:0:0:0:
53,253,8311,2,0,L|137:257,1,85,4|4,0:3|0:3,0:0:0:0:
196,195,8977,2,0,P|187:148|192:94,2,85,4|4|4,0:3|0:3|0:3,0:0:0:0:
259,251,9977,1,4,0:3:0:0:
320,191,10311,6,0,P|369:184|406:194,1,85,4|4,0:3|0:3,0:0:0:0:
484,215,10977,2,0,L|472:299,1,85,4|4,0:3|0:3,0:0:0:0:
406,353,11644,2,0,B|349:343|349:343|301:349|301:349|233:340,1,170,4|4,0:3|0:3,0:0:0:0:
156,365,12644,1,2,0:3:0:0:
156,365,12977,6,0,L|54:369,1,85,4|4,0:3|0:3,0:0:0:0:
36,290,13644,2,0,P|32:237|40:189,1,85,4|4,0:3|0:3,0:0:0:0:
41,120,14311,1,4,0:3:0:0:
41,120,14644,1,4,0:3:0:0:
125,124,14977,2,0,P|201:133|223:122,1,85,4|4,0:3|0:3,0:0:0:0:
245,54,15644,6,0,L|334:64,1,85,4|4,0:3|0:3,0:0:0:0:
404,23,16311,2,0,P|463:150|448:171,1,170,4|2,0:3|0:3,0:0:0:0:
399,219,17311,1,0,0:0:0:0:
328,171,17644,2,0,P|213:147|193:158,1,127.5,0|0,0:0|0:0,0:0:0:0:
173,169,18311,6,0,L|178:261,1,85,4|4,0:3|0:3,0:0:0:0:
94,272,18977,2,0,L|89:187,1,85,4|4,0:3|0:3,0:0:0:0:
68,104,19644,2,0,P|59:46|74:7,1,85,4|4,0:3|0:3,0:0:0:0:
149,40,20311,2,0,L|208:34,1,42.5,4|0,0:3|0:0,0:0:0:0:
233,31,20644,1,4,0:3:0:0:
308,69,20977,6,0,P|365:88|401:76,1,85,4|4,0:3|0:3,0:0:0:0:
472,92,21644,2,0,L|462:183,1,85,4|4,0:3|0:3,0:0:0:0:
389,220,22311,2,0,P|402:261|403:303,1,85,4|4,0:3|0:3,0:0:0:0:
328,342,22977,2,0,L|279:337,1,42.5,4|0,0:3|0:0,0:0:0:0:
243,332,23311,1,4,0:3:0:0:
158,341,23644,6,0,P|93:359|66:356,2,85,4|4|4,0:3|0:3|0:3,0:0:0:0:
192,263,24644,1,4,0:3:0:0:
115,226,24977,2,0,L|105:132,1,85,4|4,0:3|0:3,0:0:0:0:
86,58,25644,2,0,P|152:70|170:83,1,85,4|4,0:3|0:3,0:0:0:0:
234,129,26311,6,0,L|335:123,1,85,4|4,0:3|0:3,0:0:0:0:
403,119,26977,2,0,P|397:78|410:25,2,85,4|4|4,0:3|0:3|0:3,0:0:0:0:
471,169,27977,1,4,0:3:0:0:
429,243,28311,2,0,P|359:232|302:269,1,127.5,4|2,0:3|0:3,0:0:0:0:
277,283,28977,6,0,P|285:334|283:374,2,85,4|4|4,0:0|0:0|0:0,0:0:0:0:
206,235,29977,1,4,0:0:0:0:
130,274,30311,2,0,L|33:265,1,85,4|4,0:0|0:0,0:0:0:0:
44,181,30977,2,0,L|128:188,1,85,4|4,0:0|0:0,0:0:0:0:
203,148,31644,6,0,P|242:132|282:142,1,85,4|4,0:0|0:0,0:0:0:0:
365,161,32311,2,0,L|370:56,2,85,4|4|4,0:0|0:0|0:0,0:0:0:0:
419,226,33311,1,4,0:0:0:0:
349,274,33644,2,0,L|290:272,1,42.5,4|0,0:0|0:0,0:0:0:0:
264,269,33977,1,0,0:0:0:0:
261,354,34311,6,0,L|357:357,1,85,4|4,0:3|0:3,0:0:0:0:
430,364,34977,2,0,P|446:325|437:265,1,85,4|4,0:3|0:3,0:0:0:0:
383,223,35644,2,0,P|375:188|383:138,1,85,4|4,0:3|0:3,0:0:0:0:
424,65,36311,2,0,P|374:54|329:69,1,85,4|4,0:3|0:3,0:0:0:0:
268,104,36977,5,4,0:0:0:0:
193,63,37311,1,4,0:0:0:0:
121,108,37644,2,0,P|47:114|29:109,1,85,4|4,0:0|0:0,0:0:0:0:
39,196,38311,2,0,P|55:262|57:289,1,85,4|4,0:0|0:0,0:0:0:0:
77,361,38977,2,0,L|17:365,2,42.5,4|4|4,0:0|0:0|0:0,0:0:0:0:
119,359,39477,1,4,0:0:0:0:
119,359,39644,6,0,P|181:349|293:358,1,170,4|0,0:3|1:0,0:0:0:0:
372,364,40644,1,0,0:0:0:0:
454,342,40977,2,0,L|442:173,1,170,0|0,0:0|1:0,0:0:0:0:
435,87,41977,1,0,0:0:0:0:
353,61,42311,6,0,P|305:94|267:89,1,85,4|4,0:3|0:3,0:0:0:0:
201,62,42977,1,0,1:0:0:0:
201,62,43311,1,0,1:0:0:0:
123,97,43644,2,0,P|113:154|110:199,1,85,4|4,0:3|0:3,0:0:0:0:
119,265,44311,2,0,L|177:267,1,42.5,0|0,1:0|0:0,0:0:0:0:
198,287,44644,2,0,L|247:290,1,42.5,4|4,0:3|0:3,0:0:0:0:
276,312,44977,5,0,0:0:0:0:
360,300,45311,2,0,P|354:242|368:211,1,85,4|0,0:3|1:0,0:0:0:0:
438,178,45977,1,4,0:3:0:0:
385,111,46311,2,0,P|315:104|293:112,2,85,4|4|0,0:3|0:3|1:0,0:0:0:0:
438,178,47311,1,0,3:0:0:0:
371,230,47644,6,0,L|379:330,1,85,4|4,3:3|0:3,0:0:0:0:
294,334,48311,2,0,P|246:344|204:321,1,85,0|0,1:0|0:0,0:0:0:0:
157,267,48977,2,0,L|58:275,2,85,4|4|0,0:3|0:3|0:0,0:0:0:0:
197,192,49977,1,0,0:0:0:0:
197,192,50311,6,0,P|184:140|195:91,1,85,0|4,0:0|3:0,0:0:0:0:
244,46,50977,2,0,L|304:50,1,42.5,2|0,0:0|1:0,0:0:0:0:
328,53,51311,1,8,0:0:0:0:
412,54,51644,2,0,P|409:108|423:156,1,85,2|8,0:0|0:0,0:0:0:0:
427,178,52144,1,2,0:0:0:0:
427,178,52311,2,0,L|483:175,2,42.5,2|0|8,0:0|1:0|0:0,0:0:0:0:
366,237,52977,6,0,P|332:235|278:246,1,85,0|8,1:0|0:0,0:0:0:0:
251,274,53477,1,2,0:0:0:0:
251,274,53644,2,0,L|162:271,1,85,2|8,0:0|0:0,0:0:0:0:
91,311,54311,2,0,L|36:309,2,42.5,2|0|8,0:0|1:0|0:0,0:0:0:0:
161,357,54977,1,2,0:0:0:0:
246,361,55311,2,0,L|304:361,1,42.5,8|2,0:0|0:0,0:0:0:0:
331,361,55644,6,0,P|328:305|338:258,1,85,0|8,1:0|0:0,0:0:0:0:
368,252,56144,1,2,0:0:0:0:
368,252,56311,2,0,L|421:255,2,42.5,2|0|8,0:0|1:0|0:0,0:0:0:0:
338,172,56977,2,0,L|280:165,1,42.5,2|0,0:0|1:0,0:0:0:0:
253,162,57311,1,8,0:0:0:0:
168,163,57644,2,0,P|134:198|81:202,1,85,2|8,0:0|0:0,0:0:0:0:
57,200,58144,1,0,0:0:0:0:
57,200,58311,6,0,P|64:239|65:298,1,85,0|8,0:0|0:0,0:0:0:0:
104,359,58977,2,0,P|149:346|188:316,1,85,0|8,0:0|0:0,0:0:0:0:
193,283,59477,2,0,L|286:291,1,85,0|0,1:0|1:0,0:0:0:0:
400,325,60311,2,0,L|409:224,1,85,8|8,0:0|0:0,0:0:0:0:
451,167,60977,5,0,0:0:0:0:
416,89,61311,2,0,P|367:115|302:93,1,127.5,8|0,0:0|1:0,0:0:0:0:
307,50,61977,1,8,0:0:0:0:
222,63,62311,2,0,L|126:70,1,85,2|8,0:0|0:0,0:0:0:0:
52,70,62977,2,0,L|61:131,1,42.5,2|0,0:0|1:0,0:0:0:0:
77,150,63311,2,0,L|62:200,1,42.5,8|2,0:0|0:0,0:0:0:0:
44,228,63644,6,0,P|57:269|55:324,1,85,0|8,0:0|0:0,0:0:0:0:
142,320,64311,2,0,L|203:312,1,42.5,2|0,0:0|1:0,0:0:0:0:
226,308,64644,1,8,0:0:0:0:
305,338,64977,2,0,P|344:357|390:346,1,85,2|8,0:0|0:0,0:0:0:0:
422,331,65477,1,2,0:0:0:0:
422,331,65644,2,0,L|415:246,1,85,2|2,0:0|0:0,0:0:0:0:
385,166,66311,6,0,P|312:199|255:177,1,127.5,4|0,0:3|2:0,0:0:0:0:
233,208,66977,2,0,L|243:71,1,127.5,2|0,0:0|0:0,0:0:0:0:
242,38,67644,2,0,P|184:21|112:48,1,127.5,2|0,0:0|0:0,0:0:0:0:
123,83,68311,2,0,L|132:210,1,127.5,2|0,0:0|0:0,0:0:0:0:
105,242,68977,5,4,0:3:0:0:
190,336,69477,1,0,0:0:0:0:
190,336,69644,2,0,P|252:319|327:333,1,127.5,0|0,1:0|0:0,0:0:0:0:
347,353,70311,1,4,2:3:0:0:
347,353,71644,5,6,0:0:0:0:
382,67,82311,6,0,L|392:158,1,85,0|0,0:0|0:0,0:0:0:0:
402,235,82977,2,0,P|365:248|314:235,1,85,0|0,0:0|0:0,0:0:0:0:
251,189,83644,2,0,L|155:199,2,85,0|0|0,0:0|0:0|0:0,0:0:0:0:
298,118,84644,1,0,0:0:0:0:
234,61,84977,6,0,L|134:70,1,85,0|0,0:0|0:0,0:0:0:0:
64,57,85644,2,0,L|74:157,1,85,0|0,0:0|0:0,0:0:0:0:
87,225,86311,2,0,P|47:257|-2:254,2,85,0|0|2,0:0|0:0|0:3,0:0:0:0:
162,185,87311,2,0,L|215:190,1,42.5,4|4,0:3|0:3,0:0:0:0:
204,188,88977,6,0,P|186:136|193:93,1,85,4|8,0:3|0:0,0:0:0:0:
231,33,89644,2,0,L|323:38,1,85,4|8,0:3|0:0,0:0:0:0:
350,61,90144,1,0,0:0:0:0:
350,61,90311,2,0,P|415:78|445:73,1,85,4|8,0:3|0:0,0:0:0:0:
459,156,90977,2,0,P|465:236|465:258,1,85,4|8,0:3|0:0,0:0:0:0:
456,282,91477,1,0,0:0:0:0:
456,282,91644,6,0,L|363:270,1,85,4|8,0:3|0:0,0:0:0:0:
293,305,92311,2,0,P|263:339|207:337,1,85,4|8,0:3|0:0,0:0:0:0:
189,320,92811,1,0,0:0:0:0:
189,320,92977,2,0,L|90:316,2,85,4|8|4,0:3|0:0|0:3,0:0:0:0:
233,247,93977,1,8,0:0:0:0:
292,186,94311,6,0,P|349:196|374:225,1,85,4|8,0:3|0:0,0:0:0:0:
438,260,94977,1,4,0:3:0:0:
488,191,95311,2,0,L|485:148,1,42.5,8|0,0:0|0:0,0:0:0:0:
480,106,95644,2,0,P|427:121|386:105,1,85,4|8,0:3|0:0,0:0:0:0:
330,63,96311,2,0,L|232:76,1,85,4|8,0:3|0:0,0:0:0:0:
218,106,96811,1,0,0:0:0:0:
218,106,96977,6,0,L|123:90,1,85,4|8,0:3|0:0,0:0:0:0:
49,91,97644,2,0,P|57:139|53:192,1,85,4|8,0:3|0:0,0:0:0:0:
71,258,98311,2,0,P|36:266|0:285,2,63.75,4|4|4,0:3|0:3|0:3,0:0:0:0:
106,281,98977,1,4,0:3:0:0:
190,289,99311,2,0,L|249:282,1,42.5
266,309,99644,6,0,L|368:320,1,85,4|8,0:3|0:0,0:0:0:0:
428,282,100311,2,0,L|480:274,2,42.5,4|0|8,0:3|0:0|0:0,0:0:0:0:
404,246,100811,1,0,0:0:0:0:
404,246,100977,2,0,P|394:188|409:153,1,85,4|8,0:3|0:0,0:0:0:0:
345,100,101644,2,0,L|352:41,2,42.5,4|0|8,0:3|0:0|0:0,0:0:0:0:
311,126,102144,1,0,0:0:0:0:
311,126,102311,6,0,P|248:135|219:119,1,85,4|4,0:3|0:3,0:0:0:0:
151,95,102977,2,0,L|54:101,1,85,4|4,0:3|0:3,0:0:0:0:
26,86,103477,1,4,0:3:0:0:
26,86,103644,2,0,L|35:174,1,85,8|8,0:0|0:0,0:0:0:0:
47,258,104311,2,0,P|110:287|122:306,1,85,8|4,0:0|0:3,0:0:0:0:
131,338,104811,1,4,0:3:0:0:
131,338,104977,5,8,0:0:0:0:
356,218,105977,2,0,L|360:280,1,42.5,8|0,0:0|0:3,0:0:0:0:
363,302,106311,5,8,0:0:0:0:
108,316,107311,2,0,L|104:254,1,42.5,8|0,0:0|0:0,0:0:0:0:
104,231,107644,6,0,P|155:231|199:172,1,127.5,0|0,1:0|0:0,0:0:0:0:
180,135,108311,2,0,P|245:109|298:140,1,127.5,0|0,1:0|0:0,0:0:0:0:
397,207,109311,5,0,0:0:0:0:
256,192,109394,12,0,111977,0:0:0:0:
