osu file format v14

[General]
AudioFilename: Qubism.mp3
AudioLeadIn: 0
PreviewTime: 88321
Countdown: 0
SampleSet: Normal
StackLeniency: 0.7
Mode: 1
LetterboxInBreaks: 0
WidescreenStoryboard: 0

[Editor]
DistanceSpacing: 0.6
BeatDivisor: 4
GridSize: 32
TimelineZoom: 1.8

[Metadata]
Title:Qubism
TitleUnicode:Qubism
Artist:Hate vs Brilliance
ArtistUnicode:Hate vs Brilliance
Creator:Nishizumi
Version:Muzukashii
Source:SOUND VOLTEX II -infinite infection-
Tags:REFLEC BEAT colette -Summer-
BeatmapID:969473
BeatmapSetID:451660

[Difficulty]
HPDrainRate:6
CircleSize:5
OverallDifficulty:5
ApproachRate:5
SliderMultiplier:1.4
SliderTickRate:1

[Events]
//Background and Video events
0,0,"surono.jpg",0,120
//Break Periods
//Storyboard Layer 0 (Background)
//Storyboard Layer 1 (Fail)
//Storyboard Layer 2 (Pass)
//Storyboard Layer 3 (Foreground)
//Storyboard Sound Samples

[TimingPoints]
1655,333.333333333333,4,1,0,90,1,0
3321,-100,4,1,0,80,0,0
3488,-100,4,1,0,70,0,0
3654,-100,4,1,0,60,0,0
3988,-100,4,1,0,75,0,0
4321,-100,4,1,0,90,0,0
69821,-100,4,1,0,50,0,0
70988,-100,4,1,0,80,0,0
88321,-100,4,1,0,90,0,1
104321,-100,4,1,0,90,0,0
105988,-100,4,1,0,80,0,0
106154,-100,4,1,0,70,0,0
106321,-100,4,1,0,60,0,0
106654,-100,4,1,0,75,0,0
106988,-100,4,1,0,90,0,0
109654,-100,4,1,0,85,0,0
110321,-100,4,1,0,80,0,0
110988,-100,4,1,0,75,0,0

[HitObjects]
256,192,1654,5,4,0:0:0:0:
256,192,1988,1,0,0:0:0:0:
256,192,2154,1,8,0:0:0:0:
256,192,2321,1,8,0:0:0:0:
256,192,2488,1,0,0:0:0:0:
256,192,2654,1,8,0:0:0:0:
256,192,2821,1,8,0:0:0:0:
256,192,2988,1,4,0:0:0:0:
256,192,3321,1,8,0:0:0:0:
256,192,3488,1,8,0:0:0:0:
256,192,3654,1,0,0:0:0:0:
256,192,3988,1,0,0:0:0:0:
256,192,4321,1,8,0:0:0:0:
256,192,4654,1,8,0:0:0:0:
256,192,4988,1,8,0:0:0:0:
256,192,5321,1,8,0:0:0:0:
256,192,5654,1,8,0:0:0:0:
256,192,5988,1,0,0:0:0:0:
256,192,6654,1,12,0:0:0:0:
256,192,6988,1,4,0:0:0:0:
256,192,7321,1,8,0:0:0:0:
256,192,7654,1,8,0:0:0:0:
256,192,7821,1,8,0:0:0:0:
256,192,7988,1,0,0:0:0:0:
256,192,8321,1,0,0:0:0:0:
256,192,8654,1,8,0:0:0:0:
256,192,8988,1,8,0:0:0:0:
256,192,9154,1,0,0:0:0:0:
256,192,9321,1,0,0:0:0:0:
256,192,9654,1,0,0:0:0:0:
256,192,9988,1,8,0:0:0:0:
256,192,10321,1,8,0:0:0:0:
256,192,10488,1,8,0:0:0:0:
256,192,10654,1,0,0:0:0:0:
256,192,10988,1,0,0:0:0:0:
256,192,11321,1,8,0:0:0:0:
256,192,11654,1,8,0:0:0:0:
256,192,11821,1,0,0:0:0:0:
256,192,11988,1,0,0:0:0:0:
256,192,12321,1,8,0:0:0:0:
256,192,12654,1,0,0:0:0:0:
256,192,12988,1,8,0:0:0:0:
256,192,13154,1,8,0:0:0:0:
256,192,13321,1,0,0:0:0:0:
256,192,13654,1,8,0:0:0:0:
256,192,13988,1,0,0:0:0:0:
256,192,14321,1,8,0:0:0:0:
256,192,14488,1,0,0:0:0:0:
256,192,14654,1,0,0:0:0:0:
256,192,14988,1,8,0:0:0:0:
256,192,15321,1,0,0:0:0:0:
256,192,15654,1,8,0:0:0:0:
256,192,15821,1,8,0:0:0:0:
256,192,15988,1,0,0:0:0:0:
256,192,16321,1,8,0:0:0:0:
256,192,16988,1,0,0:0:0:0:
256,192,17321,1,8,0:0:0:0:
256,192,17488,1,8,0:0:0:0:
256,192,17654,1,4,0:0:0:0:
256,192,17988,1,8,0:0:0:0:
256,192,18321,1,8,0:0:0:0:
256,192,18488,1,0,0:0:0:0:
256,192,18654,1,8,0:0:0:0:
256,192,18821,1,8,0:0:0:0:
256,192,18988,1,0,0:0:0:0:
256,192,19321,1,8,0:0:0:0:
256,192,19654,1,0,0:0:0:0:
256,192,20321,1,0,0:0:0:0:
256,192,20654,1,8,0:0:0:0:
256,192,20988,1,8,0:0:0:0:
256,192,21154,1,0,0:0:0:0:
256,192,21321,1,8,0:0:0:0:
256,192,21488,1,8,0:0:0:0:
256,192,21654,1,0,0:0:0:0:
256,192,21988,1,0,0:0:0:0:
256,192,22321,1,8,0:0:0:0:
256,192,22488,1,0,0:0:0:0:
256,192,22654,1,0,0:0:0:0:
256,192,22988,1,8,0:0:0:0:
256,192,23321,1,0,0:0:0:0:
256,192,23654,1,8,0:0:0:0:
256,192,23821,1,0,0:0:0:0:
256,192,23988,1,8,0:0:0:0:
256,192,24154,1,8,0:0:0:0:
256,192,24321,1,0,0:0:0:0:
256,192,24654,1,8,0:0:0:0:
256,192,24988,1,0,0:0:0:0:
256,192,25654,1,8,0:0:0:0:
256,192,25988,1,0,0:0:0:0:
256,192,26321,1,8,0:0:0:0:
256,192,26488,1,0,0:0:0:0:
256,192,26654,1,8,0:0:0:0:
256,192,26821,1,8,0:0:0:0:
256,192,26988,1,0,0:0:0:0:
256,192,27321,1,8,0:0:0:0:
256,192,27654,1,0,0:0:0:0:
256,192,28321,1,4,0:0:0:0:
256,192,28654,1,8,0:0:0:0:
256,192,28821,1,0,0:0:0:0:
256,192,28988,1,8,0:0:0:0:
256,192,29154,1,8,0:0:0:0:
256,192,29321,1,0,0:0:0:0:
256,192,29654,1,8,0:0:0:0:
256,192,29988,1,0,0:0:0:0:
256,192,30321,1,8,0:0:0:0:
256,192,30488,1,8,0:0:0:0:
256,192,30654,1,0,0:0:0:0:
256,192,30988,1,8,0:0:0:0:
256,192,31321,1,0,0:0:0:0:
256,192,31488,1,0,0:0:0:0:
256,192,31654,1,8,0:0:0:0:
256,192,31821,1,8,0:0:0:0:
256,192,31988,1,0,0:0:0:0:
256,192,32321,1,8,0:0:0:0:
256,192,32654,1,0,0:0:0:0:
256,192,32988,1,8,0:0:0:0:
256,192,33154,1,8,0:0:0:0:
256,192,33321,1,0,0:0:0:0:
256,192,33654,5,4,0:0:0:0:
256,192,33988,1,8,0:0:0:0:
256,192,34321,1,8,0:0:0:0:
256,192,34654,1,8,0:0:0:0:
256,192,34988,1,0,0:0:0:0:
256,192,35321,1,8,0:0:0:0:
256,192,35654,1,8,0:0:0:0:
256,192,35988,1,8,0:0:0:0:
256,192,36154,1,0,0:0:0:0:
256,192,36321,1,0,0:0:0:0:
256,192,36654,1,8,0:0:0:0:
256,192,36821,1,0,0:0:0:0:
256,192,36988,1,0,0:0:0:0:
256,192,37321,1,8,0:0:0:0:
256,192,37488,1,0,0:0:0:0:
256,192,37654,1,0,0:0:0:0:
256,192,37988,1,8,0:0:0:0:
256,192,38154,1,0,0:0:0:0:
256,192,38321,1,0,0:0:0:0:
256,192,38488,1,0,0:0:0:0:
256,192,38654,1,8,0:0:0:0:
256,192,38988,1,12,0:0:0:0:
256,192,39488,1,0,0:0:0:0:
256,192,39654,1,8,0:0:0:0:
256,192,39988,1,8,0:0:0:0:
256,192,40321,1,0,0:0:0:0:
256,192,40654,1,0,0:0:0:0:
256,192,40821,1,0,0:0:0:0:
256,192,40988,1,8,0:0:0:0:
256,192,41321,1,0,0:0:0:0:
256,192,41404,1,0,0:0:0:0:
256,192,41488,1,0,0:0:0:0:
256,192,41654,1,12,0:0:0:0:
256,192,41988,1,0,0:0:0:0:
256,192,42321,1,8,0:0:0:0:
256,192,42654,1,8,0:0:0:0:
256,192,42821,1,0,0:0:0:0:
256,192,42988,1,8,0:0:0:0:
256,192,43321,1,0,0:0:0:0:
256,192,43488,1,8,0:0:0:0:
256,192,43654,1,8,0:0:0:0:
256,192,43988,1,8,0:0:0:0:
256,192,44154,1,8,0:0:0:0:
256,192,44321,1,0,0:0:0:0:
256,192,44654,1,12,0:0:0:0:
256,192,45321,1,8,0:0:0:0:
256,192,45654,1,0,0:0:0:0:
256,192,45988,1,0,0:0:0:0:
256,192,46154,1,0,0:0:0:0:
256,192,46321,1,8,0:0:0:0:
256,192,46654,1,0,0:0:0:0:
256,192,46738,1,0,0:0:0:0:
256,192,46821,1,0,0:0:0:0:
256,192,46988,1,12,0:0:0:0:
256,192,47321,1,0,0:0:0:0:
256,192,47654,1,8,0:0:0:0:
256,192,47988,1,0,0:0:0:0:
256,192,48321,1,0,0:0:0:0:
256,192,48488,1,8,0:0:0:0:
256,192,48654,1,0,0:0:0:0:
256,192,48821,1,0,0:0:0:0:
256,192,48988,1,8,0:0:0:0:
256,192,49321,1,8,0:0:0:0:
256,192,49488,1,8,0:0:0:0:
256,192,49654,1,0,0:0:0:0:
256,192,49988,1,12,0:0:0:0:
256,192,50321,1,8,0:0:0:0:
256,192,50488,1,0,0:0:0:0:
256,192,50654,1,8,0:0:0:0:
256,192,50988,1,0,0:0:0:0:
256,192,51154,1,0,0:0:0:0:
256,192,51321,1,8,0:0:0:0:
256,192,51654,1,8,0:0:0:0:
256,192,51821,1,8,0:0:0:0:
256,192,51988,1,0,0:0:0:0:
256,192,52154,1,8,0:0:0:0:
256,192,52321,1,0,0:0:0:0:
256,192,52654,1,0,0:0:0:0:
256,192,52821,1,8,0:0:0:0:
256,192,52988,1,8,0:0:0:0:
256,192,53321,1,0,0:0:0:0:
256,192,53654,1,8,0:0:0:0:
256,192,53821,1,0,0:0:0:0:
256,192,53988,1,8,0:0:0:0:
256,192,54321,1,0,0:0:0:0:
256,192,54488,1,0,0:0:0:0:
256,192,54654,1,8,0:0:0:0:
256,192,54988,1,8,0:0:0:0:
256,192,55154,1,0,0:0:0:0:
256,192,55321,1,8,0:0:0:0:
256,192,55488,1,8,0:0:0:0:
256,192,55654,1,0,0:0:0:0:
256,192,55988,1,8,0:0:0:0:
256,192,56154,1,8,0:0:0:0:
256,192,56321,1,0,0:0:0:0:
256,192,56488,1,8,0:0:0:0:
256,192,56654,1,8,0:0:0:0:
256,192,56988,1,8,0:0:0:0:
256,192,57154,1,8,0:0:0:0:
256,192,57321,1,8,0:0:0:0:
256,192,57488,1,8,0:0:0:0:
256,192,57654,1,0,0:0:0:0:
256,192,57988,1,0,0:0:0:0:
256,192,58154,1,8,0:0:0:0:
256,192,58488,1,8,0:0:0:0:
256,192,58654,1,0,0:0:0:0:
256,192,58821,1,8,0:0:0:0:
256,192,59154,1,8,0:0:0:0:
256,192,59321,1,8,0:0:0:0:
256,192,59488,1,8,0:0:0:0:
256,192,59654,1,0,0:0:0:0:
256,192,59988,1,8,0:0:0:0:
256,192,60154,1,0,0:0:0:0:
256,192,60321,1,4,0:0:0:0:
256,192,60654,1,8,0:0:0:0:
256,192,60988,1,0,0:0:0:0:
256,192,61154,1,0,0:0:0:0:
256,192,61321,1,8,0:0:0:0:
256,192,61654,1,8,0:0:0:0:
256,192,61988,1,8,0:0:0:0:
256,192,62154,1,8,0:0:0:0:
256,192,62321,1,8,0:0:0:0:
256,192,62488,1,0,0:0:0:0:
256,192,62654,1,8,0:0:0:0:
256,192,62988,1,0,0:0:0:0:
256,192,63321,1,8,0:0:0:0:
256,192,63488,1,0,0:0:0:0:
256,192,63654,1,8,0:0:0:0:
256,192,63988,1,0,0:0:0:0:
256,192,64321,1,8,0:0:0:0:
256,192,64654,1,8,0:0:0:0:
256,192,64821,1,8,0:0:0:0:
256,192,64988,1,0,0:0:0:0:
256,192,65321,1,8,0:0:0:0:
256,192,65654,1,4,0:0:0:0:
256,192,65988,1,8,0:0:0:0:
256,192,66321,1,0,0:0:0:0:
256,192,66488,1,0,0:0:0:0:
256,192,66654,1,8,0:0:0:0:
256,192,66988,1,8,0:0:0:0:
256,192,67321,1,8,0:0:0:0:
256,192,67654,1,8,0:0:0:0:
256,192,67821,1,0,0:0:0:0:
256,192,67988,1,8,0:0:0:0:
256,192,68321,1,0,0:0:0:0:
256,192,68543,1,0,0:0:0:0:
256,192,68766,1,0,0:0:0:0:
256,192,68988,1,8,0:0:0:0:
288,192,69210,1,8,0:0:0:0:
288,192,69432,1,8,0:0:0:0:
288,192,69654,1,0,0:0:0:0:
256,192,69821,12,0,70821,0:0:0:0:
256,192,70988,5,12,0:0:0:0:
256,192,71321,1,0,0:0:0:0:
256,192,71654,1,8,0:0:0:0:
256,192,71821,1,0,0:0:0:0:
256,192,71988,1,0,0:0:0:0:
256,192,72321,1,8,0:0:0:0:
256,192,72654,1,0,0:0:0:0:
256,192,72988,1,8,0:0:0:0:
256,192,73654,1,8,0:0:0:0:
256,192,73988,1,0,0:0:0:0:
256,192,74321,1,8,0:0:0:0:
256,192,74488,1,0,0:0:0:0:
256,192,74654,1,0,0:0:0:0:
256,192,74988,5,8,0:0:0:0:
256,192,75321,1,0,0:0:0:0:
256,192,75654,1,0,0:0:0:0:
256,192,76154,1,0,0:0:0:0:
256,192,76321,1,8,0:0:0:0:
256,192,76654,1,0,0:0:0:0:
256,192,76821,1,8,0:0:0:0:
256,192,76988,1,0,0:0:0:0:
256,192,77321,1,0,0:0:0:0:
256,192,77654,1,8,0:0:0:0:
256,192,77988,1,0,0:0:0:0:
256,192,78321,1,0,0:0:0:0:
256,192,78988,1,8,0:0:0:0:
256,192,79321,1,0,0:0:0:0:
256,192,79654,1,0,0:0:0:0:
256,192,79988,1,8,0:0:0:0:
256,192,80154,1,0,0:0:0:0:
256,192,80321,1,8,0:0:0:0:
256,192,80654,1,0,0:0:0:0:
256,192,80988,1,8,0:0:0:0:
256,192,81321,1,8,0:0:0:0:
256,192,81488,1,8,0:0:0:0:
256,192,81654,1,4,0:0:0:0:
256,192,81988,1,0,0:0:0:0:
256,192,82154,1,8,0:0:0:0:
256,192,82488,1,8,0:0:0:0:
256,192,82654,1,0,0:0:0:0:
256,192,82988,1,8,0:0:0:0:
256,192,83321,1,0,0:0:0:0:
256,192,83488,1,8,0:0:0:0:
256,192,83821,1,8,0:0:0:0:
256,192,83988,1,0,0:0:0:0:
256,192,84321,1,8,0:0:0:0:
256,192,84654,1,0,0:0:0:0:
256,192,84821,1,8,0:0:0:0:
256,192,85154,1,8,0:0:0:0:
256,192,85321,1,0,0:0:0:0:
256,192,85654,1,8,0:0:0:0:
256,192,85988,1,0,0:0:0:0:
256,192,86154,1,8,0:0:0:0:
256,192,86488,1,8,0:0:0:0:
256,192,86654,1,0,0:0:0:0:
256,192,86821,1,8,0:0:0:0:
256,192,86988,1,0,0:0:0:0:
256,192,87988,1,12,0:0:0:0:
256,192,88321,1,4,0:0:0:0:
256,192,88654,1,0,0:0:0:0:
256,192,88821,1,0,0:0:0:0:
256,192,88988,1,8,0:0:0:0:
256,192,89154,1,8,0:0:0:0:
256,192,89321,1,0,0:0:0:0:
256,192,89488,1,0,0:0:0:0:
256,192,89654,1,8,0:0:0:0:
256,192,89988,1,0,0:0:0:0:
256,192,90154,1,0,0:0:0:0:
256,192,90321,1,8,0:0:0:0:
256,192,90654,1,8,0:0:0:0:
256,192,90821,1,0,0:0:0:0:
256,192,90988,1,8,0:0:0:0:
256,192,91321,1,0,0:0:0:0:
256,192,91654,1,8,0:0:0:0:
256,192,91988,1,0,0:0:0:0:
256,192,92154,1,8,0:0:0:0:
256,192,92321,1,8,0:0:0:0:
256,192,92488,1,0,0:0:0:0:
256,192,92571,1,0,0:0:0:0:
256,192,92654,1,0,0:0:0:0:
256,192,92821,1,0,0:0:0:0:
256,192,92988,1,8,0:0:0:0:
256,192,93321,1,8,0:0:0:0:
256,192,93488,1,8,0:0:0:0:
256,192,93654,1,0,0:0:0:0:
256,192,93988,1,8,0:0:0:0:
256,192,94154,1,0,0:0:0:0:
256,192,94321,1,8,0:0:0:0:
256,192,94654,1,0,0:0:0:0:
256,192,94821,1,0,0:0:0:0:
256,192,94988,1,8,0:0:0:0:
256,192,95154,1,0,0:0:0:0:
256,192,95238,1,0,0:0:0:0:
256,192,95321,1,0,0:0:0:0:
256,192,95488,1,0,0:0:0:0:
256,192,95654,1,8,0:0:0:0:
256,192,95988,1,8,0:0:0:0:
256,192,96154,1,0,0:0:0:0:
256,192,96321,1,8,0:0:0:0:
256,192,96654,1,0,0:0:0:0:
256,192,96988,1,8,0:0:0:0:
256,192,97321,1,8,0:0:0:0:
256,192,97488,1,8,0:0:0:0:
256,192,97654,1,0,0:0:0:0:
256,192,97904,1,8,0:0:0:0:
256,192,98154,1,8,0:0:0:0:
256,192,98321,1,0,0:0:0:0:
256,192,98821,1,0,0:0:0:0:
256,192,98988,1,8,0:0:0:0:
256,192,99321,1,0,0:0:0:0:
256,192,99654,1,8,0:0:0:0:
256,192,99821,1,8,0:0:0:0:
256,192,99988,1,0,0:0:0:0:
256,192,100154,1,0,0:0:0:0:
256,192,100321,1,8,0:0:0:0:
256,192,100654,1,0,0:0:0:0:
256,192,100988,1,0,0:0:0:0:
256,192,101154,1,8,0:0:0:0:
256,192,101321,1,0,0:0:0:0:
256,192,101488,1,0,0:0:0:0:
256,192,101654,1,8,0:0:0:0:
256,192,101988,1,0,0:0:0:0:
256,192,102154,1,0,0:0:0:0:
256,192,102321,1,8,0:0:0:0:
256,192,102654,1,0,0:0:0:0:
256,192,102821,1,0,0:0:0:0:
256,192,102988,1,8,0:0:0:0:
256,192,103321,1,0,0:0:0:0:
256,192,103488,1,0,0:0:0:0:
256,192,103654,1,8,0:0:0:0:
256,192,103738,1,8,0:0:0:0:
256,192,103821,1,8,0:0:0:0:
256,192,103988,1,0,0:0:0:0:
256,192,104154,1,8,0:0:0:0:
256,192,104321,1,4,0:0:0:0:
256,192,104654,1,0,0:0:0:0:
256,192,104821,1,8,0:0:0:0:
256,192,104988,1,8,0:0:0:0:
256,192,105154,1,0,0:0:0:0:
256,192,105321,1,8,0:0:0:0:
256,192,105488,1,8,0:0:0:0:
256,192,105654,1,4,0:0:0:0:
256,192,105988,1,8,0:0:0:0:
256,192,106154,1,8,0:0:0:0:
256,192,106321,1,0,0:0:0:0:
256,192,106654,1,0,0:0:0:0:
256,192,106988,1,8,0:0:0:0:
256,192,107321,1,8,0:0:0:0:
256,192,107654,1,8,0:0:0:0:
256,192,108210,1,8,0:0:0:0:
256,192,108654,1,4,0:0:0:0:
256,192,108821,12,4,111321,0:0:0:0:
