osu file format v14

[General]
AudioFilename: audio.mp3
AudioLeadIn: 0
PreviewTime: 46885
Countdown: 0
SampleSet: Soft
StackLeniency: 0.3
Mode: 0
LetterboxInBreaks: 0
WidescreenStoryboard: 0

[Editor]
Bookmarks: 10998,24498,36498,48497,60497,72873,75498,90478,102498
DistanceSpacing: 0.5
BeatDivisor: 4
GridSize: 16
TimelineZoom: 3.499999

[Metadata]
Title:Louvre Bijutsukan Shinnyuu
TitleUnicode:ルーヴル美術館侵入
Artist:Hataya Naofumi
ArtistUnicode:幡谷尚史
Creator:kanocchi
Version:OneShotFox's Strike a Pose!
Source:リズム怪盗R 皇帝ナポレオンの遺産
Tags:Rhythm Kaitou R: Koutei Napoleon no Isan THIEF & the Emperor's Treasure Looting the Museum Invasion [-Evil-] OneShotFox Yoshihiko Chino Yoshitada Miya SEGA Nintendo 3DS video game vgm videogame instrumental meme
BeatmapID:2628039
BeatmapSetID:1264169

[Difficulty]
HPDrainRate:6
CircleSize:5
OverallDifficulty:8.5
ApproachRate:8.5
SliderMultiplier:1.6
SliderTickRate:1

[Events]
//Background and Video events
0,0,"24615128_p0_master1200.jpg",0,0
//Break Periods
2,72760,75385
2,105959,107635
//Storyboard Layer 0 (Background)
//Storyboard Layer 1 (Fail)
//Storyboard Layer 2 (Pass)
//Storyboard Layer 3 (Foreground)
//Storyboard Layer 4 (Overlay)
//Storyboard Sound Samples

[TimingPoints]
385,375,4,2,1,65,1,0
14635,-50,4,2,1,75,0,0
15010,-50,4,2,1,5,0,0
15385,-100,4,2,1,75,0,0
17635,-50,4,2,1,75,0,0
18010,-50,4,2,1,5,0,0
18385,-100,4,2,1,75,0,0
20635,-50,4,2,1,75,0,0
21010,-50,4,2,1,5,0,0
21385,-100,4,2,1,75,0,0
22510,-50,4,2,1,75,0,0
22885,-50,4,2,1,35,0,0
23260,-100,4,2,1,75,0,0
23635,-50,4,2,1,75,0,0
24010,-50,4,2,1,5,0,0
24385,-100,4,2,2,75,0,0
24572,-100,4,2,2,75,0,0
25510,-100,4,2,2,75,0,0
25697,-100,4,2,2,75,0,0
25885,-100,4,2,1,75,0,0
26635,-50,4,2,1,75,0,0
27010,-50,4,2,2,5,0,0
27385,-100,4,2,2,75,0,0
27572,-100,4,2,2,75,0,0
28322,-100,4,2,2,75,0,0
28510,-100,4,2,2,75,0,0
28697,-100,4,2,2,75,0,0
28885,-100,4,2,1,75,0,0
29635,-50,4,2,1,75,0,0
30010,-50,4,2,2,5,0,0
30385,-100,4,2,2,75,0,0
30572,-100,4,2,2,75,0,0
31322,-100,4,2,2,75,0,0
31510,-100,4,2,2,75,0,0
31697,-100,4,2,2,75,0,0
31885,-100,4,2,1,75,0,0
32635,-50,4,2,1,75,0,0
33010,-50,4,2,2,5,0,0
33385,-100,4,2,2,75,0,0
33572,-100,4,2,1,75,0,0
34510,-50,4,2,1,75,0,0
34885,-50,4,2,1,35,0,0
35260,-100,4,2,1,75,0,0
35635,-50,4,2,1,75,0,0
36010,-50,4,2,2,5,0,0
36385,-66.6666666666667,4,2,2,65,0,0
36479,-66.6666666666667,4,2,2,5,0,0
36572,-66.6666666666667,4,2,2,65,0,0
36666,-66.6666666666667,4,2,2,5,0,0
36760,-66.6666666666667,4,2,2,65,0,0
36854,-66.6666666666667,4,2,2,5,0,0
36947,-66.6666666666667,4,2,2,65,0,0
37041,-66.6666666666667,4,2,2,5,0,0
37135,-100,4,2,2,45,0,0
37228,-100,4,2,2,5,0,0
37322,-100,4,2,2,45,0,0
37510,-100,4,2,2,45,0,0
37603,-100,4,2,2,5,0,0
37697,-100,4,2,2,45,0,0
37790,-100,4,2,2,5,0,0
37885,-66.6666666666667,4,2,2,65,0,0
37979,-66.6666666666667,4,2,2,5,0,0
38072,-66.6666666666667,4,2,2,65,0,0
38166,-66.6666666666667,4,2,2,5,0,0
38260,-66.6666666666667,4,2,2,65,0,0
38354,-66.6666666666667,4,2,2,5,0,0
38447,-66.6666666666667,4,2,2,65,0,0
38541,-66.6666666666667,4,2,2,5,0,0
38635,-100,4,2,2,45,0,0
38728,-100,4,2,2,5,0,0
38822,-100,4,2,2,45,0,0
39010,-100,4,2,2,45,0,0
39103,-100,4,2,2,5,0,0
39197,-100,4,2,2,45,0,0
39385,-66.6666666666667,4,2,2,65,0,0
39479,-66.6666666666667,4,2,2,5,0,0
39572,-66.6666666666667,4,2,2,65,0,0
39666,-66.6666666666667,4,2,2,5,0,0
39760,-66.6666666666667,4,2,2,65,0,0
39854,-66.6666666666667,4,2,2,5,0,0
39947,-66.6666666666667,4,2,2,65,0,0
40041,-66.6666666666667,4,2,2,5,0,0
40135,-100,4,2,2,45,0,0
40228,-100,4,2,2,5,0,0
40322,-100,4,2,2,45,0,0
40510,-100,4,2,2,45,0,0
40603,-100,4,2,2,5,0,0
40697,-100,4,2,2,45,0,0
40790,-100,4,2,2,5,0,0
40885,-66.6666666666667,4,2,2,65,0,0
41072,-66.6666666666667,4,2,2,65,0,0
41166,-66.6666666666667,4,2,2,5,0,0
41260,-66.6666666666667,4,2,2,65,0,0
41354,-66.6666666666667,4,2,2,5,0,0
41447,-66.6666666666667,4,2,2,65,0,0
41541,-66.6666666666667,4,2,2,5,0,0
41635,-100,4,2,2,45,0,0
41728,-100,4,2,2,5,0,0
41822,-100,4,2,2,45,0,0
42010,-100,4,2,2,45,0,0
42103,-100,4,2,2,5,0,0
42197,-100,4,2,2,45,0,0
42290,-100,4,2,2,5,0,0
42385,-66.6666666666667,4,2,2,65,0,0
42479,-66.6666666666667,4,2,2,5,0,0
42572,-66.6666666666667,4,2,2,65,0,0
42666,-66.6666666666667,4,2,2,5,0,0
42760,-66.6666666666667,4,2,2,65,0,0
42854,-66.6666666666667,4,2,2,5,0,0
42947,-66.6666666666667,4,2,2,65,0,0
43041,-66.6666666666667,4,2,2,5,0,0
43135,-100,4,2,2,45,0,0
43228,-100,4,2,2,5,0,0
43322,-100,4,2,2,45,0,0
43510,-100,4,2,2,45,0,0
43603,-100,4,2,2,5,0,0
43697,-100,4,2,2,45,0,0
43790,-100,4,2,2,5,0,0
43885,-66.6666666666667,4,2,2,65,0,0
44072,-66.6666666666667,4,2,2,65,0,0
44166,-66.6666666666667,4,2,2,5,0,0
44260,-66.6666666666667,4,2,2,65,0,0
44354,-66.6666666666667,4,2,2,5,0,0
44447,-66.6666666666667,4,2,2,65,0,0
44541,-66.6666666666667,4,2,2,5,0,0
44635,-100,4,2,2,45,0,0
44728,-100,4,2,2,5,0,0
44822,-100,4,2,2,45,0,0
45010,-100,4,2,2,45,0,0
45103,-100,4,2,2,5,0,0
45197,-100,4,2,2,45,0,0
45290,-100,4,2,2,5,0,0
45385,-100,4,2,2,55,0,0
48009,-66.6666666666667,4,2,2,75,0,0
48196,-66.6666666666667,4,2,2,5,0,0
48384,-66.6666666666667,4,2,2,65,0,0
49134,-76.9230769230769,4,2,1,75,0,0
50635,-40,4,2,1,75,0,1
51010,-40,4,2,1,5,0,0
51384,-40,4,2,1,65,0,0
52135,-40,4,2,1,75,0,1
52510,-40,4,2,1,5,0,0
52884,-40,4,2,1,65,0,0
53071,-66.6666666666667,4,2,1,65,0,0
53635,-40,4,2,1,75,0,1
54010,-40,4,2,1,5,0,0
54384,-40,4,2,1,65,0,0
55134,-66.6666666666667,4,2,1,65,0,0
56635,-40,4,2,1,65,0,1
57010,-40,4,2,1,5,0,0
57384,-40,4,2,1,65,0,0
58135,-40,4,2,1,65,0,1
58510,-40,4,2,1,5,0,0
58884,-40,4,2,1,65,0,0
59260,-40,4,2,1,65,0,1
59635,-40,4,2,1,5,0,0
60384,-100,4,2,1,65,0,0
62635,-40,4,2,1,75,0,1
63010,-40,4,2,1,5,0,0
63384,-100,4,2,1,65,0,0
63760,-40,4,2,1,65,0,1
64135,-40,4,2,1,5,0,0
64884,-100,4,2,1,65,0,0
65635,-40,4,2,1,75,0,1
66010,-40,4,2,1,5,0,0
66384,-76.9230769230769,4,2,1,65,0,0
67885,-133.333333333333,4,2,1,65,0,0
68635,-40,4,2,1,65,0,1
69197,-40,4,2,1,20,0,0
69384,-40,4,2,1,45,0,0
69760,-40,4,2,1,65,0,1
70135,-40,4,2,1,45,0,0
71260,-40,4,2,1,65,0,1
71635,-40,4,2,1,45,0,0
78009,-100,4,2,1,45,0,0
78384,-66.6666666666667,4,2,1,45,0,0
79510,-40,4,2,1,65,0,1
79885,-40,4,2,1,45,0,0
80635,-40,4,2,1,65,0,1
81010,-40,4,2,1,45,0,0
81385,-100,4,2,1,45,0,0
81760,-40,4,2,1,65,0,1
82135,-40,4,2,1,5,0,0
82885,-100,4,2,1,45,0,0
83635,-40,4,2,1,65,0,1
84010,-66.6666666666667,4,2,2,45,0,0
84760,-250,4,2,1,45,0,0
85510,-40,4,2,1,65,0,1
85791,-40,4,2,1,45,0,0
85885,-40,4,2,1,45,0,0
86635,-40,4,2,1,65,0,0
87010,-100,4,2,1,45,0,0
87760,-40,4,2,1,65,0,1
88135,-100,4,2,1,5,0,0
88322,-100,4,2,1,45,0,0
89635,-40,4,2,1,65,0,1
90010,-40,4,2,1,5,0,0
90385,-66.6666666666667,4,2,1,45,0,0
91510,-40,4,2,1,65,0,1
91885,-66.6666666666667,4,2,1,45,0,0
92635,-40,4,2,1,65,0,1
92916,-40,4,2,1,5,0,0
93010,-40,4,2,2,45,0,0
93385,-66.6666666666667,4,2,1,45,0,0
94135,-40,4,2,1,65,0,1
94510,-40,4,2,1,5,0,0
94885,-66.6666666666667,4,2,1,45,0,0
95260,-40,4,2,1,65,0,1
95635,-66.6666666666667,4,2,1,5,0,0
96010,-66.6666666666667,4,2,1,45,0,0
96760,-40,4,2,1,65,0,1
97135,-66.6666666666667,4,2,1,5,0,0
97885,-66.6666666666667,4,2,1,45,0,0
98260,-40,4,2,1,65,0,1
98635,-66.6666666666667,4,2,1,5,0,0
99385,-83.3333333333333,4,2,1,45,0,0
99572,-71.4285714285714,4,2,1,45,0,0
99760,-62.5,4,2,1,45,0,0
99947,-55.5555555555556,4,2,1,45,0,0
100135,-50,4,2,1,45,0,0
100322,-45.4545454545455,4,2,1,45,0,0
100510,-40,4,2,1,70,0,1
100885,-40,4,2,1,45,0,0
101635,-40,4,2,1,75,0,1
102010,-40,4,2,1,5,0,0
102385,-117.647058823529,4,2,99,45,0,0
104635,-117.647058823529,4,2,99,35,0,0
105010,-117.647058823529,4,2,99,25,0,0
105385,-117.647058823529,4,2,99,15,0,0
105760,-117.647058823529,4,2,99,5,0,0
108385,-117.647058823529,4,2,2,45,0,0

[Colours]
Combo1 : 10,81,245
Combo2 : 249,177,30
Combo3 : 119,226,238
Combo4 : 255,51,51

[HitObjects]
90,63,10885,5,8,0:0:0:0:
106,166,11260,1,8,0:0:0:0:
128,285,11635,1,8,0:0:0:0:
233,177,12010,1,8,0:0:0:0:
320,356,12385,5,0,0:0:0:0:
248,351,12572,1,0,0:0:0:0:
225,282,12760,1,8,0:0:0:0:
284,241,12947,1,0,0:0:0:0:
343,282,13135,1,0,0:0:0:0:
417,261,13322,1,0,0:0:0:0:
439,190,13510,1,8,0:0:0:0:
398,128,13697,1,0,0:0:0:0:
330,127,13885,1,8,0:1:0:0:
274,172,14072,1,0,0:0:0:0:
254,101,14260,1,10,0:0:0:0:
312,58,14447,1,0,0:0:0:0:
185,22,14635,6,0,B|156:28|130:8|130:8|99:48|75:162|139:188|181:183|212:141|180:98,1,320,4|0,0:0|0:0,0:0:0:0:
282,343,15385,5,0,0:0:0:0:
213,320,15572,1,0,0:0:0:0:
146,348,15760,1,8,0:0:0:0:
213,302,15947,1,0,0:0:0:0:
289,326,16135,1,0,0:0:0:0:
360,323,16322,1,0,0:0:0:0:
399,262,16510,1,8,0:0:0:0:
360,201,16697,1,0,0:0:0:0:
417,157,16885,1,8,0:1:0:0:
365,107,17072,1,0,0:0:0:0:
411,51,17260,1,10,0:0:0:0:
348,16,17447,1,0,0:0:0:0:
292,152,17635,6,0,B|256:216|195:218|151:194|184:122|40:93|3:216,1,320,4|0,0:0|0:0,0:0:0:0:
84,304,18385,5,0,0:0:0:0:
53,238,18572,1,0,0:0:0:0:
92,177,18760,1,8,0:0:0:0:
155,209,18947,1,0,0:0:0:0:
141,279,19135,1,0,0:0:0:0:
155,209,19322,1,0,0:0:0:0:
227,210,19510,1,8,0:0:0:0:
280,258,19697,1,0,0:0:0:0:
326,203,19885,1,8,0:1:0:0:
294,138,20072,1,0,0:0:0:0:
352,96,20260,1,10,0:0:0:0:
396,152,20447,1,0,0:0:0:0:
403,21,20635,6,0,B|345:-21|259:35|259:35|249:111|221:127|173:126|140:98|148:54,1,320,4|0,0:0|0:0,0:0:0:0:
90,311,21385,5,0,0:0:0:0:
67,242,21572,1,0,0:0:0:0:
76,170,21760,1,8,0:1:0:0:
142,196,21947,1,0,0:0:0:0:
176,259,22135,1,2,0:0:0:0:
173,330,22322,1,0,0:0:0:0:
300,301,22510,6,0,B|347:326|381:298|381:298|431:207|395:172|363:177|342:127|389:46,1,320,4|8,0:0|0:1,0:0:0:0:
435,123,23072,1,0,0:0:0:0:
435,123,23260,1,10,0:0:0:0:
463,46,23447,1,0,0:0:0:0:
463,46,23635,6,0,B|398:-13|398:-13|319:2|286:44|286:44|233:11|159:18,1,320,4|0,0:0|0:0,0:0:0:0:
82,181,24385,5,2,0:0:0:0:
107,256,24572,1,0,0:0:0:0:
187,259,24760,1,8,0:0:0:0:
233,194,24947,1,0,0:0:0:0:
295,244,25135,1,0,0:0:0:0:
306,320,25322,1,2,0:0:0:0:
231,380,25510,1,10,0:0:0:0:
157,318,25697,1,2,0:0:0:0:
84,351,25885,1,8,0:1:0:0:
30,295,26072,1,0,0:0:0:0:
78,231,26260,1,10,0:0:0:0:
155,247,26447,1,0,0:0:0:0:
233,356,26635,6,0,B|279:257|268:169|205:116|205:116|229:175|206:228,1,320,4|0,0:0|0:0,0:0:0:0:
318,29,27385,5,2,0:0:0:0:
387,10,27572,1,0,0:0:0:0:
457,23,27760,1,8,0:0:0:0:
468,93,27947,1,0,0:0:0:0:
449,162,28135,1,0,0:0:0:0:
393,116,28322,1,2,0:0:0:0:
316,72,28510,1,10,0:0:0:0:
245,124,28697,1,2,0:0:0:0:
320,165,28885,1,8,0:1:0:0:
247,207,29072,1,0,0:0:0:0:
177,166,29260,1,10,0:0:0:0:
245,124,29447,1,0,0:0:0:0:
220,26,29635,6,0,B|151:-2|88:5|28:59|28:59|60:81|76:108|76:108|57:127|56:169,1,320,4|0,0:0|0:0,0:0:0:0:
164,191,30385,5,2,0:0:0:0:
151,261,30572,1,0,0:0:0:0:
188,322,30760,1,8,0:0:0:0:
259,312,30947,1,0,0:0:0:0:
288,246,31135,1,0,0:0:0:0:
207,188,31322,1,2,0:0:0:0:
281,141,31510,1,10,0:0:0:0:
356,185,31697,1,2,0:0:0:0:
288,246,31885,1,8,0:1:0:0:
352,278,32072,1,0,0:0:0:0:
415,242,32260,1,10,0:0:0:0:
425,171,32447,1,0,0:0:0:0:
278,102,32635,6,0,B|356:41|480:90|480:90|486:164|399:176,1,320,4|0,0:0|0:0,0:0:0:0:
129,71,33385,5,2,0:0:0:0:
137,142,33572,1,0,0:0:0:0:
143,213,33760,1,8,0:1:0:0:
150,284,33947,1,0,0:0:0:0:
210,244,34135,1,2,0:0:0:0:
143,213,34322,1,0,0:0:0:0:
84,364,34510,6,0,B|30:305|9:177|81:129|81:129|110:149|147:139,1,320,4|8,0:0|0:1,0:0:0:0:
201,83,35072,1,0,0:0:0:0:
201,82,35260,1,10,0:0:0:0:
263,143,35447,1,0,0:0:0:0:
263,143,35635,6,0,B|308:121|315:60|315:60|336:337,1,320,4|0,0:0|0:0,0:0:0:0:
409,344,36385,6,0,L|418:275,1,60.0000022888184,2|0,3:2|0:2,0:2:0:0:
334,337,36572,2,0,L|332:270,1,60.0000022888184,0|0,0:2|0:2,0:2:0:0:
254,351,36760,2,0,L|242:280,1,60.0000022888184,8|0,0:2|0:2,0:2:0:0:
175,374,36947,2,0,L|152:315,1,60.0000022888184,0|0,0:2|0:2,0:2:0:0:
51,320,37135,6,0,L|1:352,1,40,0|0,3:2|0:2,0:2:0:0:
38,257,37322,2,0,L|-16:240,1,40,0|0,3:2|3:2,0:2:0:0:
85,208,37510,2,8,L|51:161,1,40,8|8,0:2|0:2,0:2:0:0:
157,210,37697,2,0,L|169:163,1,40,0|0,0:2|0:2,0:2:0:0:
295,204,37885,6,0,P|306:244|302:277,1,60.0000022888184,2|0,3:2|0:2,0:2:0:0:
319,139,38072,2,0,P|350:165|366:194,1,60.0000022888184,0|0,0:2|0:2,0:2:0:0:
306,67,38260,2,8,P|347:70|376:85,1,60.0000022888184,8|8,0:2|0:2,0:2:0:0:
248,24,38447,2,0,P|283:3|316:-1,1,60.0000022888184,0|0,0:2|0:2,0:2:0:0:
427,84,38635,6,0,L|422:24,1,40,0|0,3:2|0:2,0:2:0:0:
484,149,38822,2,0,L|489:89,1,40,0|0,3:2|3:2,0:2:0:0:
419,197,39010,2,0,L|414:137,1,40,8|0,0:2|0:2,0:2:0:0:
479,258,39197,5,2,0:2:0:0:
478,274,39260,1,2,0:2:0:0:
477,289,39322,1,2,0:2:0:0:
475,309,39385,6,0,B|442:320|442:320|410:307,1,60.0000022888184,2|0,3:2|0:2,0:2:0:0:
365,256,39572,2,0,B|335:249|335:249|307:256,1,60.0000022888184,0|0,0:2|0:2,0:2:0:0:
264,323,39760,2,0,B|231:334|231:334|199:321,1,60.0000022888184,8|0,0:2|0:2,0:2:0:0:
158,267,39947,2,0,B|128:260|128:260|100:267,1,60.0000022888184,0|0,0:2|0:2,0:2:0:0:
26,333,40135,6,0,L|17:387,1,40,0|0,3:2|0:2,0:2:0:0:
79,296,40322,2,0,L|88:350,1,40,0|0,3:2|3:2,0:2:0:0:
33,234,40510,2,0,L|24:288,1,40,8|0,0:2|0:2,0:2:0:0:
86,197,40697,2,0,L|95:251,1,40,0|0,0:2|0:2,0:2:0:0:
13,106,40885,6,0,L|79:97,1,60.0000022888184,2|0,3:2|0:2,0:2:0:0:
164,79,41072,2,0,L|155:147,1,60.0000022888184,0|0,0:2|0:2,0:2:0:0:
246,220,41260,2,0,L|237:152,1,60.0000022888184,8|0,0:2|0:2,0:2:0:0:
331,69,41447,2,0,L|322:137,1,60.0000022888184,0|0,0:2|0:2,0:2:0:0:
301,277,41635,6,0,P|336:290|346:304,1,40,0|0,3:2|0:2,0:2:0:0:
368,213,41822,2,0,P|389:243|389:260,1,40,0|0,3:2|3:2,0:2:0:0:
454,238,42010,2,0,P|453:275|444:289,1,40,8|0,0:2|0:2,0:2:0:0:
512,306,42197,2,0,P|490:336|474:342,1,40,0|0,0:2|0:2,0:2:0:0:
468,129,42385,6,0,B|481:100|481:100|476:56,1,60.0000022888184,2|0,3:2|0:2,0:2:0:0:
379,157,42572,2,0,B|367:127|367:127|369:99,1,60.0000022888184,0|0,0:2|0:2,0:2:0:0:
263,107,42760,2,0,B|276:78|276:78|271:34,1,60.0000022888184,8|0,0:2|0:2,0:2:0:0:
174,135,42947,2,0,B|162:105|162:105|164:77,1,60.0000022888184,0|0,0:2|0:2,0:2:0:0:
185,245,43135,6,0,P|210:233|224:234,1,40,0|0,3:2|0:2,0:2:0:0:
113,281,43322,2,0,P|88:269|74:270,1,40,0|0,3:2|3:2,0:2:0:0:
174,318,43510,2,0,P|199:306|213:307,1,40,8|0,0:2|0:2,0:2:0:0:
111,354,43697,2,0,P|86:342|72:343,1,40,0|0,0:2|0:2,0:2:0:0:
333,341,43885,5,2,3:2:0:0:
356,338,43947,1,2,0:2:0:0:
380,336,44010,1,2,0:2:0:0:
403,332,44072,2,0,P|413:306|407:276,1,60.0000022888184,0|0,0:2|0:2,0:2:0:0:
323,187,44260,2,0,P|313:213|319:243,1,60.0000022888184,8|0,0:2|0:2,0:2:0:0:
408,181,44447,2,0,P|418:155|412:125,1,60.0000022888184,0|0,0:2|0:2,0:2:0:0:
301,49,44635,6,0,L|343:43,1,40,0|0,3:2|0:2,0:2:0:0:
245,115,44822,2,0,L|203:109,1,40,0|0,3:2|3:2,0:2:0:0:
141,32,45010,2,0,L|183:26,1,40,8|0,0:2|0:2,0:2:0:0:
85,98,45197,2,0,L|43:92,1,40,0|0,0:2|0:2,0:2:0:0:
46,222,45385,6,0,B|93:199|79:244|138:227,1,80,2|0,3:2|0:2,0:2:0:0:
213,217,45666,1,0,3:2:0:0:
213,217,45760,2,0,P|183:251|204:296,1,80,0|0,3:2|3:2,0:2:0:0:
264,368,46135,5,0,3:0:0:0:
267,348,46228,1,0,3:0:0:0:
270,328,46322,1,0,3:0:0:0:
273,308,46416,1,0,3:0:0:0:
276,288,46510,1,8,0:0:0:0:
279,268,46603,1,8,0:0:0:0:
282,248,46697,1,8,0:0:0:0:
286,228,46791,1,8,0:0:0:0:
348,271,46885,5,8,0:0:0:0:
409,288,47260,1,8,0:0:0:0:
469,308,47635,1,8,0:0:0:0:
469,308,48010,2,0,P|479:236|485:172,1,120.000004577637
263,93,48385,5,0,3:0:0:0:
436,66,48572,1,0,3:0:0:0:
263,93,48760,5,0,3:0:0:0:
436,66,48947,1,0,3:0:0:0:
356,216,49135,6,0,P|291:201|235:196,1,103.999995239258,8|0,0:0|0:0,0:0:0:0:
185,286,49416,2,0,P|250:271|306:266,1,103.999995239258,8|0,0:0|0:0,0:0:0:0:
341,316,49697,1,8,0:0:0:0:
436,66,49885,5,8,3:1:0:0:
263,93,50072,1,0,3:0:0:0:
436,66,50260,5,2,3:2:0:0:
263,93,50447,1,0,3:0:0:0:
128,29,50635,6,0,B|160:176|160:176|96:248|96:248|40:168|40:168|70:93,1,400,4|0,0:0|0:0,0:0:0:0:
60,116,51385,5,8,3:1:0:0:
329,109,51760,5,2,3:2:0:0:
161,330,52135,6,0,B|127:243|206:212|206:212|320:185|335:336|461:274,1,400,6|0,0:0|0:0,0:0:0:0:
228,283,52885,5,8,3:1:0:0:
225,253,52978,1,0,0:0:0:0:
223,228,53072,2,0,L|217:155,1,60.0000022888184
402,218,53260,5,2,3:2:0:0:
405,188,53353,1,0,0:0:0:0:
407,163,53447,2,0,L|413:90,1,60.0000022888184
370,323,53635,6,0,B|285:385|135:346|265:251|89:217|1:312,1,400,4|0,0:0|0:0,0:0:0:0:
313,70,54385,5,0,3:0:0:0:
283,283,54572,1,0,3:0:0:0:
313,70,54760,5,0,3:0:0:0:
283,283,54947,1,0,3:0:0:0:
34,198,55135,6,0,P|95:177|183:178,1,120.000004577637,8|0,0:0|0:0,0:0:0:0:
231,128,55416,2,0,P|170:107|82:108,1,120.000004577637,8|0,0:0|0:0,0:0:0:0:
65,42,55697,1,8,0:0:0:0:
283,283,55885,5,8,3:1:0:0:
313,70,56072,1,0,3:0:0:0:
283,283,56260,5,2,3:2:0:0:
313,70,56447,1,0,3:0:0:0:
460,229,56635,6,0,B|414:279|428:371|428:371|333:306|358:171|432:155,1,400,4|0,0:0|0:0,0:0:0:0:
131,130,57385,5,8,3:1:0:0:
347,60,57760,5,2,3:2:0:0:
194,305,58135,6,0,B|137:289|35:322|35:322|149:173|3:204|80:54,1,400,4|0,0:0|0:0,0:0:0:0:
260,293,58885,5,10,0:0:0:0:
299,299,58978,1,8,0:0:0:0:
338,294,59072,1,8,0:0:0:0:
374,276,59166,1,8,0:0:0:0:
396,243,59260,6,0,B|431:188|362:128|299:181|299:181|230:229|148:160|148:160|190:142|195:90,1,400,4|0,0:0|0:0,0:0:0:0:
84,359,60385,6,0,L|78:270,1,80
184,214,60666,1,0,0:0:0:0:
184,214,60760,2,0,L|178:293,1,80
172,117,61135,1,0,0:0:0:0:
172,117,61228,1,0,0:0:0:0:
172,117,61322,2,0,P|211:107|261:115,1,80
334,190,61697,6,0,L|329:138,1,40
321,73,61885,1,8,0:1:0:0:
434,146,62072,2,0,L|439:94,1,40
447,29,62260,1,2,0:0:0:0:
320,0,62447,1,0,0:0:0:0:
194,93,62635,6,0,B|166:137|187:183|187:183|215:163|262:169|262:169|373:201|311:321|147:233|328:131|372:143,1,400,4|0,0:0|0:0,0:0:0:0:
510,4,63385,5,8,0:1:0:0:
394,90,63572,1,2,0:0:0:0:
451,254,63760,6,0,B|409:217|361:233|361:233|280:308|280:308|160:261|160:261|206:269|241:254,1,400,4|0,0:0|0:0,0:0:0:0:
415,342,64885,6,0,P|416:366|411:388,3,40,8|0|0|0,0:1|0:0|0:0|0:0,0:0:0:0:
421,273,65260,1,2,0:0:0:0:
410,273,65353,1,0,0:0:0:0:
397,273,65447,1,0,0:0:0:0:
384,272,65541,1,0,0:0:0:0:
370,271,65635,6,0,B|329:269|329:269|345:357|345:357|259:329|259:329|229:145,1,400,4|0,0:0|0:0,0:0:0:0:
66,47,66385,6,0,P|78:83|66:210,1,155.999992858887
23,257,66760,2,0,P|9:239|-1:208,1,51.999997619629
11,128,66947,1,0,0:0:0:0:
248,197,67135,6,0,L|307:189,1,51.999997619629
125,324,67322,1,0,0:0:0:0:
121,190,67510,1,0,0:0:0:0:
125,324,67697,2,0,P|140:278|142:241,1,51.999997619629
241,371,67885,6,0,P|281:358|311:358,1,60.0000022888184,8|0,0:1|0:0,0:0:0:0:
457,375,68260,2,0,P|427:371|399:361,1,60.0000022888184,2|0,0:0|0:0,0:0:0:0:
336,205,68635,6,0,B|356:124|432:142|462:199|427:247|427:247|351:351|192:278|267:178|132:145|26:242,1,600,4|0,0:0|0:0,0:0:0:0:
121,299,69385,5,8,0:1:0:0:
202,329,69572,1,2,0:0:0:0:
364,315,69760,6,0,B|324:3|324:3|312:112,1,400,4|0,0:0|0:0,0:0:0:0:
204,151,70322,1,0,3:0:0:0:
130,97,70603,1,0,3:0:0:0:
127,83,70697,1,0,3:0:0:0:
67,234,70885,5,8,0:1:0:0:
145,194,71072,1,2,0:0:0:0:
124,323,71260,6,0,B|213:318|261:393|261:393|334:354|327:221|209:192,1,400,4|0,0:0|3:0,0:0:0:0:
188,92,71822,1,0,3:0:0:0:
217,85,71916,1,0,3:0:0:0:
233,59,72010,1,0,3:0:0:0:
226,29,72103,1,0,3:0:0:0:
199,15,72197,1,0,3:0:0:0:
168,15,72291,1,0,3:0:0:0:
141,29,72385,5,0,3:2:0:0:
384,32,76885,5,8,0:0:0:0:
304,41,77260,1,8,0:0:0:0:
224,51,77635,1,8,0:0:0:0:
145,67,78010,6,0,P|161:137|162:207,1,120
147,206,78385,6,0,B|192:178|192:178|287:190,1,120.000004577637,0|0,3:0|3:0,0:0:0:0:
363,272,78760,1,8,0:1:0:0:
363,272,78853,1,8,0:0:0:0:
363,272,78947,2,0,L|378:168,1,60.0000022888184,8|0,0:0|0:0,0:0:0:0:
428,119,79135,5,2,0:0:0:0:
484,328,79322,2,0,L|477:267,1,60.0000022888184,0|0,3:0|3:0,0:0:0:0:
441,31,79510,6,0,B|334:74|324:-12|235:31|235:31|262:68|260:118,1,300,4|0,0:0|0:0,0:0:0:0:
217,214,79885,5,8,0:1:0:0:
188,224,79978,1,8,0:0:0:0:
157,224,80072,1,8,0:0:0:0:
129,212,80166,1,0,3:0:0:0:
61,189,80260,5,10,0:0:0:0:
51,218,80353,1,8,0:0:0:0:
51,249,80447,1,8,0:0:0:0:
63,277,80541,1,0,3:0:0:0:
108,331,80635,6,0,B|185:367|262:337|222:287|314:256|399:290,1,300,4|0,0:0|0:0,0:0:0:0:
325,345,81010,5,8,0:1:0:0:
409,227,81197,1,0,0:0:0:0:
380,108,81385,2,0,P|310:80|253:118,1,120,2|0,3:2|0:0,0:0:0:0:
197,143,81760,6,4,P|272:24|267:180,1,400,4|0,0:0|0:0,0:0:0:0:
430,313,82885,6,0,P|387:328|356:328,1,40,8|0,3:1|3:1,3:1:0:0:
294,293,83072,1,0,3:0:0:0:
377,163,83260,2,0,L|387:267,1,80,2|0,3:2|3:2,0:2:0:0:
364,62,83635,6,0,B|292:115|231:49|231:49|157:127|78:48,1,300,4|0,0:0|0:0,0:0:0:0:
156,17,84010,1,2,0:0:0:0:
306,17,84197,1,2,0:0:0:0:
277,205,84385,6,0,B|193:241|193:241|113:173,1,180.000006866455,0|0,3:2|0:0,0:0:0:0:
107,167,84760,6,0,P|91:226|93:268,1,96,8|2,0:1|0:0,0:0:0:0:
218,355,85510,6,0,B|255:374|313:347|313:347|299:290|266:261|266:261|299:215|379:235,1,300,4|0,0:0|0:0,0:0:0:0:
430,303,85885,5,8,0:0:0:0:
432,283,85978,1,8,0:0:0:0:
434,263,86072,1,8,0:0:0:0:
436,243,86166,1,0,3:0:0:0:
498,214,86260,5,8,0:0:0:0:
496,194,86353,1,8,0:0:0:0:
494,174,86447,1,8,0:0:0:0:
491,154,86541,1,0,3:0:0:0:
444,90,86635,6,0,B|444:89|386:15|295:43|295:43|231:123|157:58,1,300,4|0,0:0|0:0,0:0:0:0:
157,57,87010,6,0,P|199:41|238:57,1,80,8|0,0:1|0:0,0:0:0:0:
63,178,87385,1,2,3:2:0:0:
21,86,87572,1,0,0:0:0:0:
202,106,87760,6,0,B|237:150|290:141|290:141|323:108|384:102|384:102|416:142|500:137|500:137|525:171|510:206,1,400,4|0,0:0|0:0,0:0:0:0:
373,224,88322,6,0,L|370:172,1,40,8|0,0:0|0:0,0:0:0:0:
460,297,88697,2,0,L|463:245,1,40,8|0,0:0|0:0,0:0:0:0:
406,364,88885,5,8,0:1:0:0:
383,372,88978,1,8,0:0:0:0:
358,372,89072,1,8,0:0:0:0:
337,359,89166,1,0,3:0:0:0:
320,341,89260,1,2,3:2:0:0:
300,326,89353,1,8,0:0:0:0:
277,317,89447,1,8,0:0:0:0:
253,320,89541,1,8,0:0:0:0:
230,328,89635,6,0,B|163:376|91:301|143:223|143:223|244:256|221:172|333:199,1,400,4|0,0:0|0:0,0:0:0:0:
441,223,90385,6,0,L|447:162,1,60.0000022888184,0|0,3:0|3:0,3:0:0:0:
459,51,90572,1,0,3:0:0:0:
292,16,90760,1,8,3:1:0:0:
179,156,90947,2,0,P|149:144|108:148,1,60.0000022888184,0|0,3:0|3:0,3:0:0:0:
25,169,91135,1,2,3:2:0:0:
15,301,91322,2,0,L|21:226,1,60.0000022888184,0|0,3:0|3:0,3:0:0:0:
21,14,91510,6,0,B|77:-33|181:0|139:47|216:102|316:18,1,300,4|0,0:0|0:0,0:0:0:0:
312,20,91885,5,8,3:2:0:0:
356,122,92072,1,0,3:0:0:0:
356,122,92166,1,0,3:0:0:0:
356,122,92260,1,2,3:2:0:0:
461,43,92447,2,0,P|464:85|456:118,1,60.0000022888184,0|0,3:0|3:0,3:0:0:0:
353,257,92635,6,0,P|251:216|46:278,1,300,4|0,0:0|0:0,0:0:0:0:
68,289,93010,5,2,0:0:0:0:
144,264,93197,1,2,0:0:0:0:
229,295,93385,6,0,P|261:305|283:328,1,60.0000022888184,8|0,3:1|3:0,3:0:0:0:
337,384,93572,1,0,3:0:0:0:
485,165,93760,2,0,P|453:175|431:198,1,60.0000022888184,2|0,3:2|3:0,3:0:0:0:
347,248,93947,1,0,3:0:0:0:
273,161,94135,6,0,B|276:126|251:92|251:92|314:114|344:76|398:82|398:82|353:144|345:284,1,400,4|0,0:0|0:0,0:0:0:0:
27,55,94885,5,0,3:2:0:0:
27,55,95072,1,2,3:2:0:0:
80,262,95260,6,0,B|99:312|68:346|41:353|20:345|-13:325|-50:212|4:180|23:168|66:130|12:19,1,400,4|0,0:0|0:0,0:0:0:0:
256,127,96010,5,8,0:1:0:0:
132,117,96197,1,0,0:0:0:0:
132,117,96385,2,0,B|144:57|144:57|223:38,1,120.000004577637,2|0,3:2|0:0,0:0:0:0:
409,4,96760,6,0,B|393:30|362:41|362:41|446:96|398:195|398:195|296:243|211:130,1,400,4|0,0:0|0:0,0:0:0:0:
152,254,97885,5,2,3:2:0:0:
175,257,97978,1,0,3:2:0:0:
229,298,98072,1,0,3:2:0:0:
252,292,98166,1,0,3:2:0:0:
285,230,98260,6,0,B|322:166|322:166|269:64|269:64|230:82|218:150|218:150|203:82|132:68,1,400,4|0,0:0|0:0,0:0:0:0:
361,74,99385,6,0,L|429:60,1,47.9999985351563,0|0,3:0|3:0,3:0:0:0:
151,74,99572,2,0,L|78:57,1,55.9999982910157,0|0,3:0|3:0,3:0:0:0:
392,168,99760,6,0,P|414:192|429:235,1,64,8|0,3:1|3:0,3:0:0:0:
119,172,99947,2,0,P|97:196|80:246,1,71.9999978027344,0|0,3:0|3:0,3:0:0:0:
144,357,100135,6,0,P|173:315|167:276,1,80,2|0,3:2|3:0,3:0:0:0:
365,359,100322,2,0,P|336:317|342:273,1,88.000002685547,0|0,3:0|3:0,3:0:0:0:
371,105,100510,6,0,B|410:90|414:34|356:33|356:33|298:86|253:70|263:36|207:28|156:81,1,300,4|0,0:0|0:0,0:0:0:0:
72,58,100885,5,8,0:1:0:0:
27,86,100978,1,8,0:0:0:0:
16,137,101072,1,8,0:0:0:0:
44,179,101166,1,8,0:0:0:0:
95,181,101260,1,10,0:0:0:0:
135,154,101353,1,8,0:0:0:0:
183,143,101447,1,8,0:0:0:0:
230,159,101541,1,8,0:0:0:0:
270,181,101635,6,0,B|304:202|362:200|386:174|386:174|359:69|359:69|403:39|470:27|525:94,1,400,4|0,0:0|0:0,0:0:0:0:
452,259,102385,6,0,B|411:341|337:303|337:303|267:277|175:340|175:340|126:308|100:262|112:214|112:214|120:174|63:124|-7:142|-23:232|69:250|112:214|112:214|158:165|185:156|216:169|222:182|246:203|272:203|324:156|315:113|297:52|264:28|227:19|162:37|162:37|160:71|173:98|224:108,1,1224.00002334595,6|0,0:0|0:0,0:0:0:0:
114,136,108385,5,0,0:0:0:0:
85,204,108572,1,0,0:0:0:0:
140,253,108760,1,8,0:0:0:0:
170,184,108947,1,0,0:0:0:0:
114,136,109135,1,0,0:0:0:0:
85,204,109322,1,0,0:0:0:0:
140,253,109510,1,8,0:0:0:0:
170,184,109697,1,0,0:0:0:0:
170,184,109885,1,0,0:0:0:0:
140,253,110072,1,0,0:0:0:0:
85,204,110260,1,8,0:0:0:0:
114,136,110447,1,0,0:0:0:0:
140,253,110635,1,2,0:0:0:0:
420,362,111385,5,0,0:0:0:0:
449,294,111572,1,0,0:0:0:0:
394,245,111760,1,8,0:0:0:0:
364,314,111947,1,0,0:0:0:0:
420,362,112135,1,0,0:0:0:0:
449,294,112322,1,0,0:0:0:0:
394,245,112510,1,8,0:0:0:0:
364,314,112697,1,0,0:0:0:0:
364,314,112885,1,0,0:0:0:0:
394,245,113072,1,0,0:0:0:0:
449,294,113260,1,8,0:0:0:0:
420,362,113447,1,0,0:0:0:0:
394,245,113635,1,2,0:0:0:0:
238,199,114010,6,0,P|197:191|142:196,1,68.0000012969971,0|0,3:0|0:0,0:0:0:0:
108,245,114291,1,8,0:0:0:0:
