osu file format v14

[General]
AudioFilename: audio.mp3
AudioLeadIn: 0
PreviewTime: 46885
Countdown: 0
SampleSet: Soft
StackLeniency: 0.4
Mode: 0
LetterboxInBreaks: 0
WidescreenStoryboard: 0

[Editor]
Bookmarks: 12385,24385,36385,42385
DistanceSpacing: 0.5
BeatDivisor: 4
GridSize: 8
TimelineZoom: 2.5

[Metadata]
Title:Louvre Bijutsukan Shinnyuu
TitleUnicode:ルーヴル美術館侵入
Artist:Hataya Naofumi
ArtistUnicode:幡谷尚史
Creator:kanocchi
Version:Insane
Source:リズム怪盗R 皇帝ナポレオンの遺産
Tags:Rhythm Kaitou R: Koutei Napoleon no Isan THIEF & the Emperor's Treasure Looting the Museum Invasion [-Evil-] OneShotFox Yoshihiko Chino Yoshitada Miya SEGA Nintendo 3DS video game vgm videogame instrumental meme
BeatmapID:2627574
BeatmapSetID:1264169

[Difficulty]
HPDrainRate:5.5
CircleSize:4
OverallDifficulty:7.5
ApproachRate:8.5
SliderMultiplier:1.8
SliderTickRate:1

[Events]
//Background and Video events
0,0,"24615128_p0_master1200.jpg",0,0
//Break Periods
2,72760,76135
//Storyboard Layer 0 (Background)
//Storyboard Layer 1 (Fail)
//Storyboard Layer 2 (Pass)
//Storyboard Layer 3 (Foreground)
//Storyboard Layer 4 (Overlay)
//Storyboard Sound Samples

[TimingPoints]
385,375,4,2,1,65,1,0
12385,-142.857142857143,4,2,1,65,0,0
14635,-142.857142857143,4,2,1,75,0,0
15010,-142.857142857143,4,2,1,5,0,0
15385,-142.857142857143,4,2,1,75,0,0
18010,-142.857142857143,4,2,1,5,0,0
18385,-142.857142857143,4,2,1,75,0,0
21010,-142.857142857143,4,2,1,5,0,0
21385,-142.857142857143,4,2,1,75,0,0
22885,-142.857142857143,4,2,1,35,0,0
23260,-142.857142857143,4,2,1,75,0,0
24010,-142.857142857143,4,2,1,5,0,0
24385,-133.333333333333,4,2,2,75,0,0
24572,-133.333333333333,4,2,2,75,0,0
25510,-133.333333333333,4,2,2,75,0,0
25697,-133.333333333333,4,2,2,75,0,0
25885,-133.333333333333,4,2,1,75,0,0
27010,-133.333333333333,4,2,2,5,0,0
27385,-133.333333333333,4,2,2,75,0,0
27572,-133.333333333333,4,2,2,75,0,0
28322,-133.333333333333,4,2,2,75,0,0
28510,-133.333333333333,4,2,2,75,0,0
28697,-133.333333333333,4,2,2,75,0,0
28885,-133.333333333333,4,2,1,75,0,0
30010,-133.333333333333,4,2,2,5,0,0
30385,-133.333333333333,4,2,2,75,0,0
30572,-133.333333333333,4,2,2,75,0,0
31322,-133.333333333333,4,2,2,75,0,0
31510,-133.333333333333,4,2,2,75,0,0
31697,-133.333333333333,4,2,2,75,0,0
31885,-133.333333333333,4,2,1,75,0,0
33010,-133.333333333333,4,2,2,5,0,0
33385,-133.333333333333,4,2,2,75,0,0
33572,-133.333333333333,4,2,1,75,0,0
34885,-133.333333333333,4,2,1,75,0,0
35260,-133.333333333333,4,2,1,75,0,0
36010,-133.333333333333,4,2,2,5,0,0
36385,-117.647058823529,4,2,2,65,0,0
36572,-117.647058823529,4,2,2,65,0,0
36760,-117.647058823529,4,2,2,65,0,0
36947,-117.647058823529,4,2,2,65,0,0
37135,-117.647058823529,4,2,2,45,0,0
37322,-117.647058823529,4,2,2,45,0,0
37510,-117.647058823529,4,2,2,45,0,0
37697,-117.647058823529,4,2,2,45,0,0
37885,-117.647058823529,4,2,2,65,0,0
38072,-117.647058823529,4,2,2,65,0,0
38260,-117.647058823529,4,2,2,65,0,0
38447,-117.647058823529,4,2,2,65,0,0
38635,-117.647058823529,4,2,2,45,0,0
38822,-117.647058823529,4,2,2,45,0,0
39010,-117.647058823529,4,2,2,45,0,0
39197,-117.647058823529,4,2,2,45,0,0
39385,-117.647058823529,4,2,2,65,0,0
39572,-117.647058823529,4,2,2,65,0,0
39760,-117.647058823529,4,2,2,65,0,0
39947,-117.647058823529,4,2,2,65,0,0
40135,-117.647058823529,4,2,2,45,0,0
40322,-117.647058823529,4,2,2,45,0,0
40510,-117.647058823529,4,2,2,45,0,0
40697,-117.647058823529,4,2,2,45,0,0
40885,-117.647058823529,4,2,2,65,0,0
41260,-117.647058823529,4,2,2,65,0,0
41447,-117.647058823529,4,2,2,65,0,0
41635,-117.647058823529,4,2,2,45,0,0
41822,-117.647058823529,4,2,2,45,0,0
42010,-117.647058823529,4,2,2,45,0,0
42197,-117.647058823529,4,2,2,45,0,0
42385,-117.647058823529,4,2,2,65,0,0
42572,-117.647058823529,4,2,2,65,0,0
42760,-117.647058823529,4,2,2,65,0,0
42947,-117.647058823529,4,2,2,65,0,0
43135,-117.647058823529,4,2,2,45,0,0
43322,-117.647058823529,4,2,2,45,0,0
43510,-117.647058823529,4,2,2,45,0,0
43697,-117.647058823529,4,2,2,45,0,0
43885,-117.647058823529,4,2,2,65,0,0
44072,-117.647058823529,4,2,2,65,0,0
44260,-117.647058823529,4,2,2,65,0,0
44447,-117.647058823529,4,2,2,65,0,0
44635,-117.647058823529,4,2,2,45,0,0
44822,-117.647058823529,4,2,2,45,0,0
45010,-117.647058823529,4,2,2,45,0,0
45197,-117.647058823529,4,2,2,45,0,0
45385,-117.647058823529,4,2,2,55,0,0
46885,-200,4,2,2,55,0,0
47166,-200,4,2,2,55,0,0
47260,-133.333333333333,4,2,2,55,0,0
47541,-133.333333333333,4,2,2,55,0,0
47635,-100,4,2,2,55,0,0
47916,-100,4,2,2,55,0,0
48010,-100,4,2,2,75,0,0
48196,-100,4,2,2,5,0,0
48385,-90.9090909090909,4,2,2,65,0,1
48853,-90.9090909090909,4,2,2,65,0,1
48947,-90.9090909090909,4,2,2,65,0,1
49134,-90.9090909090909,4,2,1,75,0,1
50353,-90.9090909090909,4,2,1,75,0,1
50447,-90.9090909090909,4,2,1,75,0,1
50635,-100,4,2,1,75,0,0
51010,-100,4,2,1,5,0,0
51385,-90.9090909090909,4,2,1,65,0,1
51666,-90.9090909090909,4,2,1,65,0,1
51760,-90.9090909090909,4,2,1,65,0,1
52041,-90.9090909090909,4,2,1,65,0,1
52135,-100,4,2,1,75,0,0
52510,-100,4,2,1,5,0,0
52885,-90.9090909090909,4,2,1,65,0,1
53166,-90.9090909090909,4,2,1,65,0,1
53260,-90.9090909090909,4,2,1,65,0,1
53541,-90.9090909090909,4,2,1,65,0,1
53635,-100,4,2,1,75,0,0
54010,-100,4,2,1,5,0,0
54385,-90.9090909090909,4,2,1,65,0,1
54853,-90.9090909090909,4,2,1,65,0,1
54947,-90.9090909090909,4,2,1,65,0,1
56353,-90.9090909090909,4,2,1,65,0,1
56447,-90.9090909090909,4,2,1,65,0,1
56635,-100,4,2,1,65,0,0
57010,-100,4,2,1,5,0,0
57385,-90.9090909090909,4,2,1,65,0,1
57666,-90.9090909090909,4,2,1,65,0,1
57760,-90.9090909090909,4,2,1,65,0,1
58041,-90.9090909090909,4,2,1,65,0,1
58135,-100,4,2,1,65,0,0
58510,-100,4,2,1,5,0,0
58885,-90.9090909090909,4,2,1,65,0,1
58978,-90.9090909090909,4,2,1,65,0,1
59072,-90.9090909090909,4,2,1,65,0,1
59166,-90.9090909090909,4,2,1,65,0,1
59260,-100,4,2,1,65,0,0
59635,-100,4,2,1,5,0,0
60385,-90.9090909090909,4,2,1,65,0,1
62260,-76.9230769230769,4,2,1,65,0,1
62635,-100,4,2,1,75,0,0
63010,-100,4,2,1,5,0,0
63385,-90.9090909090909,4,2,1,65,0,1
63760,-100,4,2,1,65,0,0
64135,-100,4,2,1,5,0,0
64885,-90.9090909090909,4,2,1,65,0,1
65635,-100,4,2,1,75,0,0
66010,-100,4,2,1,5,0,0
66385,-90.9090909090909,4,2,1,65,0,1
68260,-66.6666666666667,4,2,1,65,0,1
68635,-100,4,2,1,65,0,0
69197,-100,4,2,1,20,0,0
69385,-90.9090909090909,4,2,1,45,0,1
69760,-100,4,2,1,65,0,0
70135,-100,4,2,1,45,0,0
70885,-90.9090909090909,4,2,1,45,0,1
71260,-100,4,2,1,65,0,0
71635,-100,4,2,1,45,0,0
71822,-100,4,2,1,45,0,0
76885,-200,4,2,1,45,0,0
77166,-200,4,2,1,45,0,0
77260,-133.333333333333,4,2,1,45,0,0
77541,-133.333333333333,4,2,1,45,0,0
77635,-100,4,2,1,45,0,0
77916,-100,4,2,1,45,0,0
78010,-100,4,2,1,45,0,0
78385,-100,4,2,1,45,0,1
79510,-100,4,2,1,65,0,1
79885,-100,4,2,1,45,0,1
80635,-100,4,2,1,65,0,1
81010,-100,4,2,1,45,0,1
81760,-100,4,2,1,65,0,1
82135,-100,4,2,1,5,0,1
82885,-100,4,2,1,45,0,1
83635,-100,4,2,1,65,0,1
84010,-100,4,2,2,45,0,1
84760,-100,4,2,1,45,0,1
85510,-100,4,2,1,65,0,1
85791,-100,4,2,1,45,0,1
86635,-100,4,2,1,65,0,1
87010,-100,4,2,1,45,0,1
87760,-100,4,2,1,65,0,1
88135,-100,4,2,1,5,0,1
88322,-100,4,2,1,45,0,1
89635,-100,4,2,1,65,0,0
90010,-100,4,2,1,5,0,0
90385,-100,4,2,1,45,0,1
90572,-100,4,2,1,45,0,1
91510,-100,4,2,1,65,0,1
91885,-100,4,2,1,45,0,1
92635,-100,4,2,1,65,0,1
92916,-100,4,2,1,5,0,1
93010,-100,4,2,2,45,0,1
93385,-100,4,2,1,45,0,1
94135,-100,4,2,1,65,0,1
94510,-100,4,2,1,5,0,1
94885,-100,4,2,1,45,0,1
95260,-100,4,2,1,65,0,1
95635,-100,4,2,1,5,0,1
96010,-100,4,2,1,45,0,1
96760,-100,4,2,1,65,0,0
97135,-100,4,2,1,5,0,0
97885,-100,4,2,1,45,0,1
98260,-100,4,2,1,65,0,0
98635,-100,4,2,1,5,0,0
99385,-100,4,2,1,45,0,1
100510,-95.2380952380952,4,2,1,70,0,1
100885,-95.2380952380952,4,2,1,45,0,1
101635,-333.333333333333,4,2,1,75,0,0
102010,-333.333333333333,4,2,1,5,0,0
102385,-100,4,2,99,45,0,0
104635,-100,4,2,99,35,0,0
105010,-100,4,2,99,25,0,0
105385,-100,4,2,99,15,0,0
105760,-100,4,2,99,5,0,0
108385,-100,4,2,2,45,0,0
114385,-100,4,2,2,45,0,0

[Colours]
Combo1 : 159,64,255
Combo2 : 255,55,61
Combo3 : 0,86,215
Combo4 : 192,192,192

[HitObjects]
56,184,12385,6,0,L|48:120,1,62.9999980773926
144,152,12760,2,0,L|136:216,1,62.9999980773926,8|0,0:0|0:0,0:0:0:0:
40,208,13135,2,0,L|32:144,1,62.9999980773926
160,176,13510,2,0,L|152:240,1,62.9999980773926,8|0,0:0|0:0,0:0:0:0:
208,320,13885,2,0,P|248:336|288:336,1,62.9999980773926,8|0,0:1|0:0,0:0:0:0:
328,240,14260,2,0,P|296:244|268:257,1,62.9999980773926,10|0,0:0|0:0,0:0:0:0:
352,320,14635,5,4,0:0:0:0:
352,320,15385,6,0,L|424:328,1,62.9999980773926
472,256,15760,2,0,L|409:249,1,62.9999980773926,8|0,0:0|0:0,0:0:0:0:
336,336,16135,2,0,L|408:344,1,62.9999980773926
488,240,16510,2,0,L|425:233,1,62.9999980773926,8|0,0:0|0:0,0:0:0:0:
352,168,16885,2,0,P|344:136|344:96,1,62.9999980773926,8|0,0:1|0:0,0:0:0:0:
472,72,17260,2,0,P|470:103|462:133,1,62.9999980773926,10|0,0:0|0:0,0:0:0:0:
392,24,17635,5,4,0:0:0:0:
392,24,18385,6,0,L|304:16,1,62.9999980773926
248,72,18760,2,0,L|160:64,1,62.9999980773926,8|0,0:0|0:0,0:0:0:0:
85,52,19135,2,0,P|96:115|108:137,1,62.9999980773926
40,203,19510,2,0,P|69:214|101:219,1,62.9999980773926,8|0,0:0|0:0,0:0:0:0:
208,192,19885,2,0,L|200:280,1,62.9999980773926,8|0,0:1|0:0,0:0:0:0:
296,312,20260,2,0,L|290:249,1,62.9999980773926,10|0,0:0|0:0,0:0:0:0:
408,304,20635,5,4,0:0:0:0:
408,304,21385,6,0,P|400:256|400:224,1,62.9999980773926
512,200,21760,2,0,P|509:231|503:262,1,62.9999980773926,8|0,0:1|0:0,0:0:0:0:
424,152,22135,2,0,L|352:144,1,62.9999980773926,2|0,0:0|0:0,0:0:0:0:
288,56,22510,5,4,0:0:0:0:
288,56,22885,6,0,L|208:64,1,62.9999980773926,8|0,0:1|0:0,0:0:0:0:
136,144,23260,2,0,L|216:152,1,62.9999980773926,10|0,0:0|0:0,0:0:0:0:
256,272,23635,5,4,0:0:0:0:
256,272,24385,6,0,L|312:280,1,33.7500012874604,2|0,0:0|0:0,0:0:0:0:
344,344,24572,2,0,L|338:251,1,67.5000025749208,0|8,0:0|0:0,0:0:0:0:
336,180,24947,1,0,0:0:0:0:
432,144,25135,2,0,L|488:136,2,33.7500012874604,0|0|2,0:0|0:0|0:0,0:0:0:0:
368,72,25510,2,0,P|336:56|296:48,1,67.5000025749208,10|2,0:0|0:0,0:0:0:0:
224,104,25885,6,0,L|216:144,1,33.7500012874604,8|0,0:1|0:0,0:0:0:0:
176,208,26072,2,0,L|168:112,1,67.5000025749208,0|10,0:0|0:0,0:0:0:0:
104,72,26447,1,0,0:0:0:0:
40,184,26635,5,4,0:0:0:0:
40,184,27385,6,0,L|48:248,1,33.7500012874604,2|0,0:0|0:0,0:0:0:0:
96,304,27572,2,0,P|128:312|184:304,1,67.5000025749208,0|8,0:0|0:0,0:0:0:0:
248,256,27947,1,0,0:0:0:0:
328,328,28135,2,0,L|336:368,2,33.7500012874604,0|0|2,0:0|0:0|0:0,0:0:0:0:
424,280,28510,2,0,L|432:200,1,67.5000025749208,10|2,0:0|0:0,0:0:0:0:
480,120,28885,6,0,L|448:112,1,33.7500012874604,8|0,0:1|0:0,0:0:0:0:
344,80,29072,2,0,L|350:147,1,67.5000025749208,0|10,0:0|0:0,0:0:0:0:
272,216,29447,1,0,0:0:0:0:
184,120,29635,5,4,0:0:0:0:
184,120,30385,6,0,P|136:128|120:128,1,33.7500012874604,2|0,0:0|0:0,0:0:0:0:
48,120,30572,2,0,P|80:168|88:200,1,67.5000025749208,0|8,0:0|0:0,0:0:0:0:
32,264,30947,1,0,0:0:0:0:
88,344,31135,1,0,0:0:0:0:
102,342,31228,1,0,0:0:0:0:
116,340,31322,1,2,0:0:0:0:
224,304,31510,6,0,L|216:352,1,33.7500012874604,10|0,0:0|0:0,0:0:0:0:
144,264,31697,2,0,L|149:230,1,33.7500012874604,2|0,0:0|0:0,0:0:0:0:
224,160,31885,6,0,P|256:152|304:152,1,67.5000025749208,8|0,0:1|0:0,0:0:0:0:
344,256,32260,2,0,P|310:254|277:246,1,67.5000025749208,10|0,0:0|0:0,0:0:0:0:
384,168,32635,5,4,0:0:0:0:
384,168,33385,6,0,L|376:112,1,33.7500012874604,2|0,0:0|0:0,0:0:0:0:
368,32,33572,2,0,L|464:48,1,67.5000025749208,0|8,0:0|0:1,0:0:0:0:
488,136,33947,1,0,0:0:0:0:
448,232,34135,1,2,0:0:0:0:
449,243,34228,1,0,0:0:0:0:
451,255,34322,1,0,0:0:0:0:
360,336,34510,5,4,0:0:0:0:
360,336,34885,6,0,L|304:328,1,33.7500012874604,8|0,0:1|0:0,0:0:0:0:
248,248,35072,2,0,L|328:240,1,67.5000025749208,0|10,0:0|0:0,0:0:0:0:
232,336,35447,1,0,0:0:0:0:
112,272,35635,5,4,0:0:0:0:
112,272,36385,6,0,L|104:360,1,76.5000014591217,2|0,3:2|0:2,0:2:0:0:
16,280,36760,2,0,L|21:228,4,38.2500007295609,8|0|0|0|0,0:2|0:2|0:2|0:2|3:2,0:2:0:0:
104,192,37322,1,0,3:2:0:0:
16,88,37510,2,8,L|24:184,1,76.5000014591217,8|0,0:2|0:2,0:2:0:0:
112,104,37885,6,0,P|152:112|192:128,1,76.5000014591217,2|0,3:2|0:2,0:2:0:0:
256,208,38260,2,8,L|218:213,4,38.2500007295609,8|8|0|0|0,0:2|0:2|0:2|0:2|3:2,0:2:0:0:
344,144,38822,1,0,3:2:0:0:
424,208,39010,2,0,L|432:304,1,76.5000014591217,8|0,0:2|0:2,0:2:0:0:
304,360,39385,6,0,L|310:283,1,76.5000014591217,2|0,3:2|0:2,0:2:0:0:
218,213,39760,2,0,L|255:206,4,38.2500007295609,8|0|0|0|0,0:2|0:2|0:2|0:2|3:2,0:2:0:0:
160,296,40322,1,0,3:2:0:0:
64,256,40510,2,0,P|56:216|56:176,1,76.5000014591217,8|0,0:2|0:2,0:2:0:0:
144,128,40885,6,0,P|151:90|152:52,1,76.5000014591217,2|0,3:2|0:2,0:2:0:0:
56,72,41260,2,0,L|16:64,4,38.2500007295609,8|0|0|0|0,0:2|0:2|0:2|0:2|3:2,0:2:0:0:
55,180,41822,2,0,L|79:212,1,38.2500007295609,0|0,3:2|3:2,0:2:0:0:
120,240,42010,2,0,P|160:232|200:232,1,76.5000014591217,8|0,0:2|0:2,0:2:0:0:
288,304,42385,6,0,P|326:303|363:295,1,76.5000014591217,2|0,3:2|0:2,0:2:0:0:
440,224,42760,1,8,0:2:0:0:
441,207,42853,1,0,0:2:0:0:
442,191,42947,1,0,0:2:0:0:
444,175,43041,1,0,0:2:0:0:
445,159,43135,1,0,3:2:0:0:
400,64,43322,1,0,3:2:0:0:
272,152,43510,2,0,L|360:144,1,76.5000014591217,8|0,0:2|0:2,0:2:0:0:
256,48,43885,6,0,L|168:40,1,76.5000014591217,2|0,3:2|0:2,0:0:0:0:
80,88,44260,1,8,0:2:0:0:
81,116,44353,1,0,0:2:0:0:
83,144,44447,1,0,0:2:0:0:
85,172,44541,1,0,0:2:0:0:
87,200,44635,1,0,3:2:0:0:
160,272,44822,1,0,3:2:0:0:
96,352,45010,2,0,L|8:344,1,76.5000014591217,8|0,0:2|0:2,0:2:0:0:
200,320,45385,6,0,L|288:312,1,76.5000014591217,2|0,3:2|0:2,0:2:0:0:
304,288,45666,1,0,3:2:0:0:
305,274,45759,1,0,3:2:0:0:
306,261,45853,1,0,0:0:0:0:
307,248,45947,1,0,3:2:0:0:
308,234,46041,1,0,0:0:0:0:
309,221,46135,6,0,L|310:158,3,38.2500007295609,0|0|0|0,3:0|3:0|3:0|3:0,0:0:0:0:
216,192,46510,6,0,L|211:135,3,38.2500007295609,8|8|8|8,0:0|0:0|0:0|0:0,0:0:0:0:
104,192,46885,6,0,P|88:224|88:264,1,67.5,8|0,0:0|0:0,0:0:0:0:
138,137,47260,2,0,P|96:163|75:209,1,101.250003862381,8|0,0:0|0:0,0:0:0:0:
189,111,47635,2,0,P|123:115|77:161,1,135,8|0,0:0|0:0,0:0:0:0:
216,192,48010,5,0,0:0:0:0:
216,192,48385,5,0,3:0:0:0:
368,328,48572,1,0,3:0:0:0:
322,147,48760,2,0,P|321:121|325:91,1,49.5000015106202,0|0,3:0|0:0,0:0:0:0:
336,72,48947,1,0,3:0:0:0:
400,248,49135,6,0,P|325:240|240:240,2,148.50000453186,8|8|8,0:0|0:0|0:0,0:0:0:0:
400,248,49791,1,0,0:0:0:0:
400,248,49885,5,8,3:1:0:0:
295,373,50072,1,0,3:0:0:0:
251,239,50260,2,0,L|268:185,1,49.5000015106202,2|0,3:2|0:0,0:0:0:0:
264,160,50447,1,0,3:0:0:0:
104,120,50635,5,4,0:0:0:0:
104,120,51385,6,0,P|112:176|184:136,1,148.50000453186,8|0,3:1|0:0,0:0:0:0:
32,88,51760,2,0,P|20:143|51:227,1,148.50000453186,2|0,3:2|0:0,0:0:0:0:
152,272,52135,5,6,0:0:0:0:
152,272,52885,6,0,B|207:267|207:267|241:280|241:280|336:271,1,148.50000453186,8|0,3:1|0:0,0:0:0:0:
352,176,53260,2,0,L|344:368,1,148.50000453186,2|0,3:2|0:0,0:0:0:0:
256,192,53635,5,4,0:0:0:0:
256,192,54385,5,0,3:0:0:0:
208,32,54572,1,0,3:0:0:0:
88,168,54760,2,0,P|128:160|152:160,1,49.5000015106202,0|0,3:0|0:0,0:0:0:0:
168,168,54947,1,0,3:0:0:0:
32,72,55135,6,0,P|39:141|40:232,2,148.50000453186,8|8|8,0:0|0:0|0:0,0:0:0:0:
32,72,55791,1,0,0:0:0:0:
32,72,55885,1,8,3:1:0:0:
128,240,56072,1,0,3:0:0:0:
240,112,56260,2,0,L|232:40,1,49.5000015106202,2|0,3:2|0:0,0:0:0:0:
256,16,56447,1,0,3:0:0:0:
448,48,56635,5,4,0:0:0:0:
448,48,57385,6,0,B|455:92|431:119|431:119|397:153|419:217,1,148.50000453186,8|0,3:1|0:0,0:0:0:0:
320,251,57760,2,0,P|392:236|471:239,1,148.50000453186,2|0,3:2|0:0,0:0:0:0:
320,136,58135,5,4,0:0:0:0:
320,136,58885,6,0,L|264:128,1,49.5000015106202,10|8,0:0|0:0,0:0:0:0:
160,8,59072,2,0,L|209:15,1,49.5000015106202,8|8,0:0|0:0,0:0:0:0:
144,176,59260,5,4,0:0:0:0:
144,176,60385,6,0,P|154:228|160:288,1,99.0000030212403
280,328,60760,2,0,P|352:304|424:344,1,148.50000453186
448,360,61135,2,0,L|456:296,1,49.5000015106202
416,224,61322,1,0,0:0:0:0:
456,88,61510,1,0,0:0:0:0:
360,32,61697,2,0,L|368:80,1,49.5000015106202
336,120,61885,6,0,B|280:120|280:120|248:136|248:136|160:136,1,148.50000453186,8|0,0:1|0:0,0:0:0:0:
24,80,62260,2,0,B|90:80|90:80|122:48|122:48|186:48,1,175.499991966248,2|0,0:0|0:0,0:0:0:0:
200,232,62635,5,4,0:0:0:0:
200,232,63385,6,0,P|224:218|252:210,1,49.5000015106202,8|0,0:1|0:0,0:0:0:0:
336,264,63572,2,0,P|360:267|384:265,1,49.5000015106202,2|0,0:0|0:0,0:0:0:0:
483,224,63760,5,4,0:0:0:0:
483,224,64885,5,8,0:1:0:0:
443,191,64978,1,0,0:0:0:0:
396,177,65072,1,0,0:0:0:0:
346,182,65166,1,0,0:0:0:0:
316,188,65260,1,2,0:0:0:0:
280,185,65354,1,0,0:0:0:0:
247,172,65448,1,0,0:0:0:0:
219,150,65542,1,0,0:0:0:0:
192,80,65635,5,4,0:0:0:0:
192,80,66385,6,0,P|229:74|304:72,1,99.0000030212403
94,14,66760,2,0,L|110:182,1,148.50000453186
128,186,67135,5,0,0:0:0:0:
224,320,67322,1,0,0:0:0:0:
248,152,67510,1,0,0:0:0:0:
72,272,67697,2,0,L|80:352,1,49.5000015106202
176,256,67885,6,0,B|224:240|224:240|328:256,1,148.50000453186,8|0,0:1|0:0,0:0:0:0:
432,384,68260,2,0,B|456:320|408:256|408:256|400:296|368:320,1,202.500007724762,2|0,0:0|0:0,0:0:0:0:
280,336,68635,5,4,0:0:0:0:
280,336,69385,6,0,L|288:272,1,49.5000015106202,8|0,0:1|0:0,0:0:0:0:
256,192,69572,2,0,L|264:128,1,49.5000015106202,2|0,0:0|0:0,0:0:0:0:
224,48,69760,5,4,0:0:0:0:
224,48,70885,6,0,P|192:48|152:32,1,49.5000015106202,8|0,0:1|0:0,0:0:0:0:
104,120,71072,2,0,P|81:97|64:57,1,49.5000015106202,2|0,0:0|0:0,0:0:0:0:
72,224,71260,5,4,0:0:0:0:
256,200,71447,6,0,L|251:259,1,45
264,264,71635,1,0,3:0:0:0:
360,296,71822,1,0,3:0:0:0:
373,295,71915,1,0,3:0:0:0:
386,294,72009,1,0,3:0:0:0:
399,293,72103,1,0,3:0:0:0:
412,292,72197,1,0,3:0:0:0:
425,291,72290,1,0,3:0:0:0:
438,290,72384,5,0,3:2:0:0:
96,224,76885,6,0,L|102:297,1,67.5,8|0,0:0|0:0,0:0:0:0:
112,168,77260,2,0,L|121:289,1,101.250003862381,8|0,0:0|0:0,0:0:0:0:
136,96,77635,2,0,L|147:247,1,135,8|0,0:0|0:0,0:0:0:0:
192,168,78010,5,0,0:0:0:0:
432,240,78385,6,0,P|372:210|296:237,1,135,0|0,3:0|0:0,0:0:0:0:
282,265,78760,1,8,0:1:0:0:
352,360,78947,2,0,L|360:312,1,45,8|0,0:0|0:0,0:0:0:0:
304,144,79135,5,2,0:0:0:0:
440,264,79322,1,0,3:0:0:0:
400,96,79510,6,0,L|240:88,1,135,4|0,0:0|0:0,0:0:0:0:
256,112,79885,5,8,0:1:0:0:
248,138,79978,1,8,0:0:0:0:
248,165,80072,1,8,0:0:0:0:
258,191,80166,1,0,3:0:0:0:
286,222,80260,5,10,0:0:0:0:
282,265,80353,1,8,0:0:0:0:
259,304,80447,1,8,0:0:0:0:
225,332,80541,1,0,3:0:0:0:
136,336,80635,5,4,0:0:0:0:
136,336,81385,6,0,P|80:320|128:296,1,135,2|0,3:2|0:0,0:0:0:0:
40,184,81760,5,4,0:0:0:0:
40,184,82885,6,0,P|56:144|32:80,1,90,8|0,3:1|3:0,3:1:0:0:
23,71,83166,1,0,0:0:0:0:
127,40,83260,2,0,P|143:80|143:104,1,45,2|0,3:2|0:0,0:2:0:0:
236,117,83447,2,0,P|211:152|192:166,1,45,0|0,3:2|0:0,0:0:0:0:
200,256,83635,5,4,0:0:0:0:
200,256,84385,6,0,B|255:251|255:251|280:256|280:256|368:249,1,135,0|0,3:2|0:0,0:0:0:0:
357,226,84760,1,8,0:1:0:0:
264,88,84947,2,0,L|272:144,1,45
256,296,85135,5,0,0:0:0:0:
152,160,85322,1,2,0:0:0:0:
32,216,85510,6,0,B|8:256|8:256|24:352,1,135,4|0,0:0|0:0,0:0:0:0:
104,368,85885,5,8,0:0:0:0:
131,366,85978,1,8,0:0:0:0:
158,364,86072,1,8,0:0:0:0:
186,362,86166,1,0,3:0:0:0:
233,368,86260,5,8,0:0:0:0:
264,335,86353,1,8,0:0:0:0:
273,291,86447,1,8,0:0:0:0:
258,250,86541,1,0,3:0:0:0:
194,181,86635,5,4,0:0:0:0:
194,181,87385,6,0,B|200:125|200:125|195:108|195:108|204:45,1,135,2|0,3:2|0:0,0:0:0:0:
102,89,87760,5,4,0:0:0:0:
102,89,88885,5,8,0:1:0:0:
102,89,88978,1,8,0:0:0:0:
102,89,89072,2,0,P|107:129|126:160,1,45,8|0,0:0|3:0,0:0:0:0:
165,225,89260,2,0,P|198:246|234:252,1,45,2|8,3:2|0:0,0:0:0:0:
312,263,89447,2,0,P|350:251|377:227,1,45,8|8,0:0|0:0,0:0:0:0:
464,198,89635,5,4,0:0:0:0:
464,198,90385,6,0,L|456:342,1,135,0|0,3:0|0:0,3:0:0:0:
426,273,90760,2,0,L|433:154,1,90,8|0,3:1|3:0,0:0:0:0:
381,90,91135,1,2,3:2:0:0:
288,192,91322,1,0,3:0:0:0:
184,64,91510,6,0,B|152:104|152:104|168:216,1,135,4|0,0:0|0:0,0:0:0:0:
192,224,91885,5,8,3:2:0:0:
138,356,92072,1,0,3:0:0:0:
138,356,92166,1,0,3:0:0:0:
138,356,92260,2,0,L|227:349,1,90,2|0,3:2|3:0,0:0:0:0:
360,272,92635,5,4,0:0:0:0:
360,272,93385,6,0,L|352:120,1,135,8|0,3:1|0:0,3:0:0:0:
312,72,93760,2,0,P|264:56|208:56,1,90,2|0,3:2|3:0,3:0:0:0:
128,136,94135,5,4,0:0:0:0:
128,136,94885,6,0,L|120:200,1,45,0|0,3:2|0:0,0:0:0:0:
88,328,95072,2,0,L|128:308,1,45,2|0,3:2|0:0,0:0:0:0:
256,248,95260,5,4,0:0:0:0:
256,248,96010,6,0,P|312:256|352:272,1,90,8|0,0:1|0:0,0:0:0:0:
440,368,96385,6,0,L|432:240,1,90,2|0,3:2|0:0,0:0:0:0:
456,232,96666,1,0,0:0:0:0:
443,132,96760,6,0,P|403:148|355:212,1,90,4|0,0:0|0:0,0:0:0:0:
370,180,97885,6,0,L|338:60,1,90,2|0,3:2|3:2,0:0:0:0:
332,50,98166,1,0,3:2:0:0:
256,128,98260,6,0,P|208:136|144:104,1,90,4|0,0:0|0:0,0:0:0:0:
169,124,99385,6,0,L|185:252,1,90,0|0,3:0|3:0,3:0:0:0:
209,244,99666,1,0,3:0:0:0:
161,340,99760,6,0,P|105:340|65:316,1,90,8|0,3:1|3:0,3:0:0:0:
241,226,100135,2,0,P|297:226|337:250,1,90,2|0,3:2|3:0,3:0:0:0:
401,355,100510,6,0,L|417:187,1,141.749995674133,4|0,0:0|0:0,0:0:0:0:
441,179,100885,5,8,0:1:0:0:
474,147,100978,1,8,0:0:0:0:
482,101,101072,1,8,0:0:0:0:
461,60,101166,1,8,0:0:0:0:
432,56,101259,5,10,0:0:0:0:
403,53,101353,1,8,0:0:0:0:
375,49,101447,1,8,0:0:0:0:
346,46,101541,1,8,0:0:0:0:
273,91,101635,6,0,P|267:122|265:155,1,53.9999983520508,4|0,0:0|0:0,0:0:0:0:
414,213,102385,5,6,0:0:0:0:
256,192,102572,12,0,105385,0:0:0:0:
