osu file format v14

[General]
AudioFilename: audio.mp3
AudioLeadIn: 0
PreviewTime: -1
Countdown: 0
SampleSet: Soft
StackLeniency: 0.1
Mode: 0
LetterboxInBreaks: 0
WidescreenStoryboard: 1

[Editor]
Bookmarks: 10885,24385,36385,48385,60385,72385,72760,73135,73510,73885,74260,74635,75010,75385,78385,90385,102385
DistanceSpacing: 0.5
BeatDivisor: 4
GridSize: 16
TimelineZoom: 1.8

[Metadata]
Title:Louvre Bijutsukan Shinnyuu
TitleUnicode:ルーヴル美術館侵入
Artist:Hataya Naofumi
ArtistUnicode:幡谷尚史
Creator:Meek007
Version:3, 2, 1, GO!!
Source:リズム怪盗R 皇帝ナポレオンの遺産
Tags:
BeatmapID:4493590
BeatmapSetID:2135547

[Difficulty]
HPDrainRate:4
CircleSize:4
OverallDifficulty:8.7
ApproachRate:8
SliderMultiplier:1.4
SliderTickRate:1

[Events]
//Background and Video events
0,0,"24615128_p0_master1200.jpg",0,0
//Break Periods
2,72585,74185
//Storyboard Layer 0 (Background)
//Storyboard Layer 1 (Fail)
//Storyboard Layer 2 (Pass)
//Storyboard Layer 3 (Foreground)
//Storyboard Layer 4 (Overlay)
//Storyboard Sound Samples

[TimingPoints]
385,375,4,2,1,65,1,0
10885,-25,4,2,1,65,0,0
11072,-100,4,2,1,5,0,0
11260,-25,4,2,1,65,0,0
11447,-100,4,2,1,5,0,0
11635,-33.3333333333333,4,2,1,65,0,0
11822,-100,4,2,1,5,0,0
12010,-100,4,2,1,65,0,0
15197,-100,4,2,1,5,0,0
15385,-100,4,2,1,65,0,0
18197,-100,4,2,1,5,0,0
18385,-100,4,2,1,65,0,0
21197,-100,4,2,1,5,0,0
21385,-100,4,2,1,65,0,0
24197,-100,4,2,1,5,0,0
24385,-100,4,2,1,65,0,0
27197,-100,4,2,1,5,0,0
27385,-100,4,2,1,65,0,0
30197,-100,4,2,1,5,0,0
30385,-100,4,2,1,65,0,0
33197,-100,4,2,1,5,0,0
33385,-100,4,2,1,65,0,0
36197,-100,4,2,1,5,0,0
36385,-100,4,2,1,65,0,0
48385,-100,4,2,1,65,0,0
49322,-100,4,2,1,5,0,0
49416,-100,4,2,1,65,0,0
49603,-100,4,2,1,5,0,0
49697,-100,4,2,1,65,0,0
50635,-66.6666666666667,4,2,1,65,0,0
51197,-66.6666666666667,4,2,1,5,0,0
51385,-66.6666666666667,4,2,1,65,0,0
51572,-100,4,2,1,65,0,0
52697,-100,4,2,1,5,0,0
52885,-100,4,2,1,65,0,0
53635,-80,4,2,1,65,0,0
54197,-80,4,2,1,5,0,0
54385,-80,4,2,1,65,0,0
55322,-80,4,2,1,5,0,0
55416,-80,4,2,1,65,0,0
55603,-80,4,2,1,5,0,0
55697,-80,4,2,1,65,0,0
57197,-80,4,2,1,5,0,0
57385,-80,4,2,1,65,0,0
58697,-80,4,2,1,5,0,0
58885,-80,4,2,1,65,0,0
60010,-80,4,2,1,65,0,0
60385,-80,4,2,1,65,0,0
62166,-80,4,2,1,5,0,0
62260,-80,4,2,1,65,0,0
62541,-80,4,2,1,5,0,0
62635,-80,4,2,1,65,0,0
63197,-80,4,2,1,5,0,0
63385,-80,4,2,1,65,0,0
66197,-80,4,2,1,5,0,0
66385,-80,4,2,1,65,0,0
68166,-80,4,2,1,5,0,0
68260,-80,4,2,1,65,0,0
68541,-80,4,2,1,5,0,0
68635,-80,4,2,1,65,0,0
69197,-80,4,2,1,5,0,0
69385,-80,4,2,1,65,0,0
69947,-80,4,2,1,5,0,0
70041,-80,4,2,1,65,0,0
77166,-80,4,2,1,5,0,0
77260,-80,4,2,1,65,0,0
77541,-80,4,2,1,5,0,0
77635,-80,4,2,1,65,0,0
77916,-80,4,2,1,5,0,0
78010,-80,4,2,1,65,0,0
78666,-80,4,2,1,5,0,0
78760,-80,4,2,1,65,0,0
79791,-80,4,2,1,5,0,0
79885,-80,4,2,1,65,0,0
97322,-80,4,2,1,5,0,0
97885,-80,4,2,1,65,0,0
100697,-80,4,2,1,5,0,0
100885,-80,4,2,1,65,0,0
102197,-80,4,2,1,5,0,0
102385,-80,4,2,1,65,0,0

[Colours]
Combo1 : 208,159,47
Combo2 : 0,0,128
Combo3 : 191,0,15
Combo4 : 128,0,255

[HitObjects]
60,62,10885,6,0,B|55:56|65:52|69:49|81:44|94:42|105:44|123:50|131:66|134:79|127:97|107:111|85:116|85:116|104:113|122:110|132:115|151:134|140:157|124:176|104:180|87:177,1,280,8|0,0:0|0:0,0:0:0:0:
212,50,11260,6,0,B|235:11|271:21|293:34|303:63|294:98|246:93|225:144|225:144|261:124|303:135,1,280,8|0,0:0|0:0,0:0:0:0:
390,42,11635,6,0,B|418:36|442:16|442:16|410:84|391:160,1,210.000008010865,8|0,0:0|0:0,0:0:0:0:
271,204,12010,5,8,0:0:0:0:
43,357,12385,5,0,0:0:0:0:
87,278,12572,1,0,0:0:0:0:
178,276,12760,1,8,0:0:0:0:
237,344,12947,1,0,0:0:0:0:
323,315,13135,1,0,0:0:0:0:
318,224,13322,1,0,0:0:0:0:
230,198,13510,1,8,0:0:0:0:
190,116,13697,1,0,0:0:0:0:
230,198,13885,1,0,0:0:0:0:
318,224,14072,1,0,0:0:0:0:
323,315,14260,1,8,0:0:0:0:
237,344,14447,1,0,0:0:0:0:
431,307,14635,6,0,L|483:104,1,210,12|0,0:0|0:0,0:0:0:0:
452,29,15385,5,0,0:0:0:0:
387,92,15572,1,0,0:0:0:0:
306,49,15760,1,8,0:0:0:0:
237,108,15947,1,0,0:0:0:0:
279,188,16135,1,0,0:0:0:0:
368,172,16322,1,0,0:0:0:0:
279,188,16510,1,8,0:0:0:0:
237,108,16697,1,0,0:0:0:0:
279,188,16885,1,0,0:0:0:0:
237,108,17072,1,0,0:0:0:0:
146,100,17260,1,8,0:0:0:0:
92,172,17447,1,0,0:0:0:0:
32,237,17635,6,0,L|246:277,1,210,12|0,0:0|0:0,0:0:0:0:
314,290,18385,1,0,0:0:0:0:
376,355,18572,1,0,0:0:0:0:
457,314,18760,1,8,0:0:0:0:
440,224,18947,1,0,0:0:0:0:
457,314,19135,1,0,0:0:0:0:
376,355,19322,1,0,0:0:0:0:
314,290,19510,1,8,0:0:0:0:
376,355,19697,1,0,0:0:0:0:
314,290,19885,1,0,0:0:0:0:
358,210,20072,1,0,0:0:0:0:
321,126,20260,1,8,0:0:0:0:
405,93,20447,1,0,0:0:0:0:
446,2,20635,6,0,L|216:36,1,210,12|0,0:0|0:0,0:0:0:0:
164,86,21385,1,0,0:0:0:0:
77,57,21572,1,0,0:0:0:0:
14,123,21760,1,8,0:0:0:0:
49,206,21947,1,0,0:0:0:0:
140,211,22135,1,0,0:0:0:0:
194,283,22322,1,0,0:0:0:0:
19,311,22510,6,0,L|157:363,1,140,12|0,0:0|0:0,0:0:0:0:
240,360,23072,1,0,0:0:0:0:
331,356,23260,1,8,0:0:0:0:
382,281,23447,1,0,0:0:0:0:
317,226,23635,6,0,L|107:265,1,210,12|0,0:0|0:0,0:0:0:0:
79,96,24385,5,2,0:0:0:0:
23,179,24572,2,0,L|181:153,1,140
306,191,25135,5,0,0:0:0:0:
241,142,25322,1,0,0:0:0:0:
306,191,25510,1,10,0:0:0:0:
356,124,25697,1,2,0:0:0:0:
288,76,25885,1,0,0:0:0:0:
306,191,26072,1,0,0:0:0:0:
356,124,26260,1,8,0:0:0:0:
424,172,26447,1,0,0:0:0:0:
512,236,26635,6,0,L|300:280,1,210,12|0,0:0|0:0,0:0:0:0:
149,326,27385,5,2,0:0:0:0:
88,241,27572,2,0,L|236:268,1,140
115,145,28135,5,0,0:0:0:0:
192,179,28322,1,8,0:0:0:0:
260,129,28510,1,10,0:0:0:0:
182,93,28697,1,2,0:0:0:0:
105,61,28885,1,0,0:0:0:0:
182,93,29072,1,0,0:0:0:0:
173,12,29260,1,8,0:0:0:0:
250,43,29447,1,0,0:0:0:0:
182,93,29635,6,0,L|381:180,1,210,12|0,0:0|0:0,0:0:0:0:
419,283,30385,5,2,0:0:0:0:
327,238,30572,2,0,L|467:182,1,140
304,80,31135,5,0,0:0:0:0:
369,142,31322,1,0,0:0:0:0:
304,80,31510,1,10,0:0:0:0:
248,142,31697,1,2,0:0:0:0:
187,83,31885,1,0,0:0:0:0:
248,142,32072,1,0,0:0:0:0:
187,83,32260,1,8,0:0:0:0:
111,119,32447,1,0,0:0:0:0:
211,221,32635,6,0,L|1:164,1,210,12|0,0:0|0:0,0:0:0:0:
105,269,33385,5,2,0:0:0:0:
257,295,33572,2,0,L|122:341,1,140
253,379,34322,1,0,0:0:0:0:
453,369,34510,6,0,L|251:292,1,210,14|0,0:0|0:0,0:0:0:0:
453,369,35260,1,8,0:0:0:0:
378,261,35447,1,0,0:0:0:0:
499,227,35635,6,0,L|303:153,1,210,12|0,0:0|0:0,0:0:0:0:
177,41,36385,5,2,0:0:0:0:
136,122,36572,1,0,0:0:0:0:
201,185,36760,1,8,0:0:0:0:
244,105,36947,1,0,0:0:0:0:
136,122,37135,1,0,0:0:0:0:
177,41,37322,1,0,0:0:0:0:
201,185,37510,1,8,0:0:0:0:
136,122,37697,1,0,0:0:0:0:
43,244,37885,6,0,L|116:261,1,70,2|0,0:0|0:0,0:0:0:0:
192,276,38260,5,8,0:0:0:0:
244,349,38447,1,0,0:0:0:0:
192,276,38635,1,0,0:0:0:0:
282,267,38822,1,0,0:0:0:0:
244,349,39010,1,8,0:0:0:0:
192,276,39197,2,0,L|213:225,1,35
264,107,39385,6,0,L|236:174,1,70,2|0,0:0|0:0,0:0:0:0:
436,163,39760,1,8,0:0:0:0:
350,135,39947,1,0,0:0:0:0:
436,163,40135,1,0,0:0:0:0:
264,107,40322,1,0,0:0:0:0:
350,135,40510,1,8,0:0:0:0:
436,163,40697,2,0,L|425:209,1,35
376,346,40885,6,0,L|454:365,1,70,2|0,0:0|0:0,0:0:0:0:
291,314,41260,1,8,0:0:0:0:
446,288,41447,1,0,0:0:0:0:
361,256,41635,1,0,0:0:0:0:
376,346,41822,1,0,0:0:0:0:
361,256,42010,1,8,0:0:0:0:
291,314,42197,1,0,0:0:0:0:
140,356,42385,6,0,L|220:336,1,70,2|0,0:0|0:0,0:0:0:0:
160,273,42760,1,8,0:0:0:0:
94,210,42947,1,0,0:0:0:0:
151,139,43135,1,0,0:0:0:0:
94,210,43322,1,0,0:0:0:0:
151,139,43510,1,8,0:0:0:0:
89,72,43697,2,0,L|74:117,1,35
153,7,43885,6,0,L|243:15,1,70,2|0,0:0|0:0,0:0:0:0:
315,18,44260,5,8,0:0:0:0:
304,108,44447,1,0,0:0:0:0:
293,198,44635,1,0,0:0:0:0:
304,108,44822,1,0,0:0:0:0:
214,97,45010,1,8,0:0:0:0:
304,108,45197,1,0,0:0:0:0:
243,194,45385,6,0,L|228:239,1,35
304,268,45573,2,0,L|381:236,1,70,2|0,0:0|0:0,0:0:0:0:
456,241,45947,5,0,1:3:0:0:
463,196,46041,1,0,1:3:0:0:
435,162,46135,1,0,1:3:0:0:
447,139,46228,1,0,1:3:0:0:
436,123,46322,1,0,1:3:0:0:
439,109,46416,1,0,1:3:0:0:
436,89,46510,5,0,3:1:0:0:
436,89,46603,1,0,3:1:0:0:
436,89,46697,1,0,3:1:0:0:
436,89,46790,1,0,3:1:0:0:
436,89,46885,1,8,0:0:0:0:
436,89,47260,5,8,0:0:0:0:
436,89,47635,5,8,0:0:0:0:
425,55,48010,6,0,L|436:89,1,35,8|0,0:0|0:0,0:0:0:0:
70,105,48385,6,0,L|59:57,1,35,0|0,3:3|0:0,0:0:0:0:
108,12,48572,1,0,3:3:0:0:
126,185,48760,6,0,L|137:137,1,35,0|0,3:3|0:0,0:0:0:0:
70,105,48947,1,0,3:3:0:0:
263,152,49135,6,0,L|176:173,1,70,8|0,0:2|0:0,0:0:0:0:
194,168,49416,2,0,L|126:184,1,70,8|0,0:2|0:0,0:0:0:0:
125,184,49697,1,8,0:2:0:0:
225,307,49885,6,0,L|177:320,1,35,0|0,3:3|0:0,0:0:0:0:
133,371,50072,1,0,1:3:0:0:
319,241,50260,6,0,L|271:254,1,35,0|0,3:3|0:0,0:0:0:0:
225,307,50447,1,0,0:0:0:0:
400,384,50635,6,0,L|443:67,1,315.000012016297,12|0,0:0|0:0,0:0:0:0:
360,61,51385,5,0,3:3:0:0:
360,61,51478,1,0,0:0:0:0:
360,61,51572,2,0,L|322:101,1,35,0|0,0:3|0:0,0:0:0:0:
326,165,51760,6,0,L|288:209,1,35,0|0,3:3|0:0,0:0:0:0:
335,86,51947,1,0,0:0:0:0:
251,270,52135,6,0,L|184:63,1,210,12|0,0:0|0:0,0:0:0:0:
186,70,52885,5,0,3:3:0:0:
186,70,52978,1,0,0:0:0:0:
186,70,53072,2,0,L|169:111,1,35
138,175,53260,6,0,L|121:216,1,35,0|0,3:3|0:0,0:0:0:0:
173,101,53447,1,0,0:0:0:0:
0,234,53635,6,0,B|267:274,1,262.5,12|0,0:0|0:0,0:0:0:0:
352,290,54385,6,0,L|348:245,1,43.75,0|0,3:3|0:0,0:0:0:0:
361,368,54572,1,0,3:3:0:0:
425,321,54760,6,0,L|466:335,1,43.75,0|0,3:3|0:0,0:0:0:0:
352,290,54947,1,0,3:3:0:0:
415,198,55135,6,0,L|434:113,1,87.5,8|0,0:2|0:0,0:0:0:0:
434,113,55416,2,0,L|453:28,1,87.5,8|0,0:2|0:0,0:0:0:0:
453,27,55697,1,8,0:2:0:0:
302,100,55885,6,0,L|348:91,1,43.75,0|0,3:3|0:0,0:0:0:0:
291,178,56072,1,0,3:3:0:0:
179,141,56260,6,0,L|222:150,1,43.75,0|0,3:3|0:0,0:0:0:0:
157,213,56447,1,0,3:3:0:0:
0,109,56635,6,0,L|266:29,1,262.5,12|0,0:0|0:0,0:0:0:0:
90,243,57385,5,0,3:3:0:0:
90,243,57478,1,0,0:0:0:0:
86,226,57572,2,0,L|76:174,1,43.75
187,310,57760,5,0,3:3:0:0:
192,287,57853,1,0,0:0:0:0:
192,287,57947,2,0,L|202:235,1,43.75
390,275,58135,6,0,L|159:131,1,262.5,12|0,0:0|0:0,0:0:0:0:
291,129,58885,6,0,L|234:95,1,43.75,0|0,3:3|0:0,0:0:0:0:
278,288,59072,2,0,L|335:322,1,43.75,0|0,3:3|0:0,0:0:0:0:
167,136,59260,2,0,L|479:330,1,350,12|0,0:0|0:0,0:0:0:0:
434,167,60385,5,0,0:0:0:0:
361,60,60572,5,2,0:0:0:0:
389,71,60666,5,2,0:0:0:0:
418,61,60760,6,0,P|438:51|461:50,1,43.75,10|0,0:0|0:0,0:0:0:0:
313,142,60947,5,0,0:0:0:0:
217,32,61135,1,0,0:0:0:0:
229,118,61322,2,0,L|217:32,1,87.5
217,32,61697,2,0,L|223:75,1,43.75
227,225,61885,6,0,L|128:128,1,131.25,8|0,0:0|0:0,0:0:0:0:
100,260,62260,2,0,L|233:222,1,131.25,8|0,0:0|0:0,0:0:0:0:
133,133,62635,6,0,B|100:260|100:260|232:223,1,262.5,12|0,0:0|0:0,0:0:0:0:
100,260,63385,5,8,0:0:0:0:
222,379,63572,1,8,0:0:0:0:
346,268,63760,2,0,L|166:319,1,175,12|0,0:0|0:0,0:0:0:0:
113,351,64885,5,2,0:0:0:0:
167,302,64978,1,2,0:0:0:0:
218,295,65072,1,2,0:0:0:0:
254,308,65166,1,2,0:0:0:0:
271,333,65260,1,2,0:0:0:0:
287,352,65353,1,2,0:0:0:0:
306,361,65447,1,2,0:0:0:0:
327,362,65541,1,2,0:0:0:0:
342,356,65635,2,0,L|399:94,1,262.5,14|0,0:0|0:0,0:0:0:0:
327,123,66385,5,2,0:0:0:0:
362,111,66478,1,2,0:0:0:0:
397,99,66572,1,2,0:0:0:0:
250,28,66760,2,0,L|347:42,1,87.5,8|0,0:0|0:0,0:0:0:0:
250,28,67135,5,0,0:0:0:0:
336,40,67322,2,0,L|249:27,1,87.5
336,40,67697,1,0,0:0:0:0:
217,154,67885,6,0,L|251:19,1,131.25,8|0,0:0|0:0,0:0:0:0:
249,26,68260,2,0,L|215:161,1,131.25,8|0,0:0|0:0,0:0:0:0:
162,289,68635,6,0,L|382:142,1,262.5,12|0,0:0|0:0,0:0:0:0:
348,293,69385,5,8,0:0:0:0:
348,293,69572,2,0,L|298:289,1,43.75,8|0,0:0|0:0,0:0:0:0:
380,143,69760,6,0,L|402:232,1,87.5,12|0,0:0|0:0,0:0:0:0:
401,228,70041,1,2,0:0:0:0:
439,43,70322,5,2,0:0:0:0:
292,87,70603,5,2,0:0:0:0:
292,87,70697,1,2,0:0:0:0:
160,170,70885,5,8,0:0:0:0:
160,170,71072,2,0,L|185:222,1,43.75,8|0,0:0|0:0,0:0:0:0:
43,78,71260,2,0,L|222:103,1,175,12|0,0:0|3:0,0:0:0:0:
314,104,71822,5,0,1:3:0:0:
358,130,71916,1,0,1:3:0:0:
361,173,72010,5,0,1:3:0:0:
399,189,72103,1,0,1:3:0:0:
401,218,72197,5,0,1:3:0:0:
418,235,72291,1,0,1:3:0:0:
416,253,72385,5,0,1:3:0:0:
450,340,75385,5,0,1:3:0:0:
357,314,75572,5,0,1:3:0:0:
263,289,75760,5,0,1:3:0:0:
169,264,75947,5,0,1:3:0:0:
75,239,76135,5,0,1:3:0:0:
153,184,76322,5,0,1:3:0:0:
153,184,76416,1,0,1:3:0:0:
231,129,76603,5,0,1:3:0:0:
231,129,76697,1,0,1:3:0:0:
464,75,76885,6,0,L|325:47,1,131.25,8|0,0:0|0:0,0:0:0:0:
335,49,77260,2,0,L|464:75,1,131.25,8|0,0:0|0:0,0:0:0:0:
335,49,77635,2,0,L|464:75,1,131.25,8|0,0:0|0:0,0:0:0:0:
380,135,78010,5,8,0:0:0:0:
474,322,78385,6,0,L|339:301,1,131.25
268,288,78760,1,8,0:0:0:0:
281,201,78947,1,2,0:0:0:0:
268,288,79135,1,0,0:0:0:0:
255,375,79322,1,2,0:0:0:0:
29,303,79510,6,0,L|163:332,1,131.25,12|0,0:0|0:0,0:0:0:0:
169,203,79885,5,0,1:3:0:0:
122,215,79978,1,0,1:3:0:0:
75,227,80072,1,2,1:3:0:0:
75,203,80260,5,0,1:3:0:0:
122,215,80353,1,0,1:3:0:0:
169,227,80447,1,2,1:3:0:0:
218,45,80635,5,12,0:0:0:0:
251,211,80822,5,2,0:0:0:0:
406,199,81010,1,2,0:0:0:0:
326,166,81197,1,2,0:0:0:0:
456,382,81385,5,8,1:3:0:0:
485,364,81478,1,0,1:3:0:0:
473,336,81572,1,8,1:3:0:0:
490,317,81665,1,0,1:3:0:0:
508,290,81760,6,0,L|160:343,1,350,12|0,0:0|0:0,0:0:0:0:
95,302,82885,5,0,1:3:0:0:
88,254,82978,1,0,1:3:0:0:
82,206,83072,1,0,1:3:0:0:
82,206,83260,5,0,1:3:0:0:
89,254,83353,1,0,1:3:0:0:
95,302,83447,2,0,L|103:353,1,43.75,0|0,1:3|0:0,0:0:0:0:
270,226,83635,6,0,L|183:239,1,87.5,6|0,0:0|0:0,0:0:0:0:
93,60,84010,5,2,0:0:0:0:
82,206,84197,1,2,0:0:0:0:
276,79,84385,5,2,1:3:0:0:
232,97,84478,1,0,1:3:0:0:
187,116,84572,1,0,1:3:0:0:
276,80,84760,5,2,1:3:0:0:
270,129,84854,1,0,1:3:0:0:
263,175,84947,1,0,1:3:0:0:
187,116,85135,5,8,0:0:0:0:
226,146,85229,1,0,1:3:0:0:
263,175,85322,1,2,1:3:0:0:
466,249,85510,5,12,0:0:0:0:
354,138,85697,1,2,0:0:0:0:
342,328,85885,5,0,1:3:0:0:
334,280,85978,1,0,1:3:0:0:
326,232,86072,1,0,1:3:0:0:
286,288,86260,5,0,1:3:0:0:
334,280,86353,1,0,1:3:0:0:
382,272,86447,1,0,1:3:0:0:
151,367,86635,6,0,L|108:180,1,175,12|2,0:0|0:0,0:0:0:0:
111,196,87197,5,2,0:0:0:0:
211,110,87385,1,10,0:0:0:0:
143,42,87572,1,0,0:0:0:0:
109,47,87666,1,0,0:0:0:0:
76,54,87760,6,0,L|283:24,1,175,12|0,0:0|0:0,0:0:0:0:
249,28,88322,2,0,L|279:74,1,43.75,2|0,0:0|0:0,0:0:0:0:
337,28,88697,2,0,L|366:73,1,43.75,2|0,0:0|0:0,0:0:0:0:
492,179,88885,5,0,0:0:0:0:
454,163,88978,1,0,0:0:0:0:
419,186,89072,1,0,0:0:0:0:
376,167,89166,1,0,0:0:0:0:
340,187,89260,5,0,1:3:0:0:
343,206,89353,1,0,1:3:0:0:
347,226,89447,2,0,L|361:277,1,43.75
220,330,89635,6,0,L|487:378,1,262.5,12|0,0:0|0:0,0:0:0:0:
411,232,90385,5,0,0:0:0:0:
220,330,90572,1,0,0:0:0:0:
215,230,90760,5,8,1:3:0:0:
210,182,90853,1,0,1:3:0:0:
205,133,90947,1,2,1:3:0:0:
215,230,91135,5,0,1:3:0:0:
210,182,91228,1,0,1:3:0:0:
205,133,91322,1,2,1:3:0:0:
33,81,91510,6,0,L|131:98,1,87.5,12|2,0:0|0:0,0:0:0:0:
136,102,91791,2,0,L|124:152,1,43.75
95,261,92072,5,0,0:0:0:0:
173,380,92260,1,8,0:0:0:0:
356,311,92447,1,0,0:0:0:0:
352,294,92541,1,0,0:0:0:0:
317,299,92635,5,12,0:0:0:0:
466,342,92822,5,2,0:0:0:0:
415,236,93010,5,2,0:0:0:0:
462,82,93197,5,2,0:0:0:0:
335,156,93385,5,10,1:3:0:0:
287,159,93478,1,0,1:3:0:0:
239,162,93572,1,0,1:3:0:0:
239,162,93760,5,0,1:3:0:0:
242,210,93854,1,0,1:3:0:0:
245,258,93947,1,2,1:3:0:0:
462,82,94135,6,0,L|271:22,1,175,12|0,0:0|0:0,0:0:0:0:
193,28,94885,2,0,L|208:78,1,43.75,2|0,0:0|0:0,0:0:0:0:
95,165,95072,1,2,0:0:0:0:
110,119,95166,1,0,0:0:0:0:
122,72,95260,6,0,L|139:127,1,43.75,12|0,0:0|0:0,0:0:0:0:
220,167,95447,2,0,L|48:215,1,175
217,371,96010,5,2,0:0:0:0:
163,313,96197,1,2,0:0:0:0:
307,280,96385,1,10,0:0:0:0:
306,323,96478,1,0,0:0:0:0:
305,366,96572,2,0,L|352:329,1,43.75
391,277,96760,6,0,L|446:303,1,43.75,12|0,0:0|0:0,0:0:0:0:
453,373,96947,2,0,L|482:187,1,175,8|0,0:0|0:0,0:0:0:0:
396,139,97885,5,10,0:0:0:0:
178,104,98072,5,0,0:0:0:0:
201,67,98166,1,0,0:0:0:0:
225,30,98260,2,0,L|237:80,1,43.75,12|0,0:0|0:0,0:0:0:0:
170,219,98447,2,0,L|373:54,1,262.5,8|0,0:0|0:0,0:0:0:0:
441,319,99385,5,8,1:3:0:0:
393,326,99478,1,0,1:3:0:0:
345,333,99572,1,0,1:3:0:0:
345,333,99760,5,8,1:3:0:0:
338,285,99853,1,0,1:3:0:0:
331,237,99947,1,0,1:3:0:0:
331,237,100135,5,8,1:3:0:0:
379,230,100228,1,0,1:3:0:0:
427,223,100322,2,0,L|417:161,1,43.75,0|0,1:3|0:0,0:0:0:0:
402,104,100510,2,0,L|301:151,1,87.5,12|0,0:0|0:0,0:0:0:0:
181,194,100885,5,0,3:1:0:0:
153,166,100978,1,0,3:1:0:0:
161,127,101072,1,0,3:1:0:0:
125,85,101166,1,0,3:1:0:0:
130,45,101260,5,8,3:1:0:0:
169,38,101353,1,0,3:1:0:0:
205,70,101447,1,0,3:1:0:0:
244,59,101541,1,0,3:1:0:0:
282,80,101635,2,0,L|19:139,1,262.5,12|0,3:1|0:0,0:0:0:0:
247,370,102385,6,0,B|291:153|291:153|453:292|453:292|329:339|329:339|386:57|386:57|280:80,1,962.5,12|0,2:1|0:0,0:0:0:0:
282,80,104635,1,0,0:0:0:0:
193,39,105197,6,0,L|219:2,1,43.75
193,39,105385,5,0,0:0:0:0:
136,116,105572,1,0,0:0:0:0:
136,116,105760,1,8,0:0:0:0:
79,193,105947,1,0,0:0:0:0:
136,116,106135,5,0,0:0:0:0:
79,193,106322,1,0,0:0:0:0:
136,116,106510,1,8,0:0:0:0:
193,39,106697,1,0,0:0:0:0:
136,116,106885,5,0,0:0:0:0:
79,193,107072,1,0,0:0:0:0:
136,116,107260,1,8,0:0:0:0:
193,39,107447,1,0,0:0:0:0:
213,173,107635,5,0,0:0:0:0:
444,280,108197,6,0,L|424:332,1,43.75
444,280,108385,5,0,0:0:0:0:
405,201,108572,1,0,0:0:0:0:
456,109,108760,1,8,0:0:0:0:
379,13,108947,1,0,0:0:0:0:
456,109,109135,5,0,0:0:0:0:
379,13,109322,1,0,0:0:0:0:
456,109,109510,1,8,0:0:0:0:
405,201,109697,1,0,0:0:0:0:
456,109,109885,5,0,0:0:0:0:
405,201,110072,1,0,0:0:0:0:
444,280,110260,1,8,0:0:0:0:
405,201,110447,1,0,0:0:0:0:
444,280,110635,5,0,0:0:0:0:
276,257,111197,6,0,L|313:222,1,43.75
276,257,111385,5,0,0:0:0:0:
161,218,111572,1,0,0:0:0:0:
252,137,111760,1,8,0:0:0:0:
161,218,111947,1,0,0:0:0:0:
276,257,112135,5,0,0:0:0:0:
161,218,112322,1,0,0:0:0:0:
276,257,112510,1,8,0:0:0:0:
252,137,112697,1,0,0:0:0:0:
276,257,112885,5,0,0:0:0:0:
252,137,113072,1,0,0:0:0:0:
161,218,113260,1,8,0:0:0:0:
276,257,113447,1,0,0:0:0:0:
231,203,113635,5,0,0:0:0:0:
348,152,114010,5,8,0:0:0:0:
424,89,114197,5,0,0:0:0:0:
440,59,114291,1,0,0:0:0:0:
