osu file format v14

[General]
AudioFilename: audio.mp3
AudioLeadIn: 0
PreviewTime: 399
Countdown: 0
SampleSet: Soft
StackLeniency: 0.2
Mode: 0
LetterboxInBreaks: 0
WidescreenStoryboard: 0

[Editor]
Bookmarks: 32034
DistanceSpacing: 0.6
BeatDivisor: 4
GridSize: 32
TimelineZoom: 2.1

[Metadata]
Title:Hatrid mun sigra
TitleUnicode:HatriĆ° mun sigra
Artist:Hatari
ArtistUnicode:Hatari
Creator:bite you death
Version:nice
Source:
Tags:byd
BeatmapID:1938747
BeatmapSetID:928171

[Difficulty]
HPDrainRate:6
CircleSize:3.8
OverallDifficulty:8
ApproachRate:9
SliderMultiplier:2.4
SliderTickRate:1

[Events]
//Background and Video events
//Break Periods
2,9326,16164
2,30052,31434
//Storyboard Layer 0 (Background)
//Storyboard Layer 1 (Fail)
//Storyboard Layer 2 (Pass)
//Storyboard Layer 3 (Foreground)
//Storyboard Sound Samples

[TimingPoints]
399,545.454545454546,4,2,2,50,1,0
4216,-62.5,4,2,2,35,0,0
4354,-62.5,4,2,2,5,0,0
5307,-62.5,4,2,2,35,0,0
5443,-62.5,4,2,2,5,0,0
6398,-62.5,4,2,2,35,0,0
6534,-62.5,4,2,2,5,0,0
7489,545.454545454546,4,2,2,35,1,0
7489,-52.6315789473684,4,2,2,35,0,0
8034,545.454545454546,4,2,2,35,1,0
8034,-100,4,2,2,50,0,0
16761,-52.6315789473684,4,2,2,50,0,0
18943,-100,4,2,2,50,0,0
21124,-52.6315789473684,4,2,2,50,0,0
23306,-100,4,2,2,50,0,0
25488,-52.6315789473684,4,2,2,50,0,0
27670,-100,4,2,2,50,0,0
29306,-40,4,2,2,50,0,0
32034,-52.6315789473684,4,2,2,50,0,0
34215,-100,4,2,2,50,0,0
36397,-52.6315789473684,4,2,2,50,0,0
38579,-100,4,2,2,50,0,0
40761,-52.6315789473684,4,2,2,50,0,0
42943,-100,4,2,2,50,0,0
45124,-52.6315789473684,4,2,2,50,0,0
48397,-100,4,2,2,50,0,0
49488,-100,4,2,2,50,0,1

[Colours]
Combo1 : 255,102,102
Combo2 : 97,97,97
Combo3 : 191,0,0
Combo4 : 183,183,183

[HitObjects]
185,118,4217,6,0,B|196:113|196:113|199:109|199:109|203:110|203:110|221:105|221:105|240:107|249:114|249:114|260:106|270:110|295:105,1,96,8|0,0:0|0:0,0:0:0:0:
400,218,5308,6,0,B|379:218|364:206|364:206|354:206|343:210|336:214|336:214|314:216|290:205,1,96,8|0,0:0|0:0,0:0:0:0:
146,274,6399,38,0,B|164:276|164:276|177:284|177:284|205:277|221:282|221:282|235:294|258:298,1,96,8|0,0:0|0:0,0:0:0:0:
203,124,7490,5,0,0:0:0:0:
146,274,7626,2,0,B|114:243|124:201|124:201|109:196|109:196|112:175|89:165|89:165|128:117|77:39,1,227.999993911743,0|8,3:0|0:0,0:0:0:0:
42,17,8035,37,4,3:2:0:0:
119,72,8172,1,0,0:0:0:0:
48,4,8308,1,0,0:0:0:0:
132,64,8444,1,0,0:0:0:0:
239,28,8580,5,8,0:0:0:0:
213,119,8717,1,0,0:0:0:0:
253,29,8853,1,0,0:0:0:0:
225,128,8990,2,0,L|322:116,1,60
126,128,16764,38,0,B|140:120|140:120|143:113|143:113|152:114|152:114|196:111|243:141|211:198|299:211|299:211|369:182,1,227.999993911743,6|0,3:2|0:0,0:0:0:0:
436,158,17173,1,2,0:0:0:0:
337,61,17309,2,0,B|318:46|292:58|292:58|309:96|309:96|301:146,1,113.999996955872,8|0,1:2|0:0,0:0:0:0:
426,335,17582,2,0,B|443:310|443:310|442:257|387:238,1,113.999996955872,2|0,0:0|0:0,0:0:0:0:
209,342,17855,6,0,B|229:365|258:367|258:367|303:333|330:353|330:353|347:344|347:344|357:351|357:351|376:347|376:347|402:379|451:366,1,227.999993911743,2|0,3:2|0:0,0:0:0:0:
225,218,18264,2,0,B|198:207|180:218|180:218|169:238|146:254|146:254|107:237|93:224,2,113.999996955872,2|8|0,0:0|1:2|0:0,0:0:0:0:
318,107,18673,2,0,B|336:126|336:126|268:299,1,113.999996955872
202,339,18946,37,0,3:0:0:0:
144,275,19082,1,0,0:0:0:0:
227,258,19218,1,0,0:0:0:0:
122,352,19355,1,0,0:0:0:0:
95,178,19488,5,8,1:2:0:0:
144,275,19624,1,0,0:0:0:0:
89,168,19761,1,0,0:0:0:0:
227,258,19897,2,0,P|279:254|325:219,1,60,0|0,0:0|3:0,0:0:0:0:
382,140,20170,37,0,0:0:0:0:
267,176,20306,1,0,0:0:0:0:
393,149,20443,1,0,0:0:0:0:
266,82,20579,5,8,1:2:0:0:
291,158,20715,1,0,0:0:0:0:
319,22,20852,1,0,0:0:0:0:
187,66,20988,1,0,0:0:0:0:
201,217,21124,38,0,B|219:207|219:207|237:187|237:187|253:181|280:183|280:183|301:229|318:241|318:241|321:248|321:248|327:245|327:245|358:251|422:205,1,227.999993911743,6|0,3:2|0:0,0:0:0:0:
467,134,21534,1,2,0:0:0:0:
458,275,21670,2,0,B|415:247|388:287|377:292|339:276,1,113.999996955872,8|0,1:2|0:0,0:0:0:0:
171,310,21943,2,0,B|172:298|187:283|187:283|208:309|225:346|274:339,1,113.999996955872,2|0,0:0|0:0,0:0:0:0:
244,164,22215,6,0,B|223:150|223:150|205:158|205:158|178:146|148:172|148:172|130:213|89:221|89:221|49:223|17:307,1,227.999993911743,2|0,3:2|0:0,0:0:0:0:
199,257,22624,1,2,0:0:0:0:
81,128,22761,2,0,B|76:142|76:142|47:141|35:124|-5:111|-5:111|8:106,1,113.999996955872,8|0,1:2|0:0,0:0:0:0:
136,24,23034,2,0,B|189:14|189:14|211:43|259:48,1,113.999996955872,2|0,0:0|0:0,0:0:0:0:
386,11,23306,37,0,3:0:0:0:
317,59,23443,1,0,0:0:0:0:
338,136,23579,1,0,0:0:0:0:
410,90,23715,1,0,0:0:0:0:
249,135,23852,5,8,1:2:0:0:
299,212,23988,1,0,0:0:0:0:
338,136,24124,1,0,0:0:0:0:
213,213,24261,2,0,P|226:270|259:303,1,60,0|0,0:0|3:0,0:0:0:0:
326,343,24534,37,0,0:0:0:0:
201,374,24670,1,0,0:0:0:0:
346,323,24806,1,0,0:0:0:0:
134,259,24943,5,8,1:2:0:0:
240,297,25079,1,0,0:0:0:0:
159,215,25215,1,0,0:0:0:0:
132,338,25352,1,0,0:0:0:0:
86,109,25488,38,0,B|61:131|61:131|33:128|33:128|15:142|15:142|-17:195|30:240|30:240|74:224|125:241,1,227.999993911743,6|0,3:2|0:0,0:0:0:0:
176,168,25897,1,2,0:0:0:0:
104,295,26034,2,0,B|113:277|88:220|105:162,1,113.999996955872,8|0,1:2|0:0,0:0:0:0:
200,58,26306,2,0,B|222:68|222:68|216:110|200:138|200:138|214:169|224:175,1,113.999996955872,2|0,0:0|0:0,0:0:0:0:
338,286,26579,6,0,B|323:285|323:285|309:292|309:292|271:271|227:315|227:315|201:312|201:312|174:291|174:291|119:315,1,227.999993911743,2|0,3:2|0:0,0:0:0:0:
49,364,26988,1,2,0:0:0:0:
164,164,27124,2,0,B|187:143|187:143|213:165|211:191|191:213|211:244|211:244,1,113.999996955872,8|0,1:2|0:0,0:0:0:0:
366,357,27397,2,0,B|404:339|387:283|349:278|349:278|361:254,1,113.999996955872,2|0,0:0|0:0,0:0:0:0:
383,134,27670,37,0,3:0:0:0:
444,193,27806,1,0,0:0:0:0:
362,243,27943,1,0,0:0:0:0:
319,182,28079,1,0,0:0:0:0:
451,69,28215,5,8,1:2:0:0:
365,112,28352,1,0,0:0:0:0:
300,47,28488,1,0,0:0:0:0:
223,114,28624,2,0,L|128:92,1,60,0|0,0:0|3:0,0:0:0:0:
62,27,28897,1,0,0:0:0:0:
58,158,29034,1,0,0:0:0:0:
102,17,29170,37,8,0:0:0:0:
134,31,29238,1,8,0:0:0:0:
151,45,29306,2,0,B|149:93|149:93|131:118|131:118|135:150|135:150|113:177|113:177|90:146,1,150
358,348,29579,6,0,B|354:325|354:325|329:311|329:311|363:254|340:218|306:195|278:231,1,150,8|0,0:0|0:0,0:0:0:0:
0,384,29852,37,2,3:2:0:0:
60,47,32034,54,0,B|64:52|76:57|76:57|85:57|85:57|84:64|84:64|85:77|98:84|98:84|71:122|71:122|80:127|85:151|85:151|73:201|115:238,1,227.999993911743,6|0,3:2|0:0,0:0:0:0:
207,352,32443,2,0,B|199:332|199:332|204:311|204:311|187:296|182:271|182:271|211:246|206:220|206:220|180:185|180:185|186:134,1,227.999993911743,2|0,0:0|0:0,0:0:0:0:
302,27,32852,2,0,B|285:55|255:74|255:74|218:20,1,113.999996955872,2|0,0:0|0:0,0:0:0:0:
60,161,33124,6,0,B|98:189|98:189|125:165|157:153|157:153|175:164|175:164|192:151|192:151|202:155|216:165|216:165|237:151|237:151|252:165|276:175,1,227.999993911743,2|0,3:2|0:0,0:0:0:0:
456,85,33534,2,0,B|451:69|451:69|438:62|438:62|432:36|385:33|385:33|346:85|375:123|375:123|357:134|328:182,1,227.999993911743,2|0,0:0|0:0,0:0:0:0:
279,261,33943,2,0,B|266:232|275:205|275:205|260:167|260:167|273:135,1,113.999996955872
453,259,34215,37,0,3:0:0:0:
430,344,34352,1,0,0:0:0:0:
346,324,34488,1,0,0:0:0:0:
364,237,34624,1,0,0:0:0:0:
258,358,34761,5,8,1:2:0:0:
226,269,34897,1,0,0:0:0:0:
159,364,35034,1,0,0:0:0:0:
140,236,35170,2,0,P|150:203|161:147,1,60,0|0,0:0|3:0,0:0:0:0:
110,64,35443,37,0,0:0:0:0:
174,146,35579,1,0,0:0:0:0:
82,72,35715,1,0,0:0:0:0:
237,0,35852,5,8,1:2:0:0:
186,117,35988,1,0,0:0:0:0:
355,46,36124,1,0,0:2:0:0:
304,163,36260,1,0,0:0:0:0:
376,26,36397,38,0,B|396:45|372:120|426:154,1,113.999996955872,6|0,3:2|0:0,0:0:0:0:
271,278,36670,2,0,B|277:245|277:245|296:228|296:228|275:195|301:122,1,113.999996955872
480,282,36943,2,0,B|459:290|459:290|440:275|440:275|458:331|440:378|404:383|375:380|375:380|369:351|394:326,1,227.999993911743,8|0,1:2|0:0,0:0:0:0:
237,215,37352,6,0,B|256:207|269:198|269:198|261:192|261:192|270:197|270:197|300:193|339:207|328:265|275:317|207:307|151:274|137:255,1,227.999993911743,2|0,0:0|0:0,0:0:0:0:
48,160,37761,2,0,B|58:150|58:150|102:149|179:178,1,113.999996955872,2|0,0:0|0:0,0:0:0:0:
316,52,38034,1,8,1:2:0:0:
231,84,38170,1,0,0:0:0:0:
297,148,38306,2,0,B|326:139|326:139|336:144|354:145|354:145|376:126|414:122,1,113.999996955872
500,42,38579,37,0,3:0:0:0:
472,165,38715,1,0,0:0:0:0:
481,26,38852,1,0,0:0:0:0:
490,182,38988,1,0,0:0:0:0:
355,37,39124,5,8,1:2:0:0:
428,94,39261,1,0,0:0:0:0:
345,8,39397,1,0,0:0:0:0:
263,99,39534,2,0,L|179:78,1,60,0|0,0:0|3:0,0:0:0:0:
29,63,39806,5,0,0:0:0:0:
129,16,39943,1,0,0:0:0:0:
112,125,40079,1,0,0:0:0:0:
23,154,40215,5,8,1:2:0:0:
150,203,40352,1,0,0:0:0:0:
194,78,40488,1,0,0:0:0:0:
81,38,40624,1,0,0:0:0:0:
161,216,40761,6,0,B|191:234|212:228|212:228|227:237|227:237|247:227|276:236,1,113.999996955872,6|0,3:2|0:0,0:0:0:0:
424,137,41034,2,0,B|406:138|406:138|385:135|385:135|368:149|368:149|367:149|338:126|298:139,1,113.999996955872,2|0,0:0|0:0,0:0:0:0:
331,343,41306,2,0,B|328:324|328:324|341:305|341:305|335:255|335:255|349:217,1,113.999996955872,10|0,1:2|0:0,0:0:0:0:
250,69,41579,2,0,B|250:92|250:92|226:102|224:146|208:184,1,113.999996955872,2|0,0:0|0:0,0:0:0:0:
46,315,41852,6,0,B|78:273|78:273|110:299|110:299|139:292,1,113.999996955872,2|0,3:2|0:0,0:0:0:0:
330,207,42124,2,0,B|297:226|286:223|261:181|210:174,1,113.999996955872,2|0,0:0|0:0,0:0:0:0:
101,93,42397,1,8,1:2:0:0:
132,199,42534,1,0,0:0:0:0:
121,73,42670,2,0,B|159:66|177:111|214:112|266:82,1,113.999996955872
337,34,42943,37,0,3:0:0:0:
306,121,43079,1,0,0:0:0:0:
330,18,43215,1,0,0:0:0:0:
315,135,43352,1,0,0:0:0:0:
462,37,43488,5,8,1:2:0:0:
391,91,43624,1,0,0:0:0:0:
442,166,43761,1,0,0:0:0:0:
512,117,43897,2,0,P|473:106|443:110,1,60,0|0,0:0|3:0,0:0:0:0:
351,242,44170,37,0,0:0:0:0:
455,272,44306,1,0,0:0:0:0:
380,329,44443,1,0,0:0:0:0:
335,164,44579,5,8,1:2:0:0:
265,257,44715,1,0,0:0:0:0:
229,101,44852,1,0,0:2:0:0:
159,194,44988,1,0,0:0:0:0:
49,34,45124,38,0,B|46:19|53:8|53:8|88:8|144:46|199:36,1,113.999996955872,6|0,3:2|0:0,0:0:0:0:
315,53,45397,2,0,B|281:45|281:45|257:26|257:26|228:72|228:72|178:34|110:59,1,227.999993911743,2|8,0:0|1:2,0:0:0:0:
37,136,45943,1,0,0:0:0:0:
165,252,46215,6,0,B|156:233|156:233|173:206|173:206|164:184|164:184|170:161|173:121,1,113.999996955872,2|0,3:2|0:0,0:0:0:0:
73,16,46488,2,0,B|61:25|41:34|41:34|58:94|36:137,1,113.999996955872,2|0,0:0|0:0,0:0:0:0:
185,63,46761,1,8,1:2:0:0:
104,313,47306,5,0,3:0:0:0:
191,345,47852,1,0,3:0:0:0:
274,298,48397,6,0,P|285:269|179:185,2,180,2|2|2,3:2|0:0|0:0,0:0:0:0:
321,373,49488,38,0,B|392:377|361:319|479:344,1,120,6|0,3:2|0:0,0:0:0:0:
510,381,49897,1,0,0:0:0:0:
497,371,50034,2,0,P|485:337|476:280,1,60,8|0,0:0|0:0,0:0:0:0:
417,253,50306,2,0,P|428:219|438:162,1,60
475,95,50579,6,0,P|412:92|380:186,1,120,0|0,3:0|0:0,0:0:0:0:
332,201,50988,1,0,0:0:0:0:
317,192,51124,2,0,P|284:185|231:178,1,60,8|0,0:0|0:0,0:0:0:0:
203,99,51397,2,0,P|235:92|289:85,1,60
161,201,51670,38,0,P|98:173|105:113,1,120,0|0,3:0|0:0,0:0:0:0:
143,46,52079,1,0,0:0:0:0:
129,53,52215,2,0,P|99:40|51:38,1,60,8|0,0:0|0:0,0:0:0:0:
208,120,52488,2,0,P|237:115|265:103,1,60
361,10,52761,6,0,P|347:37|337:77,1,60,2|0,3:2|0:0,0:0:0:0:
243,48,53034,2,0,P|256:75|267:115,1,60,2|0,0:0|0:0,0:0:0:0:
361,86,53306,2,0,P|347:113|337:153,1,60,10|0,0:0|0:0,0:0:0:0:
251,27,53579,1,2,0:0:0:0:
323,194,53852,38,0,P|352:184|393:178,1,60,0|0,3:0|0:0,0:0:0:0:
488,304,54124,2,0,B|418:307|454:255|352:265,2,120,2|8|0,0:0|0:0|0:0,0:0:0:0:
381,355,54806,1,0,0:0:0:0:
370,348,54943,6,0,P|354:318|348:275,1,60,0|0,3:0|0:0,0:0:0:0:
266,287,55215,2,0,P|275:254|302:219,1,60
290,148,55488,2,0,P|261:155|235:170,1,60,8|0,0:0|0:0,0:0:0:0:
349,88,55762,2,0,P|323:72|295:65,1,60
