osu file format v14

[General]
AudioFilename: audio.mp3
AudioLeadIn: 0
PreviewTime: 62885
Countdown: 0
SampleSet: Soft
StackLeniency: 0.7
Mode: 0
LetterboxInBreaks: 0
WidescreenStoryboard: 0

[Editor]
DistanceSpacing: 0.9
BeatDivisor: 4
GridSize: 4
TimelineZoom: 1.5

[Metadata]
Title:Mission! Health First!
TitleUnicode:Mission! Health First!
Artist:Hataraku Saibou Opening
ArtistUnicode:Hataraku Saibou Opening
Creator:Sneaky_Pilot
Version:Dentine
Source:
Tags:
BeatmapID:1759240
BeatmapSetID:840463

[Difficulty]
HPDrainRate:7
CircleSize:3.5
OverallDifficulty:7
ApproachRate:9
SliderMultiplier:1.2
SliderTickRate:2

[Events]
//Background and Video events
0,0,"platelets.JPG",0,0
//Break Periods
//Storyboard Layer 0 (Background)
//Storyboard Layer 1 (Fail)
//Storyboard Layer 2 (Pass)
//Storyboard Layer 3 (Foreground)
//Storyboard Sound Samples

[TimingPoints]
305,322.58064516129,4,2,0,50,1,0
1111,-66.6666666666667,4,2,0,50,0,0
19901,-50,4,2,0,50,0,0
21514,-100,4,2,0,50,0,0
26434,-66.6666666666667,4,2,0,50,0,0
52482,-133.333333333333,4,2,0,50,0,0
62401,-66.6666666666667,4,2,0,50,0,0
62885,-66.6666666666667,4,2,0,50,0,1

[HitObjects]
197,241,305,6,0,P|195:150|215:119,1,120
405,69,788,1,0,0:0:0:0:
197,241,950,1,0,0:0:0:0:
362,290,1111,2,0,P|405:226|377:128,1,180.000006866455
238,194,1595,1,0,0:0:0:0:
138,93,1756,2,0,P|95:157|108:259,1,180.000006866455
238,194,2240,1,0,0:0:0:0:
217,316,2401,2,0,P|284:329|360:256,1,180.000006866455
238,194,2885,1,0,0:0:0:0:
145,316,3046,6,0,L|100:221,1,90.0000034332276
363,75,3369,1,0,0:0:0:0:
333,289,3530,1,0,0:0:0:0:
124,103,3692,1,0,0:0:0:0:
250,178,3853,2,0,L|154:266,1,90.0000034332276
186,281,4175,1,0,0:0:0:0:
217,289,4337,2,0,L|322:294,1,90.0000034332276
390,82,4659,5,0,0:0:0:0:
79,240,4821,1,0,0:0:0:0:
333,289,4982,1,0,0:0:0:0:
382,154,5143,2,0,P|367:80|266:51,1,180.000006866455
293,157,5627,2,0,P|234:220|223:266,1,135.000005149841
102,96,6030,1,0,0:0:0:0:
338,289,6192,1,0,0:0:0:0:
140,302,6353,1,0,0:0:0:0:
190,184,6514,2,0,L|326:131,1,135.000005149841
346,309,6917,5,0,0:0:0:0:
298,211,7079,2,0,L|225:90,1,135.000005149841
177,238,7482,2,0,L|68:329,1,135.000005149841
276,161,7885,1,0,0:0:0:0:
122,95,8046,2,0,L|219:79,1,90.0000034332277
378,82,8369,5,0,0:0:0:0:
318,255,8530,2,0,L|200:294,1,90.0000034332277
143,302,8853,5,0,0:0:0:0:
307,151,9014,2,0,P|355:150|374:192,1,90.0000034332277
124,135,9337,5,0,0:0:0:0:
256,58,9417,1,0,0:0:0:0:
370,160,9498,1,0,0:0:0:0:
307,300,9579,1,0,0:0:0:0:
155,284,9659,1,0,0:0:0:0:
256,192,9982,12,0,11192,0:0:0:0:
282,114,11434,6,0,L|359:204,2,90.0000034332277
129,253,11917,2,0,L|242:288,2,90.0000034332277
402,83,12401,5,0,0:0:0:0:
281,268,12563,1,0,0:0:0:0:
66,245,12724,1,0,0:0:0:0:
402,83,12885,5,0,0:0:0:0:
281,268,13046,1,0,0:0:0:0:
66,245,13208,1,0,0:0:0:0:
184,176,13369,6,0,P|234:148|276:136,1,90.0000034332277
416,105,13692,1,0,0:0:0:0:
230,311,13853,1,0,0:0:0:0:
201,74,14014,1,0,0:0:0:0:
279,176,14175,1,0,0:0:0:0:
310,208,14255,1,0,0:0:0:0:
342,240,14336,1,0,0:0:0:0:
373,272,14416,1,0,0:0:0:0:
102,298,14579,5,0,0:0:0:0:
90,94,14740,1,0,0:0:0:0:
191,173,14901,2,0,L|328:121,1,135.000005149841
304,302,15304,1,0,0:0:0:0:
101,120,15466,1,0,0:0:0:0:
370,77,15627,1,0,0:0:0:0:
244,197,15788,2,0,L|152:269,1,90.0000034332277
394,213,16112,5,0,0:0:0:0:
394,213,16192,1,0,0:0:0:0:
394,213,16273,1,0,0:0:0:0:
162,102,16434,2,0,P|102:178|108:261,1,180.000006866455
211,195,16917,1,0,0:0:0:0:
332,71,17079,2,0,L|375:231,1,135.000005149841
152,159,17482,5,0,0:0:0:0:
396,61,17643,2,0,L|337:117,1,45.0000017166138
187,240,17885,5,0,0:0:0:0:
396,61,18046,2,0,L|337:117,1,45.0000017166138
187,240,18288,5,0,0:0:0:0:
435,293,18450,2,0,L|296:182,1,135.000005149841
112,104,18853,2,0,L|92:205,1,90.0000034332277
141,312,19175,1,0,0:0:0:0:
261,70,19336,1,0,0:0:0:0:
423,46,19498,2,0,L|427:209,1,135.000005149841
80,295,19901,2,0,L|223:167,1,180
400,86,20304,5,0,0:0:0:0:
141,303,20466,1,0,0:0:0:0:
418,279,20627,1,0,0:0:0:0:
120,91,20788,1,0,0:0:0:0:
361,190,20950,2,0,P|293:262|206:264,1,180
255,140,21353,1,0,0:0:0:0:
72,296,21514,2,0,P|102:197|226:132,1,240
410,276,22321,5,0,0:0:0:0:
73,98,22483,1,0,0:0:0:0:
191,301,22644,1,0,0:0:0:0:
418,61,22805,1,0,0:0:0:0:
98,208,22966,1,0,0:0:0:0:
243,64,23127,1,0,0:0:0:0:
285,295,23288,1,0,0:0:0:0:
198,171,23450,2,0,P|151:98|113:73,1,120
399,132,23934,2,0,P|373:210|216:303,1,270
105,60,24821,5,0,0:0:0:0:
392,248,24982,1,0,0:0:0:0:
277,63,25143,1,0,0:0:0:0:
133,323,25304,1,0,0:0:0:0:
409,63,25466,1,0,0:0:0:0:
64,103,25627,1,0,0:0:0:0:
404,237,25788,1,0,0:0:0:0:
109,258,25950,1,0,0:0:0:0:
294,58,26111,1,0,0:0:0:0:
179,338,26272,1,0,0:0:0:0:
154,117,26434,6,0,L|271:159,1,120
406,215,26837,1,0,0:0:0:0:
107,286,26998,1,0,0:0:0:0:
276,78,27159,1,0,0:0:0:0:
249,208,27321,1,0,0:0:0:0:
422,164,27804,5,0,0:0:0:0:
107,285,27965,1,0,0:0:0:0:
276,78,28126,1,0,0:0:0:0:
308,261,28288,1,0,0:0:0:0:
79,84,28450,1,0,0:0:0:0:
430,178,28611,1,0,0:0:0:0:
156,111,29014,5,0,0:0:0:0:
198,97,29094,1,0,0:0:0:0:
243,96,29175,1,0,0:0:0:0:
285,110,29255,1,0,0:0:0:0:
322,137,29336,1,0,0:0:0:0:
347,174,29417,1,0,0:0:0:0:
87,307,29579,5,0,0:0:0:0:
395,55,29740,1,0,0:0:0:0:
81,51,29901,1,0,0:0:0:0:
404,315,30063,1,0,0:0:0:0:
421,137,30224,1,0,0:0:0:0:
90,217,30385,1,0,0:0:0:0:
314,186,30546,2,0,P|359:227|366:273,1,90.0000034332277,0|0,0:3|0:3,0:3:0:0:
79,61,30869,1,0,0:0:0:0:
238,307,31030,1,0,0:0:0:0:
169,222,31514,6,0,B|257:125|209:165,1,90.0000034332277
411,232,31917,2,0,P|427:150|344:112,1,180.000006866455
132,259,32401,1,0,0:0:0:0:
85,159,32563,2,0,P|206:153|249:188,1,180.000006866455
436,97,33046,1,0,0:0:0:0:
67,57,33208,6,0,L|126:144,1,90.0000034332277
235,321,33530,1,0,0:0:0:0:
362,75,33692,6,0,L|281:142,1,90.0000034332277
117,269,34014,1,0,0:0:0:0:
412,196,34175,6,0,L|244:146,1,135.000005149841
101,82,34579,1,0,0:0:0:0:
302,322,34740,1,0,0:0:0:0:
410,62,34901,1,0,0:0:0:0:
234,181,35063,2,0,L|111:245,1,135.000005149841
394,304,35466,1,0,0:0:0:0:
158,79,35708,5,0,0:0:0:0:
202,83,35788,1,0,0:0:0:0:
246,95,35869,1,0,0:0:0:0:
286,114,35949,1,0,0:0:0:0:
322,141,36030,1,0,0:0:0:0:
353,174,36111,1,0,0:0:0:0:
377,211,36191,1,0,0:0:0:0:
395,253,36272,1,0,0:0:0:0:
404,297,36353,1,0,0:0:0:0:
80,110,36514,5,0,0:0:0:0:
213,314,36675,1,0,0:0:0:0:
413,78,36837,1,0,0:0:0:0:
70,184,36998,2,0,P|85:290|109:338,1,135.000005149841
314,206,37401,1,0,0:0:0:0:
190,71,37563,2,0,L|49:65,1,135.000005149841
394,120,37966,2,0,L|426:224,1,90.0000034332277
37,278,38288,6,0,L|138:225,1,90.0000034332277
384,120,38611,1,0,0:0:0:0:
81,68,38772,6,0,L|177:128,1,90.0000034332277
391,289,39095,1,0,0:0:0:0:
111,235,39256,1,0,0:0:0:0:
277,71,39417,2,0,L|411:125,1,135.000005149841
220,226,39821,1,0,0:0:0:0:
66,283,39982,2,0,L|194:347,1,135.000005149841
369,341,40385,2,0,L|412:258,1,90.0000034332277
413,221,40627,5,0,0:0:0:0:
370,206,40708,1,0,0:0:0:0:
327,193,40789,1,0,0:0:0:0:
286,174,40869,1,0,0:0:0:0:
248,150,40950,1,0,0:0:0:0:
213,122,41031,1,0,0:0:0:0:
178,93,41111,1,0,0:0:0:0:
145,63,41192,1,0,0:0:0:0:
101,41,41273,1,0,0:0:0:0:
93,256,41434,6,0,P|138:303|181:310,1,90.0000034332277
353,227,41756,2,0,P|307:180|264:173,1,90.0000034332277
91,92,42079,2,0,L|98:204,1,90.0000034332277
411,101,42401,2,0,L|298:110,1,90.0000034332277
176,331,42724,2,0,L|184:222,1,90.0000034332277
66,45,43046,2,0,L|170:100,1,90.0000034332277
449,245,43369,2,0,L|344:241,1,90.0000034332277
103,168,43692,1,0,0:0:0:0:
402,92,43853,6,0,L|368:194,1,90.0000034332277
64,76,44175,2,0,L|152:141,1,90.0000034332277
402,333,44498,2,0,L|370:238,1,90.0000034332277
87,214,44821,2,0,L|185:154,1,90.0000034332277
455,68,45143,2,0,L|357:131,1,90.0000034332277
268,345,45466,2,0,L|273:249,1,90.0000034332277
111,51,45788,2,0,L|197:118,1,90.0000034332277
441,61,46111,2,0,L|383:144,1,90.0000034332277
164,332,46434,2,0,L|146:224,1,90.0000034332277
349,86,46756,1,0,0:0:0:0:
373,298,47240,5,0,0:0:0:0:
285,65,47401,1,0,0:0:0:0:
71,325,47563,1,0,0:0:0:0:
431,76,47724,1,0,0:0:0:0:
73,176,47885,1,0,0:0:0:0:
251,320,48046,1,0,0:0:0:0:
437,73,48450,5,0,0:0:0:0:
56,261,48611,1,0,0:0:0:0:
447,316,48772,1,0,0:0:0:0:
236,99,48934,1,0,0:0:0:0:
69,322,49095,1,0,0:0:0:0:
369,172,49256,1,0,0:0:0:0:
131,72,49659,6,0,P|265:116|281:176,1,180.000006866455
64,338,50143,1,0,0:0:0:0:
445,54,50304,1,0,0:0:0:0:
90,315,50466,1,0,0:0:0:0:
412,77,50627,1,0,0:0:0:0:
122,289,50788,1,0,0:0:0:0:
374,105,50950,1,0,0:0:0:0:
160,114,51272,5,0,0:0:0:0:
387,317,51434,1,0,0:0:0:0:
406,59,51595,1,0,0:0:0:0:
54,338,51756,1,0,0:0:0:0:
196,176,51917,2,0,L|376:201,1,180.000006866455
80,83,52482,6,0,P|115:126|119:152,1,67.5000025749207
333,290,52885,2,0,P|361:250|345:207,1,90.0000034332277
83,319,53369,2,0,P|76:265|105:232,1,90.0000034332277
378,79,53853,2,0,P|337:88|318:98,2,45.0000017166138
203,313,54337,2,0,P|170:273|192:247,1,90.0000034332277
71,42,54821,2,0,P|60:95|64:112,1,67.5000025749207
290,95,55224,2,0,L|362:111,1,67.5000025749207
136,325,55627,2,0,P|154:269|186:250,1,90.0000034332277
293,61,56111,6,0,L|303:149,2,67.5000025749207
118,325,56756,2,0,L|213:320,1,90.0000034332277
411,53,57240,2,0,L|413:159,1,90.0000034332277
118,88,57724,2,0,P|102:149|128:214,1,135.000005149841
148,241,58288,1,0,0:0:0:0:
170,269,58369,2,0,P|260:300|304:288,1,135.000005149841
329,279,58934,1,0,0:0:0:0:
358,256,59014,2,0,P|383:214|355:131,1,135.000005149841
120,86,59659,2,0,P|129:139|149:174,1,90.0000034332277
415,59,60143,5,0,0:0:0:0:
93,274,60304,1,0,0:0:0:0:
446,184,60466,5,0,0:0:0:0:
86,152,60627,1,0,0:0:0:0:
440,315,60788,5,0,0:0:0:0:
198,54,60950,1,0,0:0:0:0:
262,336,61111,5,0,0:0:0:0:
357,41,61272,1,0,0:0:0:0:
108,287,61434,5,0,0:0:0:0:
442,146,61595,1,0,0:0:0:0:
96,79,61756,5,0,0:0:0:0:
455,132,61917,1,0,0:0:0:0:
58,243,62079,1,0,0:0:0:0:
443,317,62240,1,0,0:0:0:0:
243,108,62401,1,0,0:0:0:0:
356,262,62563,2,0,P|309:298|247:315,1,90.0000034332277
88,51,62885,1,0,0:0:0:0:
80,331,63046,1,0,0:0:0:0:
452,54,63208,1,0,0:0:0:0:
224,231,63369,1,0,0:0:0:0:
449,329,63530,1,0,0:0:0:0:
109,79,63692,2,0,L|232:93,1,90.0000034332277
339,332,64014,2,0,L|252:232,1,90.0000034332277
415,66,64337,1,0,0:0:0:0:
71,276,64498,1,0,0:0:0:0:
426,267,64659,1,0,0:0:0:0:
63,47,64821,1,0,0:0:0:0:
269,313,64982,1,0,0:0:0:0:
411,77,65143,2,0,L|301:133,1,90.0000034332277
88,278,65466,2,0,L|112:166,1,90.0000034332277
442,286,65788,2,0,L|326:258,1,90.0000034332277
54,35,66111,1,0,0:0:0:0:
437,139,66272,1,0,0:0:0:0:
54,35,66434,1,0,0:0:0:0:
417,187,66595,1,0,0:0:0:0:
54,35,66756,1,0,0:0:0:0:
394,236,66917,1,0,0:0:0:0:
54,35,67079,1,0,0:0:0:0:
363,279,67240,1,0,0:0:0:0:
54,35,67401,1,0,0:0:0:0:
323,317,67563,1,0,0:0:0:0:
79,256,67724,2,0,L|271:200,1,180.000006866455
424,58,68208,1,0,0:0:0:0:
78,87,68369,1,0,0:0:0:0:
431,334,68530,1,0,0:0:0:0:
293,156,68692,2,0,L|133:253,1,180.000006866455
397,96,69175,1,0,0:0:0:0:
254,331,69337,1,0,0:0:0:0:
94,55,69498,1,0,0:0:0:0:
85,294,69659,2,0,L|259:195,1,180.000006866455
451,62,70143,1,0,0:0:0:0:
303,307,70304,1,0,0:0:0:0:
96,66,70466,1,0,0:0:0:0:
98,321,70627,2,0,L|245:205,1,180.000006866455
397,72,71111,2,0,L|416:204,1,90.0000034332277
70,325,71434,2,0,L|77:217,1,90.0000034332277
299,109,71756,1,0,0:0:0:0:
306,317,71917,1,0,0:0:0:0:
60,62,72079,1,0,0:0:0:0:
433,256,72240,1,0,0:0:0:0:
127,273,72401,2,0,P|143:222|252:199,1,135.000005149841
381,68,72804,2,0,L|384:217,1,135.000005149841
78,45,73208,1,0,0:0:0:0:
334,274,73369,1,0,0:0:0:0:
445,45,73530,1,0,0:0:0:0:
112,316,73692,1,0,0:0:0:0:
270,73,73853,1,0,0:0:0:0:
247,298,74014,1,0,0:0:0:0:
436,244,74175,2,0,L|270:168,1,180.000006866455
87,72,74659,5,0,0:0:0:0:
344,128,74821,1,0,0:0:0:0:
168,88,74982,1,0,0:0:0:0:
428,222,75143,1,0,0:0:0:0:
256,103,75304,1,0,0:0:0:0:
457,313,75466,1,0,0:0:0:0:
