osu file format v14

[General]
AudioFilename: audio.mp3
AudioLeadIn: 0
PreviewTime: 52871
Countdown: 0
SampleSet: Soft
StackLeniency: 0.7
Mode: 0
LetterboxInBreaks: 0
WidescreenStoryboard: 1

[Editor]
Bookmarks: 85131
DistanceSpacing: 1
BeatDivisor: 4
GridSize: 32
TimelineZoom: 1.7

[Metadata]
Title:Heart Signal (TV Size)
TitleUnicode:ハートシグナル (TV Size)
Artist:Hatano Wataru
ArtistUnicode:羽多野渉
Creator:Lobelia
Version:Normal
Source:ひとりじめマイヒーロー
Tags:Sun Rainbow Sun_Rainbow Beren Sandrew kanor higeo 彦田元気 Genki Hikota Hitorijime My Hero op opening tv size yaoi boys love bl anime japanese
BeatmapID:2542535
BeatmapSetID:1193294

[Difficulty]
HPDrainRate:3
CircleSize:3
OverallDifficulty:4
ApproachRate:5
SliderMultiplier:1.2
SliderTickRate:1

[Events]
//Background and Video events
Video,0,"Opening Hitorijime My Hero.mp4"
0,0,"hero.jpg",0,0
//Break Periods
//Storyboard Layer 0 (Background)
//Storyboard Layer 1 (Fail)
//Storyboard Layer 2 (Pass)
//Storyboard Layer 3 (Foreground)
//Storyboard Layer 4 (Overlay)
//Storyboard Sound Samples

[TimingPoints]
371,468.75,4,2,2,60,1,0
605,-100,4,2,2,30,0,0
6933,-100,4,2,1,45,0,0
7402,-100,4,2,1,45,0,0
7871,-100,4,2,1,65,0,0
21933,-100,4,2,1,30,0,0
22402,-100,4,2,1,60,0,0
22519,-100,4,2,1,30,0,0
22636,-100,4,2,1,30,0,0
22871,-100,4,2,3,80,0,1
30371,-100,4,2,1,80,0,1
36230,-100,4,2,2,40,0,0
36933,-100,4,2,0,40,0,0
37167,-100,4,2,0,60,0,0
37519,-100,4,2,0,40,0,0
37636,-100,4,2,0,40,0,0
37871,-100,4,2,3,40,0,0
45371,-100,4,2,1,40,0,0
51933,-100,4,2,0,40,0,0
52871,-100,4,2,3,80,0,1
54980,-100,4,2,1,80,0,1
55683,-100,4,2,3,80,0,1
62480,-100,4,2,1,80,0,1
63183,-100,4,2,3,80,0,1
66933,-100,4,2,3,80,0,0
67871,-100,4,2,3,80,0,1
73730,-100,4,2,1,80,0,1
74433,-100,4,2,3,80,0,1
77480,-100,4,2,1,80,0,1
77714,-100,4,2,3,80,0,1
80058,-100,4,2,1,80,0,1
82871,-100,4,2,1,50,0,0

[Colours]
Combo1 : 151,232,222
Combo2 : 168,235,118
Combo3 : 245,137,137
Combo4 : 242,209,123

[HitObjects]
367,159,371,5,8,0:1:0:0:
339,94,4121,6,0,B|163:-44|20:115|20:115|149:294|330:180,1,720,0|0,0:0|0:0,0:0:0:0:
448,198,7402,2,0,L|445:261,1,60,8|0,3:1|0:0,0:0:0:0:
431,316,7871,6,0,B|379:336|361:296|308:326,1,120,6|8,0:0|0:0,0:0:0:0:
256,340,8574,1,0,0:0:0:0:
256,340,8808,2,0,P|254:285|240:215,1,120,2|8,0:0|0:0,0:0:0:0:
223,164,9511,1,0,0:0:0:0:
117,106,9980,2,0,P|86:111|52:112,2,60,0|8|0,0:0|0:0|0:0,0:0:0:0:
160,63,10683,2,0,P|195:48|238:53,1,60,2|0,0:0|0:0,0:0:0:0:
275,58,11152,1,8,0:0:0:0:
394,68,11621,6,0,P|385:122|389:199,1,120,2|8,0:0|0:0,0:0:0:0:
401,245,12324,1,0,0:0:0:0:
401,245,12558,2,0,L|469:241,2,60,2|0|8,0:0|0:0|0:0,0:0:0:0:
352,280,13261,1,0,0:0:0:0:
237,315,13730,1,0,0:0:0:0:
134,251,14199,2,0,L|126:121,1,120,0|8,0:0|0:1,0:0:0:0:
120,71,14902,1,8,0:1:0:0:
239,80,15371,6,0,B|275:118|275:118|361:109,1,120,6|8,0:0|0:0,0:0:0:0:
402,104,16074,1,0,0:0:0:0:
402,104,16308,2,0,L|416:41,2,60,2|0|8,0:0|0:0|0:0,0:0:0:0:
439,151,17011,1,0,0:0:0:0:
451,270,17480,1,0,0:0:0:0:
451,270,17714,2,0,P|406:273|374:269,1,60,8|0,0:0|0:0,0:0:0:0:
331,268,18183,2,0,L|339:195,2,60,2|0|8,0:0|0:0|0:0,0:0:0:0:
242,349,19121,5,4,0:0:0:0:
128,311,19590,1,8,0:0:0:0:
128,311,19824,2,0,B|70:301|79:343|13:333,1,120,6|6,0:0|0:0,0:0:0:0:
13,212,20761,2,0,P|17:155|46:96,1,120,6|2,0:0|0:0,0:0:0:0:
99,75,21464,2,0,P|128:85|181:84,1,60,2|2,0:0|0:0,0:0:0:0:
216,86,21932,2,0,P|248:82|288:90,1,60,8|0,1:2|1:0,0:0:0:0:
330,109,22401,1,8,1:0:0:0:
428,176,22871,6,0,P|438:217|432:309,1,120,4|8,3:2|0:0,0:0:0:0:
381,313,23574,1,0,0:0:0:0:
381,313,23808,2,0,P|354:273|340:193,1,120,0|8,3:0|0:0,0:0:0:0:
329,144,24511,1,0,0:0:0:0:
354,29,24980,1,0,0:0:0:0:
354,29,25214,2,0,P|304:49|232:48,1,120,8|2,0:0|3:2,0:0:0:0:
183,41,25917,1,2,0:0:0:0:
183,41,26152,1,10,0:0:0:0:
87,114,26621,6,0,P|106:180|145:224,1,120,0|8,3:0|0:0,0:0:0:0:
201,234,27324,1,0,0:0:0:0:
201,234,27558,2,0,P|259:214|307:161,1,120,0|8,3:0|0:0,0:0:0:0:
331,122,28261,1,0,0:0:0:0:
424,46,28730,1,0,0:0:0:0:
424,46,28964,2,0,P|442:72|453:109,1,60,8|0,0:0|0:0,0:0:0:0:
452,158,29433,6,0,L|511:161,2,60,6|6|6,3:2|0:0|0:0,0:0:0:0:
399,266,30371,6,0,B|348:288|348:288|283:274,1,120,2|8,3:2|3:2,0:0:0:0:
226,259,31074,1,0,3:0:0:0:
226,259,31308,2,0,B|162:245|162:245|111:267,1,120,2|8,3:2|3:2,0:0:0:0:
59,297,32011,1,0,3:0:0:0:
37,178,32480,1,0,0:0:0:0:
37,178,32714,2,0,L|32:101,1,60,8|0,3:2|3:0,0:0:0:0:
31,57,33183,2,0,P|63:55|101:60,1,60,2|8,3:2|0:1,0:0:0:0:
149,69,33652,1,8,0:1:0:0:
268,80,34121,6,0,P|252:141|250:207,1,120,6|8,3:2|3:2,0:0:0:0:
253,257,34824,2,0,P|300:247|383:249,1,120,6|6,3:2|3:2,0:0:0:0:
480,297,35761,1,6,3:2:0:0:
471,177,36230,2,0,P|476:127|455:56,1,120,8|8,0:0|0:0,0:0:0:0:
399,44,36933,2,0,L|324:55,1,60,2|10,1:2|0:0,0:0:0:0:
290,86,37402,2,0,L|222:79,1,60,10|2,0:0|0:0,0:0:0:0:
170,72,37871,6,0,P|165:150|191:212,2,120,2|0|0,3:2|3:0|0:0,0:0:0:0:
57,28,39277,1,0,3:0:0:0:
42,147,39746,2,0,L|29:283,1,120,2|0,3:2|3:0,0:0:0:0:
27,326,40449,1,2,0:0:0:0:
27,326,40683,2,0,L|169:339,1,120,2|0,3:2|3:0,0:0:0:0:
206,337,41386,1,0,0:0:0:0:
206,337,41621,6,0,P|206:269|183:203,2,120,2|0|0,3:2|3:2|0:0,0:0:0:0:
322,366,43027,1,0,3:2:0:0:
426,306,43496,2,0,L|416:163,1,120,2|0,3:2|3:2,0:0:0:0:
413,126,44199,1,2,0:0:0:0:
413,126,44433,2,0,L|314:130,2,90,2|0|0,3:2|0:0|0:0,0:0:0:0:
473,123,45371,5,12,0:0:0:0:
403,25,45839,1,8,0:0:0:0:
282,24,46308,1,8,0:0:0:0:
214,123,46777,1,8,0:0:0:0:
267,230,47246,6,0,P|324:244|381:227,1,120,8|8,0:0|0:0,0:0:0:0:
439,213,47949,1,0,0:0:0:0:
439,213,48183,2,0,P|453:272|454:348,1,120,8|8,0:0|0:0,0:0:0:0:
338,361,49121,6,0,P|306:354|269:339,1,60,8|8,0:0|0:0,0:0:0:0:
239,300,49589,2,0,P|208:305|166:317,1,60,8|8,0:0|0:0,0:0:0:0:
129,344,50058,2,0,P|99:344|53:332,1,60,0|0,1:0|1:0,0:0:0:0:
44,283,50527,2,0,L|33:205,1,60,0|0,1:0|1:0,0:0:0:0:
29,163,50996,1,0,1:0:0:0:
235,40,51933,2,0,P|269:124|382:117,1,180,0|0,0:0|0:0,0:0:0:0:
406,116,52871,6,0,P|436:103|479:102,1,60,4|0,3:2|0:0,0:0:0:0:
496,149,53339,2,0,P|480:183|437:203,1,60,8|0,0:0|0:0,0:0:0:0:
405,214,53808,2,0,P|382:218|370:317,1,120,0|10,3:0|2:0,0:0:0:0:
382,357,54511,1,0,2:1:0:0:
382,357,54746,1,0,3:0:0:0:
264,331,55215,2,0,L|187:331,1,60,8|0,3:2|0:0,0:0:0:0:
146,348,55683,2,0,P|138:286|138:215,1,120,2|10,3:2|0:0,0:0:0:0:
137,108,56621,6,0,P|166:113|194:125,1,60,4|0,3:2|0:0,0:0:0:0:
244,157,57089,2,0,P|279:157|312:146,1,60,8|0,0:0|0:0,0:0:0:0:
346,108,57558,2,0,P|355:170|370:237,1,120,0|10,3:0|0:0,0:0:0:0:
389,281,58261,2,0,P|449:258|506:267,2,120,2|0|0,0:0|0:0|0:0,0:0:0:0:
293,352,59667,1,8,0:1:0:0:
293,352,59902,1,8,0:1:0:0:
176,321,60371,6,0,L|181:247,1,60,4|0,3:2|0:0,0:0:0:0:
220,216,60839,2,0,L|213:144,1,60,8|0,0:0|0:0,0:0:0:0:
221,96,61308,2,0,P|168:88|86:101,1,120,0|10,3:0|0:0,0:0:0:0:
46,118,62011,1,2,0:0:0:0:
46,118,62246,1,2,3:2:0:0:
28,236,62714,2,0,P|24:269|25:311,1,60,8|0,3:2|0:0,0:0:0:0:
44,352,63183,2,0,P|89:333|168:337,1,120,2|10,3:2|0:0,0:0:0:0:
278,350,64121,6,0,P|341:357|404:326,1,120,6|8,3:2|0:0,0:0:0:0:
392,275,64824,2,0,P|334:244|267:249,1,120,0|0,0:0|0:0,0:0:0:0:
222,259,65527,1,10,0:0:0:0:
103,279,65996,2,0,L|97:372,2,90,6|4|4,0:0|0:0|0:0,0:0:0:0:
60,236,66933,2,0,P|86:157|196:154,1,180,2|2,3:2|0:0,0:0:0:0:
227,167,67871,5,6,3:2:0:0:
341,204,68340,2,0,L|348:136,2,60,8|0|0,0:0|0:0|3:0,0:0:0:0:
454,243,69277,2,0,P|447:192|458:125,1,120,10|2,0:2|3:2,0:0:0:0:
483,72,69980,1,0,0:0:0:0:
483,72,70215,2,0,P|448:76|413:73,1,60,8|0,0:0|0:0,0:0:0:0:
369,47,70683,2,0,P|312:68|256:42,1,120,0|10,3:0|0:0,0:0:0:0:
202,28,71387,1,2,0:0:0:0:
202,28,71621,5,6,3:2:0:0:
180,146,72090,2,0,L|188:215,2,60,8|0|0,0:0|0:0|3:0,0:0:0:0:
65,110,73027,2,0,P|70:159|53:239,1,120,8|2,0:0|3:2,0:0:0:0:
44,286,73730,1,0,3:0:0:0:
44,286,73965,2,0,P|68:300|103:299,1,60,8|0,3:2|0:0,0:0:0:0:
159,301,74433,2,0,P|209:274|273:305,1,120,0|10,3:0|0:0,0:0:0:0:
320,330,75137,1,2,0:0:0:0:
320,330,75371,5,6,3:2:0:0:
351,214,75840,2,0,P|345:184|345:154,2,60,8|0|0,0:0|0:0|3:0,0:0:0:0:
453,276,76777,2,0,P|468:226|472:157,1,120,8|2,0:0|3:2,0:0:0:0:
471,98,77480,1,0,3:0:0:0:
471,98,77715,2,0,L|401:88,1,60,8|0,0:0|0:0,0:0:0:0:
354,69,78183,2,0,B|317:95|317:95|205:91,1,120,0|10,3:0|0:0,0:0:0:0:
182,87,78887,1,2,0:0:0:0:
182,87,79121,5,14,3:2:0:0:
155,204,79590,2,0,L|231:197,2,60,8|0|2,0:0|0:0|3:2,0:0:0:0:
94,205,80293,1,0,3:0:0:0:
94,205,80527,2,0,P|84:177|85:135,1,60,8|0,3:2|3:0,0:0:0:0:
90,87,80996,1,4,3:2:0:0:
268,48,81699,1,4,0:0:0:0:
268,48,81933,2,0,P|313:40|377:58,2,90,4|4|4,0:0|0:0|0:0,0:0:0:0:
223,88,82871,5,12,3:2:0:0:
257,203,83340,1,8,3:2:0:0:
257,203,83574,2,0,L|380:198,2,120,0|0|0,3:0|3:0|3:0,0:0:0:0:
155,266,84980,2,0,L|92:268,2,60,2|8|2,3:2|3:2|3:2,0:0:0:0:
196,309,85683,2,0,L|296:306,2,90,4|4|4,3:2|0:0|0:0,0:0:0:0:
166,361,86621,5,4,0:0:0:0:
