osu file format v14

[General]
AudioFilename: hatoshigunaru.mp3
AudioLeadIn: 0
PreviewTime: 53022
Countdown: 0
SampleSet: Soft
StackLeniency: 0.6
Mode: 0
LetterboxInBreaks: 0
WidescreenStoryboard: 1

[Editor]
DistanceSpacing: 1
BeatDivisor: 4
GridSize: 8
TimelineZoom: 1.8

[Metadata]
Title:Heart Signal
TitleUnicode:ハートシグナル
Artist:Hatano Wataru
ArtistUnicode:羽多野渉
Creator:Sandrew
Version:Normal
Source:ひとりじめマイヒーロー
Tags:shigeo 彦田元気 Genki Hikota Hitorijime My Hero op opening tv size yaoi boys love bl lobelia
BeatmapID:1637779
BeatmapSetID:637454

[Difficulty]
HPDrainRate:3
CircleSize:3.2
OverallDifficulty:4
ApproachRate:5
SliderMultiplier:1.2
SliderTickRate:1

[Events]
//Background and Video events
0,0,"bg.jpg",0,0
Video,-35,"Opening Hitorijime My Hero.avi"
//Break Periods
2,722,2952
//Storyboard Layer 0 (Background)
//Storyboard Layer 1 (Fail)
//Storyboard Layer 2 (Pass)
//Storyboard Layer 3 (Foreground)
//Storyboard Sound Samples

[TimingPoints]
522,468.75,4,2,2,50,1,0
7085,-100,4,2,2,50,0,0
36382,-100,4,2,1,40,0,0
38022,-100,4,2,1,40,0,0
45522,-100,4,2,2,50,0,0
53022,-100,4,2,2,60,0,1
66147,-100,4,2,2,50,0,0
68022,-100,4,2,2,60,0,1
86772,-100,4,2,2,60,0,0

[Colours]
Combo1 : 255,255,0
Combo2 : 0,255,255
Combo3 : 18,124,255
Combo4 : 242,24,57

[HitObjects]
256,192,522,5,4,0:0:0:0:
256,192,4272,12,0,6147,0:0:0:0:
41,42,7084,5,0,3:0:0:0:
35,161,7553,2,0,P|37:210|25:244,1,60,8|4,0:3|0:3,0:0:0:0:
55,276,8022,6,0,P|95:279|120:297,1,60,4|0,0:0|0:0,0:0:0:0:
154,331,8490,2,0,P|212:343|285:328,2,120,8|4|8,0:0|3:0|0:0,0:0:0:0:
182,214,9897,2,0,P|211:220|247:212,1,60,4|0,0:3|0:0,0:0:0:0:
270,163,10365,2,0,P|274:126|266:91,1,60,8|0,0:0|0:0,0:0:0:0:
295,49,10834,2,0,B|355:34|355:34|431:55,1,120,4|8,0:3|0:0,0:0:0:0:
500,129,11772,6,0,L|488:210,1,60,4|0,0:3|0:0,0:0:0:0:
495,248,12240,2,0,L|507:329,1,60,8|0,0:0|0:0,0:0:0:0:
454,341,12709,2,0,B|394:356|394:356|318:335,1,120,4|8,0:3|0:0,0:0:0:0:
320,283,13412,2,0,B|335:226|335:226|320:166,2,120,0|0|0,0:0|0:0|0:0,0:0:0:0:
222,353,14818,1,8,0:0:0:0:
222,353,15053,2,0,P|189:352|153:360,1,60,8|4,0:3|0:3,0:0:0:0:
104,340,15522,6,0,P|78:325|49:316,1,60,4|0,0:0|0:0,0:0:0:0:
18,264,15990,2,0,P|9:229|16:186,1,60,8|0,0:0|0:0,0:0:0:0:
4,145,16459,2,0,P|-6:84|9:20,1,120,4|8,0:3|0:0,0:0:0:0:
121,58,17397,2,0,P|117:94|124:131,1,60,4|0,0:3|0:0,0:0:0:0:
150,169,17865,2,0,P|189:173|227:162,1,60,8|0,0:0|0:0,0:0:0:0:
261,198,18334,2,0,B|276:258|276:258|255:334,1,120,4|8,0:3|0:0,0:0:0:0:
142,339,19272,5,4,0:0:0:0:
83,234,19740,1,8,0:3:0:0:
83,234,19975,1,4,0:3:0:0:
156,139,20443,1,4,0:0:0:0:
242,55,20912,2,0,L|320:41,1,60,8|4,0:3|0:3,0:0:0:0:
361,43,21381,2,0,L|423:51,1,60,8|8,0:3|0:0,0:0:0:0:
464,91,21850,1,8,0:3:0:0:
464,91,22084,2,0,B|442:146|442:146|462:221,1,120,6|6,0:3|0:0,0:0:0:0:
457,269,22787,1,10,0:3:0:0:
457,269,23022,6,0,L|440:334,1,60,4|2,0:0|0:3,0:0:0:0:
322,342,23725,1,2,0:3:0:0:
322,342,23959,2,0,L|281:271,1,60,4|2,0:3|0:3,0:0:0:0:
257,241,24428,2,0,L|255:168,1,60,8|2,0:0|0:3,0:0:0:0:
320,80,25131,2,0,L|393:77,2,60,2|8|2,0:3|0:0|0:3,0:0:0:0:
260,72,25834,2,0,B|207:50|207:50|122:46,1,120,4|8,0:3|0:0,0:0:0:0:
84,45,26537,1,2,0:3:0:0:
84,45,26772,6,0,L|11:68,1,60,4|2,0:3|0:3,0:0:0:0:
27,183,27475,1,2,0:3:0:0:
27,183,27709,2,0,L|84:201,1,60,4|2,0:3|0:3,0:0:0:0:
143,212,28178,2,0,L|218:211,1,60,8|2,0:0|0:3,0:0:0:0:
285,298,28881,2,0,L|287:375,2,60,2|8|2,0:3|0:0|0:3,0:0:0:0:
295,238,29584,2,0,P|298:205|289:162,1,60,8|4,0:3|0:3,0:0:0:0:
292,118,30053,1,4,0:0:0:0:
388,46,30522,6,0,P|429:52|473:39,1,60,6|2,3:2|0:3,0:0:0:0:
491,160,31225,1,2,0:3:0:0:
491,160,31459,2,0,P|450:154|406:167,1,60,6|2,0:3|0:3,0:0:0:0:
397,205,31928,2,0,P|401:242|393:289,1,60,10|0,3:2|0:0,0:0:0:0:
296,327,32631,1,2,0:3:0:0:
296,327,32865,2,0,P|259:331|211:323,1,60,10|2,3:2|0:3,0:0:0:0:
176,335,33334,2,0,P|146:333|116:337,1,60,6|2,0:3|0:3,0:0:0:0:
56,344,33803,1,10,3:2:0:0:
11,232,34272,5,4,3:2:0:0:
90,141,34740,1,8,0:3:0:0:
90,141,34975,1,4,0:3:0:0:
186,211,35443,1,4,0:0:0:0:
176,335,35912,1,4,0:0:0:0:
176,335,37084,6,0,P|125:311|101:360,1,120,8|8,0:3|0:0,0:0:0:0:
23,264,38022,6,0,P|69:231|38:186,1,120,2|4,0:0|0:3,0:0:0:0:
158,162,38959,2,0,P|162:218|217:214,1,120,4|4,0:3|0:3,0:0:0:0:
261,327,39897,2,0,B|320:312|320:312|393:329,1,120,2|4,0:0|0:3,0:0:0:0:
470,249,40834,2,0,B|455:190|455:190|472:117,1,120,4|4,0:3|0:3,0:0:0:0:
466,72,41537,1,4,0:3:0:0:
466,72,41772,6,0,B|405:71|405:71|339:35,1,120,2|4,0:0|0:3,0:0:0:0:
263,123,42709,2,0,B|292:176|292:176|294:235,1,120,4|4,0:3|0:3,0:0:0:0:
214,324,43647,2,0,P|154:322|88:353,1,120,2|4,0:0|0:3,0:0:0:0:
33,243,44584,2,0,P|36:199|23:142,2,90,4|4|4,0:3|0:3|0:3,0:0:0:0:
24,302,45522,5,8,0:0:0:0:
136,261,45990,1,8,0:0:0:0:
248,303,46459,1,8,0:0:0:0:
360,261,46928,1,8,0:0:0:0:
479,268,47397,2,0,P|462:327|420:366,2,120,8|8|8,0:0|0:0|0:0,0:0:0:0:
487,148,48803,1,8,0:0:0:0:
439,37,49272,6,0,L|368:52,1,60,8|8,0:0|0:3,0:0:0:0:
320,51,49740,2,0,L|240:35,1,60,8|8,0:0|0:3,0:0:0:0:
209,69,50209,2,0,P|170:118|262:134,1,180,8|8,0:0|0:3,0:0:0:0:
312,147,51147,1,4,0:0:0:0:
312,147,52084,6,0,L|396:141,1,60,8|4,0:3|0:3,0:0:0:0:
431,139,52553,1,4,0:0:0:0:
486,245,53022,6,0,P|480:272|487:331,1,60,4|2,0:0|0:3,0:0:0:0:
434,342,53490,2,0,P|407:336|348:343,1,60,8|2,0:0|0:3,0:0:0:0:
314,341,53959,2,0,B|269:329|270:355|218:339,2,90,4|0|2,0:3|0:0|0:3,0:0:0:0:
374,336,54897,1,4,0:3:0:0:
479,278,55365,2,0,P|488:220|472:142,2,120,4|4|4,0:0|0:0|0:0,0:0:0:0:
363,243,56772,6,0,P|368:210|361:164,1,60,4|2,0:3|0:3,0:0:0:0:
331,134,57240,2,0,P|301:135|271:130,1,60,8|2,0:0|0:3,0:0:0:0:
219,100,57709,2,0,B|175:61|175:61|106:40,1,120,4|8,0:3|0:0,0:0:0:0:
61,67,58412,2,0,B|34:119|34:119|32:191,2,120,2|2|2,0:3|0:3|0:3,0:0:0:0:
136,160,59818,1,8,0:3:0:0:
136,160,60053,2,0,L|210:161,1,60,8|2,0:0|0:3,0:0:0:0:
235,206,60522,6,0,P|240:238|226:282,1,60,4|2,0:0|0:3,0:0:0:0:
192,306,60990,2,0,P|162:300|133:305,1,60,8|2,0:0|0:3,0:0:0:0:
82,338,61459,2,0,B|27:341|27:341|0:287,2,90,4|0|2,0:3|0:0|0:3,0:0:0:0:
133,305,62397,1,4,0:3:0:0:
239,250,62865,2,0,B|251:205|251:205|239:176|239:176|254:125,2,120,4|4|4,0:0|0:0|0:0,0:0:0:0:
321,337,64272,6,0,B|380:348|380:348|456:336,1,120,4|8,0:3|0:0,0:0:0:0:
455,280,64975,2,0,B|446:220|446:220|457:161,1,120,2|2,0:3|0:3,0:0:0:0:
448,102,65678,1,8,0:0:0:0:
343,42,66147,2,0,L|249:41,2,90,4|4|4,0:3|0:3|0:3,0:0:0:0:
448,102,67318,2,0,L|507:103,2,60,8|8|2,0:3|0:0|0:3,0:0:0:0:
405,145,68022,5,4,0:0:0:0:
285,145,68490,2,0,L|218:146,1,60,8|2,0:0|0:3,0:0:0:0:
181,104,68959,2,0,B|193:64|193:64|185:12,2,90,4|0|2,0:3|0:0|0:3,0:0:0:0:
70,56,70131,1,2,0:3:0:0:
70,56,70365,2,0,L|58:116,1,60,8|2,0:0|0:3,0:0:0:0:
51,174,70834,2,0,P|53:213|40:247,1,60,4|2,0:3|0:3,0:0:0:0:
63,290,71303,2,0,P|102:288|136:301,1,60,8|2,0:0|0:3,0:0:0:0:
163,336,71772,1,4,0:0:0:0:
235,240,72240,6,0,L|302:239,1,60,8|2,0:0|0:3,0:0:0:0:
339,281,72709,2,0,B|327:321|327:321|335:373,2,90,4|0|2,0:3|0:0|0:3,0:0:0:0:
447,333,73881,1,2,0:3:0:0:
447,333,74115,2,0,L|459:273,1,60,8|2,0:0|0:3,0:0:0:0:
466,215,74584,2,0,P|464:176|477:142,1,60,4|2,0:3|0:3,0:0:0:0:
454,99,75053,2,0,P|415:101|381:88,1,60,8|2,0:0|0:3,0:0:0:0:
354,53,75522,5,4,0:0:0:0:
234,57,75990,2,0,P|202:63|161:52,1,60,8|2,0:0|0:3,0:0:0:0:
132,101,76459,2,0,B|119:144|119:144|137:206,2,90,4|0|2,0:3|0:0|0:3,0:0:0:0:
241,150,77631,1,2,0:3:0:0:
241,150,77865,2,0,L|251:221,1,60,8|2,0:0|0:3,0:0:0:0:
256,269,78334,2,0,P|261:304|255:335,1,60,4|2,0:3|0:3,0:0:0:0:
198,342,78803,2,0,P|168:338|138:343,1,60,8|2,0:0|0:3,0:0:0:0:
79,352,79272,5,4,0:0:0:0:
38,239,79740,2,0,P|45:208|35:156,1,60,8|8,0:0|0:3,0:0:0:0:
97,155,80209,2,0,B|141:149|141:149|204:165,2,90,8|2|8,0:0|0:3|0:3,0:0:0:0:
43,126,81147,1,4,0:0:0:0:
207,52,81850,1,8,0:3:0:0:
207,52,82084,2,0,B|251:63|251:63|295:57,2,90,4|4|4,0:3|0:3|0:3,0:0:0:0:
147,44,83022,5,4,0:0:0:0:
27,31,83490,1,8,0:0:0:0:
192,205,84428,1,8,0:0:0:0:
315,335,85131,1,8,0:3:0:0:
315,335,85365,2,0,L|396:329,1,60,8|8,0:3|0:3,0:0:0:0:
422,293,85834,2,0,B|438:252|438:252|483:218,2,90,4|4|4,0:3|0:3|0:3,0:0:0:0:
424,353,86772,5,4,0:0:0:0:
