osu file format v14

[General]
AudioFilename: audio.mp3
AudioLeadIn: 0
PreviewTime: 49465
Countdown: 0
SampleSet: Soft
StackLeniency: 0.7
Mode: 2
LetterboxInBreaks: 0
WidescreenStoryboard: 1

[Editor]
Bookmarks: 55597
DistanceSpacing: 1.9
BeatDivisor: 4
GridSize: 4
TimelineZoom: 1.1

[Metadata]
Title:TWISTED HEARTS (TV Size)
TitleUnicode:TWISTED HEARTS (TV Size)
Artist:Hatanaka Tasuku
ArtistUnicode:畠中祐
Creator:rew0825
Version:Salad
Source:憂国のモリアーティ
Tags:Yuukoku no Moriarty the Patriot Patriotism 2nd Season Anime Japanese J-Pop JPop Pop Male Vocal OP Opening Sherlock Holmes William James Arthur Conan Doyle Gorou ゴロー
BeatmapID:3133174
BeatmapSetID:1524741

[Difficulty]
HPDrainRate:3
CircleSize:3
OverallDifficulty:6.7
ApproachRate:6.7
SliderMultiplier:1.94
SliderTickRate:2

[Events]
//Background and Video events
Video,-375,"VDO.mp4"
0,0,"BG.jpeg",0,0
//Break Periods
//Storyboard Layer 0 (Background)
//Storyboard Layer 1 (Fail)
//Storyboard Layer 2 (Pass)
//Storyboard Layer 3 (Foreground)
//Storyboard Layer 4 (Overlay)
//Storyboard Sound Samples

[TimingPoints]
232,483.870967741935,4,2,1,40,1,0
4102,-100,4,2,2,40,0,0
4223,-100,4,2,1,40,0,0
7973,-100,4,2,1,50,0,0
15715,-100,4,2,1,25,0,0
17651,-100,4,2,2,40,0,0
17772,-100,4,2,1,40,0,0
19586,-100,4,2,2,40,0,0
19707,-100,4,2,1,40,0,0
21522,-100,4,2,2,40,0,0
21643,-100,4,2,1,30,0,0
23457,-100,4,2,2,40,0,0
23578,-100,4,2,1,30,0,0
25393,-100,4,2,2,50,0,0
25514,-100,4,2,1,50,0,0
29385,-100,4,2,1,40,0,0
29990,-100,4,2,1,50,0,0
30111,-100,4,2,1,40,0,0
31199,-100,4,2,1,50,0,0
31320,-100,4,2,1,40,0,0
31925,-100,4,2,1,50,0,0
32046,-100,4,2,1,40,0,0
33135,-100,4,2,1,60,0,0
34586,-100,4,2,3,60,0,0
34707,-100,4,2,1,60,0,0
36522,-100,4,2,3,60,0,0
36643,-100,4,2,1,60,0,0
38457,-100,4,2,3,60,0,0
38578,-100,4,2,1,60,0,0
40393,-100,4,2,3,60,0,0
40514,-100,4,2,1,60,0,0
42328,-100,4,2,3,60,0,0
42449,-100,4,2,1,60,0,0
44264,-100,4,2,3,60,0,0
44385,-100,4,2,1,60,0,0
46199,-100,4,2,3,60,0,0
46320,-100,4,2,1,60,0,0
46683,-100,4,2,1,50,0,0
48619,-100,4,2,4,60,0,0
49586,-100,4,2,4,65,0,0
50554,-100,4,2,3,70,0,1
65977,-100,4,2,3,70,0,0
66038,-100,4,2,3,70,0,1
80433,-100,4,2,3,60,0,1
81522,-100,4,2,1,50,0,0

[Colours]
Combo1 : 227,204,108
Combo2 : 70,108,208
Combo3 : 201,61,85

[HitObjects]
72,268,232,6,0,P|223:243|299:133,2,291,2|2|2,0:0|0:0|0:0,0:0:0:0:
264,292,2167,6,0,P|360:240|260:144,1,291,2|2,0:0|0:0,0:0:0:0:
68,136,3377,2,0,L|64:236,1,97,2|2,0:0|0:0,0:0:0:0:
440,268,4102,6,0,P|289:243|213:133,2,291,2|2|2,3:2|0:0|0:0,0:0:0:0:
248,292,6038,6,0,P|152:240|252:144,1,291,2|2,0:0|0:0,0:0:0:0:
444,136,7248,2,0,L|448:236,1,97,2|2,0:0|0:0,0:0:0:0:
80,232,7973,6,0,P|36:168|112:104,1,194,2|2,1:2|0:0,0:0:0:0:
304,104,8941,2,0,L|308:200,1,97,2|0,0:0|1:2,0:0:0:0:
200,200,9425,2,0,L|196:296,1,97,2|2,0:0|0:0,0:0:0:0:
304,296,9909,6,0,P|376:260|364:160,1,194,2|0,1:2|0:0,0:0:0:0:
256,136,10635,1,2,0:0:0:0:
60,136,11119,1,2,1:2:0:0:
56,232,11361,1,0,0:0:0:0:
152,232,11602,1,2,0:0:0:0:
356,232,11844,6,0,P|432:224|456:120,1,194,2|2,1:2|0:0,0:0:0:0:
260,124,12812,2,0,L|256:224,1,97,2|0,0:0|1:2,0:0:0:0:
364,228,13296,2,0,L|368:328,1,97,2|2,0:0|0:0,0:0:0:0:
260,328,13780,5,0,1:2:0:0:
152,328,14022,2,0,P|92:268|164:208,1,194,2|2,0:0|0:0,0:0:0:0:
352,208,14990,2,0,L|356:112,1,97,2|2,1:2|0:0,0:0:0:0:
144,112,15473,5,2,0:0:0:0:
256,192,15957,12,0,17167,0:0:0:0:
356,336,17651,6,0,P|416:280|348:216,1,194,0|2,3:2|0:0,0:0:0:0:
156,216,18619,2,0,P|100:164|168:96,1,194,2|2,0:0|0:0,0:0:0:0:
264,96,19344,1,2,0:0:0:0:
372,96,19586,6,0,P|428:152|360:216,1,194,2|2,3:2|0:0,0:0:0:0:
260,216,20312,1,2,0:0:0:0:
64,216,20796,2,0,P|44:152|140:92,1,194,2|2,0:0|0:0,0:0:0:0:
244,92,21522,5,2,3:2:0:0:
440,92,22006,1,2,0:0:0:0:
244,92,22490,1,0,0:0:0:0:
148,92,22731,2,0,P|88:144|160:216,1,194,2|2,0:0|0:0,0:0:0:0:
256,216,23457,6,0,P|336:208|368:108,1,194,2|0,3:2|0:0,0:0:0:0:
272,112,24183,1,2,0:0:0:0:
76,112,24667,1,2,0:0:0:0:
68,208,24909,1,2,0:0:0:0:
164,208,25151,1,2,0:0:0:0:
376,204,25393,6,0,P|432:256|364:324,1,194,4|2,1:2|0:0,0:0:0:0:
168,324,26361,2,0,P|112:272|180:204,1,194,2|2,0:0|0:0,0:0:0:0:
276,204,27086,1,2,0:0:0:0:
384,204,27328,6,0,P|440:148|372:84,1,194,2|2,1:2|0:0,0:0:0:0:
272,84,28054,1,2,1:2:0:0:
76,84,28538,2,0,P|64:152|156:216,1,194,2|2,3:2|0:0,0:0:0:0:
264,216,29264,6,0,P|352:228|388:320,1,194,0|2,1:2|0:0,0:0:0:0:
292,320,29990,1,0,1:2:0:0:
100,324,30473,2,0,P|44:276|116:212,1,194,2|2,3:2|0:0,0:0:0:0:
224,212,31199,6,0,P|304:196|328:92,1,194,2|2,1:2|0:0,0:0:0:0:
232,100,31925,1,2,1:2:0:0:
36,100,32409,1,2,3:2:0:0:
32,196,32651,1,0,0:0:0:0:
128,196,32893,1,2,0:0:0:0:
340,200,33135,6,0,P|380:244|336:304,1,145.5,6|2,1:2|1:2,0:0:0:0:
176,304,33861,2,0,P|120:244|192:184,1,194,2|2,1:2|0:0,0:0:0:0:
288,184,34586,2,0,L|292:80,1,97,8|2,2:3|0:0,0:0:0:0:
184,84,35070,6,0,P|120:100|92:168,1,145.5,2|2,1:2|1:2,0:0:0:0:
252,176,35796,2,0,L|460:176,1,194,2|2,1:2|0:0,0:0:0:0:
444,272,36522,1,8,2:3:0:0:
72,276,37006,6,0,P|24:212|96:148,1,194,2|2,1:2|0:0,0:0:0:0:
192,156,37731,1,2,1:2:0:0:
388,160,38215,1,2,0:0:0:0:
388,256,38457,1,8,2:3:0:0:
292,256,38699,1,0,0:0:0:0:
184,260,38941,6,0,P|128:272|108:352,1,145.5,2|2,1:2|1:2,0:0:0:0:
268,348,39667,2,0,L|472:348,1,194,2|2,1:2|0:0,0:0:0:0:
464,252,40393,1,8,2:3:0:0:
368,252,40635,1,2,0:0:0:0:
156,252,40877,6,0,P|120:200|180:148,1,145.5,6|2,1:2|1:2,0:0:0:0:
328,144,41602,2,0,P|384:200|316:264,1,194,2|10,1:2|0:0,0:0:0:0:
216,264,42328,1,8,2:3:0:0:
220,168,42570,1,8,0:0:0:0:
328,168,42812,6,0,P|388:156|416:76,1,145.5,2|2,1:2|1:2,0:0:0:0:
256,84,43538,2,0,L|48:84,1,194,2|10,1:2|0:0,0:0:0:0:
64,180,44264,1,8,2:3:0:0:
160,180,44506,1,8,0:0:0:0:
372,180,44748,6,0,P|424:228|352:296,1,194,0|2,1:2|0:0,0:0:0:0:
244,296,45473,1,2,1:2:0:0:
148,280,45715,1,2,0:0:0:0:
156,184,45957,1,10,0:0:0:0:
252,160,46199,1,10,2:3:0:0:
352,160,46441,1,10,0:0:0:0:
252,160,46683,6,0,P|136:144|80:92,1,194,2|0,0:0|0:0,0:0:0:0:
276,160,47651,2,0,P|392:144|448:92,1,194,2|0,0:0|0:0,0:0:0:0:
444,244,48377,1,2,0:0:0:0:
232,244,48619,6,0,P|164:244|132:308,1,145.5,2|2,3:2|3:2,0:0:0:0:
228,292,49223,1,2,3:2:0:0:
388,272,49586,2,0,P|456:272|488:336,1,145.5,2|2,3:2|3:2,0:0:0:0:
392,340,50190,1,2,3:2:0:0:
100,336,50554,6,0,P|40:280|112:224,1,194,14|0,1:2|3:2,0:0:0:0:
208,224,51280,1,2,0:0:0:0:
312,224,51522,2,0,L|208:224,1,97,2|0,1:2|0:0,0:0:0:0:
108,224,52006,1,0,3:2:0:0:
112,176,52127,1,2,0:0:0:0:
404,180,52490,6,0,P|464:248|392:304,1,194,2|0,1:2|3:2,0:0:0:0:
304,308,53215,1,2,0:0:0:0:
196,308,53457,2,0,L|192:204,1,97,2|2,1:2|0:0,0:0:0:0:
300,208,53941,1,0,3:2:0:0:
348,196,54062,1,2,0:0:0:0:
60,200,54425,6,0,P|24:272|104:328,1,194,2|2,1:2|3:2,0:0:0:0:
320,344,55393,1,0,1:2:0:0:
212,344,55635,2,0,P|140:316|140:212,1,194,2|2,0:0|0:0,0:0:0:0:
356,208,56361,5,0,1:2:0:0:
452,208,56602,1,2,0:0:0:0:
356,208,56844,1,2,3:2:0:0:
144,208,57328,2,0,P|72:192|48:128,1,145.5,2|2,1:2|0:0,0:0:0:0:
144,124,57933,1,2,0:0:0:0:
436,128,58296,6,0,P|484:184|408:248,1,194,14|0,1:2|3:2,0:0:0:0:
312,244,59022,1,2,0:0:0:0:
204,244,59264,2,0,L|312:244,1,97,2|0,1:2|0:0,0:0:0:0:
408,244,59748,1,0,3:2:0:0:
360,244,59869,1,2,0:0:0:0:
68,244,60231,6,0,P|28:196|100:112,1,194,2|0,1:2|3:2,0:0:0:0:
200,116,60957,1,2,0:0:0:0:
308,116,61199,2,0,L|200:116,1,97,2|2,1:2|0:0,0:0:0:0:
104,116,61683,1,0,3:2:0:0:
152,116,61804,1,2,0:0:0:0:
432,224,62167,6,0,P|452:292|356:328,1,194,2|2,1:2|3:2,0:0:0:0:
144,332,63135,1,0,1:2:0:0:
252,332,63377,2,0,P|332:308|332:204,1,194,2|2,0:0|0:0,0:0:0:0:
124,212,64102,6,0,L|20:212,1,97,2|2,1:2|0:0,0:0:0:0:
32,112,64586,1,2,3:2:0:0:
420,112,65070,1,2,1:2:0:0:
472,204,65312,1,2,0:0:0:0:
420,112,65554,1,2,3:2:0:0:
312,112,65796,1,0,3:2:0:0:
100,112,66038,6,0,P|40:176|104:236,1,194,14|0,1:2|3:2,0:0:0:0:
212,236,66764,1,2,0:0:0:0:
320,236,67006,2,0,P|392:224|432:120,1,194,0|2,1:2|3:2,0:0:0:0:
64,116,67973,5,0,1:2:0:0:
40,220,68215,1,2,0:0:0:0:
100,308,68457,1,2,3:2:0:0:
208,312,68699,1,2,0:0:0:0:
100,308,68941,1,2,1:2:0:0:
40,220,69183,1,2,0:0:0:0:
64,116,69425,1,2,3:2:0:0:
432,112,69909,6,0,P|496:152|448:240,1,194,2|0,1:2|3:2,0:0:0:0:
340,240,70635,1,2,0:0:0:0:
232,240,70877,2,0,L|436:240,1,194,0|2,1:2|3:2,0:0:0:0:
56,236,71844,6,0,P|32:168|128:108,1,194,0|0,1:2|3:2,0:0:0:0:
228,104,72570,2,0,P|252:172|156:232,1,194,2|2,0:0|0:0,0:0:0:0:
56,236,73296,1,2,3:2:0:0:
424,236,73780,6,0,P|480:168|412:112,1,194,14|0,1:2|3:2,0:0:0:0:
308,112,74506,1,2,0:0:0:0:
200,112,74748,2,0,P|108:128|84:216,1,194,0|2,1:2|3:2,0:0:0:0:
452,248,75715,5,0,1:2:0:0:
480,144,75957,1,2,0:0:0:0:
436,40,76199,1,2,3:2:0:0:
336,0,76441,1,2,0:0:0:0:
436,40,76683,1,2,1:2:0:0:
480,144,76925,1,2,0:0:0:0:
452,248,77167,1,2,3:2:0:0:
84,256,77651,6,0,P|40:184|112:124,1,194,2|0,1:2|3:2,0:0:0:0:
220,128,78377,1,2,0:0:0:0:
111,123,78619,2,0,P|40:178|84:256,1,194,0|2,1:2|3:2,0:0:0:0:
452,248,79586,5,0,1:2:0:0:
456,152,79828,1,2,0:0:0:0:
360,152,80070,1,2,3:2:0:0:
148,156,80312,2,0,P|56:152|16:68,1,194,2|2,3:2|0:0,0:0:0:0:
20,68,81038,1,2,0:0:0:0:
388,68,81522,6,0,P|448:120|376:184,1,194,2|2,1:2|0:0,0:0:0:0:
188,180,82490,2,0,L|184:276,1,97,2|0,0:0|1:2,0:0:0:0:
292,272,82973,2,0,L|296:176,1,97,2|2,0:0|0:0,0:0:0:0:
188,172,83457,6,0,P|104:160|80:60,1,194,2|0,1:2|0:0,0:0:0:0:
184,64,84183,1,2,0:0:0:0:
380,64,84667,1,2,1:2:0:0:
476,64,84909,1,0,0:0:0:0:
380,64,85151,1,2,0:0:0:0:
168,68,85393,6,0,P|96:80|56:184,1,194,2|2,1:2|0:0,0:0:0:0:
248,160,86361,2,0,L|252:256,1,97,2|0,0:0|1:2,0:0:0:0:
144,260,86844,2,0,L|140:356,1,97,2|2,0:0|0:0,0:0:0:0:
248,360,87328,5,0,1:2:0:0:
356,360,87570,2,0,P|408:288|336:236,1,194,2|2,0:0|0:0,0:0:0:0:
144,236,88538,2,0,L|140:140,1,97,2|2,1:2|0:0,0:0:0:0:
352,136,89022,5,2,0:0:0:0:
