osu file format v14

[General]
AudioFilename: audio.mp3
AudioLeadIn: 0
PreviewTime: 49465
Countdown: 0
SampleSet: Soft
StackLeniency: 0.7
Mode: 2
LetterboxInBreaks: 0
WidescreenStoryboard: 1

[Editor]
DistanceSpacing: 1.5
BeatDivisor: 8
GridSize: 4
TimelineZoom: 1.8

[Metadata]
Title:TWISTED HEARTS (TV Size)
TitleUnicode:TWISTED HEARTS (TV Size)
Artist:Hatanaka Tasuku
ArtistUnicode:畠中祐
Creator:rew0825
Version:Patriot
Source:憂国のモリアーティ
Tags:Yuukoku no Moriarty the Patriot Patriotism 2nd Season Anime Japanese J-Pop JPop Pop Male Vocal OP Opening Sherlock Holmes William James Arthur Conan Doyle Gorou ゴロー
BeatmapID:3119650
BeatmapSetID:1524741

[Difficulty]
HPDrainRate:6
CircleSize:4.2
OverallDifficulty:9
ApproachRate:9
SliderMultiplier:2.6
SliderTickRate:2

[Events]
//Background and Video events
Video,-375,"VDO.mp4"
0,0,"BG.jpeg",0,0
//Break Periods
//Storyboard Layer 0 (Background)
//Storyboard Layer 1 (Fail)
//Storyboard Layer 2 (Pass)
//Storyboard Layer 3 (Foreground)
//Storyboard Layer 4 (Overlay)
//Storyboard Sound Samples

[TimingPoints]
232,483.870967741935,4,2,1,40,1,0
4102,-100,4,2,2,40,0,0
4223,-100,4,2,1,40,0,0
7973,-100,4,2,1,50,0,0
15715,-100,4,2,1,25,0,0
17651,-100,4,2,2,40,0,0
17772,-100,4,2,1,40,0,0
19586,-100,4,2,2,40,0,0
19707,-100,4,2,1,40,0,0
21522,-100,4,2,2,40,0,0
21643,-100,4,2,1,30,0,0
23457,-100,4,2,2,40,0,0
23578,-100,4,2,1,30,0,0
25393,-100,4,2,2,50,0,0
25514,-100,4,2,1,50,0,0
29385,-100,4,2,1,40,0,0
29990,-100,4,2,1,50,0,0
30111,-100,4,2,1,40,0,0
31199,-100,4,2,1,50,0,0
31320,-100,4,2,1,40,0,0
31925,-100,4,2,1,50,0,0
32046,-100,4,2,1,40,0,0
33135,-100,4,2,1,60,0,0
34586,-100,4,2,3,60,0,0
34707,-100,4,2,1,60,0,0
36522,-100,4,2,3,60,0,0
36643,-100,4,2,1,60,0,0
38457,-100,4,2,3,60,0,0
38578,-100,4,2,1,60,0,0
40393,-100,4,2,3,60,0,0
40514,-100,4,2,1,60,0,0
42328,-100,4,2,3,60,0,0
42449,-100,4,2,1,60,0,0
44264,-100,4,2,3,60,0,0
44385,-100,4,2,1,60,0,0
46199,-100,4,2,3,60,0,0
46320,-100,4,2,1,60,0,0
46683,-100,4,2,1,50,0,0
48619,-100,4,2,4,60,0,0
49586,-100,4,2,4,65,0,0
50554,-100,4,2,3,70,0,1
65977,-100,4,2,3,70,0,0
66038,-100,4,2,3,70,0,1
80433,-100,4,2,3,60,0,1
81522,-100,4,2,1,50,0,0

[Colours]
Combo1 : 227,204,108
Combo2 : 70,108,208
Combo3 : 201,61,85

[HitObjects]
152,328,232,6,0,P|72:264|164:180,1,260,2|0,0:0|0:0,0:0:0:0:
360,184,957,2,0,P|440:120|348:36,1,260,2|0,0:0|0:0,0:0:0:0:
152,40,1683,2,0,L|20:32,1,130,2|0,0:0|0:0,0:0:0:0:
324,36,2167,6,0,P|408:48|460:200,1,260,2|0,0:0|0:0,0:0:0:0:
264,196,2893,2,0,L|256:328,1,130,2|0,0:0|0:0,0:0:0:0:
452,324,3377,1,2,0:0:0:0:
256,324,3619,2,0,L|96:324,1,130,2|0,0:0|0:0,0:0:0:0:
424,324,4102,6,0,P|460:256|344:152,1,260,2|0,3:2|0:0,0:0:0:0:
148,152,4828,2,0,P|112:220|228:324,1,260,2|0,0:0|0:0,0:0:0:0:
424,324,5554,1,2,0:0:0:0:
432,196,5796,1,0,0:0:0:0:
368,196,5917,1,0,0:0:0:0:
172,196,6038,6,0,P|84:152|156:44,1,260,2|0,0:0|0:0,0:0:0:0:
352,48,6764,2,0,L|356:180,1,130,2|0,0:0|0:0,0:0:0:0:
160,176,7248,1,2,0:0:0:0:
356,176,7490,2,0,L|496:180,1,130,2|0,0:0|0:0,0:0:0:0:
160,176,7973,6,0,P|128:240|156:288,1,130,2|0,1:2|0:0,0:0:0:0:
220,288,8336,1,0,0:0:0:0:
324,288,8457,2,0,L|252:288,1,65,2|0,0:0|0:0,0:0:0:0:
64,288,8699,2,0,L|60:224,1,65,2|0,0:0|0:0,0:0:0:0:
164,220,8941,5,2,0:0:0:0:
360,220,9183,1,0,1:2:0:0:
164,220,9425,2,0,L|232:220,1,65,2|0,0:0|1:2,0:0:0:0:
424,220,9667,2,0,L|360:220,1,65,2|0,0:0|0:0,0:0:0:0:
144,156,9909,6,0,P|116:220|148:272,1,130,2|0,1:2|0:0,0:0:0:0:
208,268,10272,1,0,0:0:0:0:
312,268,10393,2,0,L|316:196,1,65,0|0,0:0|0:0,0:0:0:0:
120,272,10635,5,2,0:0:0:0:
56,272,10756,2,0,P|52:240|120:184,1,130
316,188,11119,1,2,1:2:0:0:
124,192,11361,2,0,L|120:160,1,32.5
200,160,11481,2,0,L|248:160,2,32.5,0|0|2,1:2|0:0|0:0,0:0:0:0:
96,164,11723,1,0,0:0:0:0:
312,160,11844,6,0,P|336:220|308:276,1,130,2|0,1:2|0:0,0:0:0:0:
244,276,12207,1,0,0:0:0:0:
140,276,12328,2,0,L|208:276,1,65,2|0,0:0|0:0,0:0:0:0:
400,276,12570,2,0,L|404:212,1,65,2|0,0:0|0:0,0:0:0:0:
300,212,12812,5,2,0:0:0:0:
104,212,13054,1,0,1:2:0:0:
300,212,13296,2,0,L|388:212,1,65,2|0,0:0|1:2,0:0:0:0:
168,212,13538,2,0,L|92:212,1,65,2|0,0:0|0:0,0:0:0:0:
320,212,13780,5,0,1:2:0:0:
138,212,14022,2,0,P|110:152|150:112,1,130,2|0,0:0|0:0,0:0:0:0:
214,112,14385,1,0,0:0:0:0:
410,112,14506,5,2,0:0:0:0:
474,112,14627,2,0,P|478:144|410:200,1,130
214,200,14990,2,0,L|210:264,1,65,2|0,1:2|0:0,0:0:0:0:
314,264,15231,2,0,L|318:332,1,65,2|0,0:0|1:2,0:0:0:0:
102,332,15473,5,2,0:0:0:0:
256,192,15715,12,0,17409,0:0:0:0:
396,328,17651,6,0,L|404:196,1,130,0|2,3:2|0:0,0:0:0:0:
208,196,18135,2,0,L|200:64,1,130,2|2,0:0|0:0,0:0:0:0:
396,68,18619,2,0,L|404:200,1,130,2|2,0:0|0:0,0:0:0:0:
208,196,19102,1,2,0:0:0:0:
404,196,19344,1,2,0:0:0:0:
104,196,19586,6,0,P|88:340|168:348,1,260,2|2,3:2|0:0,0:0:0:0:
364,344,20312,2,0,L|368:212,1,130,2|0,0:0|0:0,0:0:0:0:
172,216,20796,2,0,L|168:84,1,130,2|0,0:0|0:0,0:0:0:0:
364,84,21280,1,2,0:0:0:0:
64,84,21522,6,0,L|60:216,1,130,2|0,3:2|0:0,0:0:0:0:
256,220,22006,2,0,P|336:216|384:64,1,260,2|0,0:0|0:0,0:0:0:0:
188,60,22731,2,0,P|108:64|60:216,1,260,2|2,0:0|0:0,0:0:0:0:
360,216,23457,6,0,P|432:160|328:88,1,260,2|0,3:2|0:0,0:0:0:0:
132,92,24183,2,0,L|128:228,1,130,2|0,0:0|0:0,0:0:0:0:
324,228,24667,2,0,L|328:300,1,65,2|2,0:0|0:0,0:0:0:0:
224,292,24909,2,0,L|220:356,1,65,2|2,0:0|0:0,0:0:0:0:
324,356,25151,2,0,L|400:360,1,65,2|0,0:0|0:0,0:0:0:0:
152,356,25393,6,0,L|20:352,1,130,4|2,1:2|0:0,0:0:0:0:
216,356,25877,2,0,L|220:292,1,65,2|0,0:0|0:0,0:0:0:0:
116,292,26119,2,0,L|112:224,1,65,2|0,1:2|0:0,0:0:0:0:
308,228,26361,6,0,L|440:224,1,130,2|2,0:0|3:2,0:0:0:0:
244,196,26844,2,0,L|180:196,1,65,2|0,0:0|3:2,0:0:0:0:
284,56,27086,2,0,L|348:56,1,65,2|0,0:0|0:0,0:0:0:0:
132,68,27328,6,0,P|100:112|132:172,1,130,2|0,1:2|0:0,0:0:0:0:
328,168,27812,2,0,L|392:160,1,65,2|0,0:0|0:0,0:0:0:0:
196,160,28054,6,0,L|64:152,1,130,2|0,1:2|0:0,0:0:0:0:
264,156,28538,1,2,3:2:0:0:
68,156,28780,2,0,L|140:160,1,65,0|0,0:0|3:2,0:0:0:0:
236,164,29022,2,0,L|172:164,1,65,2|0,0:0|0:0,0:0:0:0:
388,164,29264,6,0,P|416:216|376:276,1,130,0|0,1:2|0:0,0:0:0:0:
188,280,29748,2,0,L|184:216,1,65,2|0,0:0|0:0,0:0:0:0:
288,220,29990,6,0,L|152:216,1,130,0|0,1:2|0:0,0:0:0:0:
460,220,30473,2,0,P|492:164|452:120,1,130,2|0,3:2|0:0,0:0:0:0:
388,120,30836,1,0,3:2:0:0:
284,120,30957,2,0,L|356:120,1,65,2|0,0:0|0:0,0:0:0:0:
132,120,31199,6,0,P|104:64|144:16,1,130,2|0,1:2|0:0,0:0:0:0:
336,16,31683,2,0,L|340:80,1,65,2|0,0:0|0:0,0:0:0:0:
236,80,31925,6,0,L|384:80,1,130,2|0,1:2|0:0,0:0:0:0:
64,80,32409,2,0,P|32:136|64:188,1,130,2|0,3:2|0:0,0:0:0:0:
128,188,32772,1,0,3:2:0:0:
324,188,32893,2,0,L|400:188,1,65,2|0,0:0|0:0,0:0:0:0:
172,188,33135,6,0,P|136:236|176:292,1,130,6|0,1:2|0:0,0:0:0:0:
364,288,33498,2,0,P|400:240|360:184,1,130,2|0,1:2|0:0,0:0:0:0:
152,188,33861,6,0,P|116:140|156:84,1,130,2|0,1:2|0:0,0:0:0:0:
212,88,34223,1,0,0:0:0:0:
316,88,34344,2,0,L|320:156,1,65,2|0,0:0|0:0,0:0:0:0:
216,152,34586,2,0,L|144:160,1,65,8|2,2:3|0:0,0:0:0:0:
348,160,34828,2,0,L|420:160,1,65,2|0,0:0|0:0,0:0:0:0:
196,160,35070,6,0,P|136:168|108:228,1,130,2|2,1:2|0:0,0:0:0:0:
304,224,35433,2,0,P|364:232|392:292,1,130,2|0,1:2|0:0,0:0:0:0:
176,288,35796,5,2,1:2:0:0:
92,284,35917,2,0,P|60:224|96:184,1,130,2|0,0:0|0:0,0:0:0:0:
292,180,36280,1,2,0:0:0:0:
296,116,36401,1,0,0:0:0:0:
212,116,36522,1,8,2:3:0:0:
296,116,36643,2,0,L|436:116,1,130,0|2,0:0|0:0,0:0:0:0:
208,116,37006,6,0,L|68:116,1,130,2|2,1:2|0:0,0:0:0:0:
144,116,37369,1,2,1:2:0:0:
340,116,37490,2,0,L|408:116,1,65,2|0,0:0|0:0,0:0:0:0:
204,116,37731,2,0,L|136:116,1,65,2|0,1:2|0:0,0:0:0:0:
244,116,37973,6,0,P|300:132|308:200,1,130,2|2,0:0|0:0,0:0:0:0:
244,196,38336,1,0,0:0:0:0:
48,196,38457,2,0,L|44:268,1,65,8|2,2:3|0:0,0:0:0:0:
148,260,38699,2,0,L|80:260,1,65,0|0,0:0|0:0,0:0:0:0:
300,260,38941,6,0,P|328:196|288:156,1,130,2|0,1:2|0:0,0:0:0:0:
96,156,39304,2,0,P|68:92|108:52,1,130,2|0,1:2|0:0,0:0:0:0:
320,60,39667,6,0,P|384:68|404:128,1,130,2|0,1:2|0:0,0:0:0:0:
208,128,40151,2,0,L|204:196,1,65,2|0,0:0|0:0,0:0:0:0:
308,196,40393,2,0,L|312:260,1,65,8|0,2:3|0:0,0:0:0:0:
116,264,40635,2,0,L|52:276,1,65,2|0,0:0|0:0,0:0:0:0:
288,276,40877,6,0,P|312:212|272:172,1,130,6|8,1:2|0:0,0:0:0:0:
76,172,41240,2,0,P|48:112|84:64,1,130,2|8,1:2|0:0,0:0:0:0:
296,64,41602,6,0,L|164:64,1,130,2|0,1:2|0:0,0:0:0:0:
232,64,41965,1,0,0:0:0:0:
428,64,42086,2,0,L|432:136,1,65,10|0,0:0|0:0,0:0:0:0:
348,128,42328,1,8,2:3:0:0:
432,128,42449,1,10,0:0:0:0:
236,128,42570,2,0,L|232:200,1,65,8|0,0:0|0:0,0:0:0:0:
448,196,42812,6,0,P|472:256|440:312,1,130,2|8,1:2|0:0,0:0:0:0:
244,312,43175,2,0,L|100:312,1,130,2|8,1:2|0:0,0:0:0:0:
332,312,43538,5,2,1:2:0:0:
416,308,43659,2,0,P|424:276|356:224,1,130
160,224,44022,1,10,0:0:0:0:
80,224,44143,1,0,0:0:0:0:
160,224,44264,1,8,2:3:0:0:
356,224,44385,2,0,P|388:200|348:136,1,130,2|0,0:0|0:0,0:0:0:0:
140,160,44748,6,0,P|76:144|64:84,1,130,0|8,1:2|0:0,0:0:0:0:
132,88,45111,1,0,1:2:0:0:
324,92,45231,2,0,L|325:160,1,65,2|8,0:0|0:0,0:0:0:0:
220,159,45473,2,0,L|219:223,1,65,2|8,1:2|0:0,0:0:0:0:
406,211,45715,6,0,L|471:211,1,65,2|8,0:0|0:0,0:0:0:0:
366,213,45957,2,0,L|302:221,1,65,10|8,0:0|0:0,0:0:0:0:
108,220,46199,2,0,L|104:156,1,65,10|8,2:3|0:0,0:0:0:0:
188,152,46441,1,10,0:0:0:0:
104,152,46562,1,8,0:0:0:0:
320,152,46683,6,0,L|460:152,3,130,2|0|0|0,0:0|0:0|0:0|0:0,0:0:0:0:
256,152,47651,2,0,L|108:152,2,130,2|0|0,0:0|0:0|0:0,0:0:0:0:
60,152,48377,1,2,0:0:0:0:
360,152,48619,5,2,3:2:0:0:
444,152,48740,2,0,P|472:216|444:264,1,130,2|2,3:2|3:2,0:0:0:0:
248,264,49223,1,2,3:2:0:0:
444,264,49465,1,2,3:2:0:0:
248,264,49586,5,2,3:2:0:0:
164,268,49707,2,0,P|136:216|168:156,1,130,2|2,3:2|3:2,0:0:0:0:
360,156,50191,2,0,P|388:92|352:48,1,130,2|0,3:2|0:0,0:0:0:0:
68,52,50554,6,0,P|40:112|72:160,1,130,14|0,1:2|0:0,0:0:0:0:
144,160,50917,1,0,0:0:0:0:
340,160,51038,1,0,3:2:0:0:
268,160,51159,1,2,0:0:0:0:
72,160,51280,1,2,0:0:0:0:
68,224,51401,1,0,0:0:0:0:
284,224,51522,6,0,P|312:292|280:328,1,130,2|0,1:2|0:0,0:0:0:0:
80,328,51885,1,2,0:0:0:0:
152,328,52006,1,0,3:2:0:0:
360,328,52127,2,0,P|388:260|356:224,1,130,2|0,0:0|0:0,0:0:0:0:
140,224,52490,6,0,P|104:288|140:336,1,130,2|0,1:2|0:0,0:0:0:0:
200,332,52852,1,0,0:0:0:0:
396,328,52973,1,0,3:2:0:0:
400,256,53094,1,0,0:0:0:0:
204,256,53215,1,2,0:0:0:0:
132,256,53336,1,2,0:0:0:0:
348,256,53457,5,2,1:2:0:0:
420,256,53578,1,2,0:0:0:0:
348,256,53699,1,2,0:0:0:0:
152,256,53820,1,2,0:0:0:0:
80,256,53941,1,0,3:2:0:0:
276,256,54062,2,0,P|340:244|364:184,1,130,2|0,0:0|0:0,0:0:0:0:
148,196,54425,6,0,P|84:180|72:120,1,130,2|0,1:2|0:0,0:0:0:0:
140,108,54788,1,2,0:0:0:0:
336,104,54909,2,0,P|400:120|412:180,1,130,2|0,3:2|0:0,0:0:0:0:
344,192,55272,1,0,0:0:0:0:
128,196,55393,6,0,L|124:260,1,65,0|0,1:2|0:0,0:0:0:0:
208,260,55635,1,2,0:0:0:0:
124,260,55756,1,0,0:0:0:0:
320,260,55877,1,0,3:2:0:0:
392,260,55998,1,0,0:0:0:0:
196,260,56119,1,2,0:0:0:0:
124,260,56240,1,0,0:0:0:0:
340,260,56361,6,0,L|344:184,1,65,0|0,1:2|0:0,0:0:0:0:
240,192,56602,2,0,L|236:128,1,65,2|0,0:0|0:0,0:0:0:0:
432,128,56844,2,0,P|460:60|428:24,1,130,2|0,3:2|0:0,0:0:0:0:
356,24,57207,1,0,0:0:0:0:
140,24,57328,5,2,1:2:0:0:
68,24,57449,1,2,0:0:0:0:
140,24,57570,1,0,0:0:0:0:
336,24,57691,1,2,0:0:0:0:
408,24,57812,1,0,3:2:0:0:
212,24,57933,2,0,P|152:36|116:92,1,130,2|0,0:0|0:0,0:0:0:0:
352,24,58296,6,0,P|384:80|344:124,1,130,14|0,1:2|0:0,0:0:0:0:
276,124,58659,1,0,0:0:0:0:
80,124,58780,2,0,L|156:124,1,65,0|2,3:2|0:0,0:0:0:0:
344,124,59022,2,0,L|348:200,1,65,2|0,0:0|0:0,0:0:0:0:
132,192,59264,6,0,P|96:248|132:288,1,130,2|0,1:2|0:0,0:0:0:0:
328,292,59627,1,2,0:0:0:0:
400,292,59748,1,0,3:2:0:0:
204,292,59869,2,0,L|60:292,1,130,2|0,0:0|0:0,0:0:0:0:
288,292,60231,6,0,P|316:232|276:188,1,130,2|0,1:2|0:0,0:0:0:0:
208,192,60594,1,0,0:0:0:0:
404,192,60715,2,0,L|408:128,1,65,0|0,3:2|0:0,0:0:0:0:
212,124,60957,1,2,0:0:0:0:
284,124,61078,1,2,0:0:0:0:
88,124,61199,5,2,1:2:0:0:
16,124,61320,1,2,0:0:0:0:
88,124,61441,1,2,0:0:0:0:
284,124,61562,1,2,0:0:0:0:
356,124,61683,1,0,3:2:0:0:
160,124,61804,2,0,P|128:184|160:236,1,130,2|0,0:0|0:0,0:0:0:0:
372,236,62167,6,0,P|400:168|364:128,1,130,2|0,1:2|0:0,0:0:0:0:
296,132,62530,1,2,0:0:0:0:
100,132,62651,2,0,P|72:64|108:24,1,130,2|0,3:2|0:0,0:0:0:0:
176,28,63014,1,0,0:0:0:0:
372,32,63135,6,0,L|376:96,1,65,0|0,1:2|0:0,0:0:0:0:
272,100,63377,2,0,L|268:168,1,65,2|0,0:0|0:0,0:0:0:0:
464,168,63619,2,0,L|392:168,1,65,0|0,3:2|0:0,0:0:0:0:
204,168,63861,2,0,L|124:168,1,65,2|0,0:0|0:0,0:0:0:0:
352,168,64102,6,0,L|356:236,1,65,2|0,1:2|0:0,0:0:0:0:
252,232,64344,2,0,L|248:300,1,65,2|0,0:0|0:0,0:0:0:0:
444,296,64586,2,0,P|472:236|436:188,1,130,2|0,3:2|0:0,0:0:0:0:
136,192,65070,5,2,1:2:0:0:
331,192,65312,1,2,0:0:0:0:
32,193,65554,2,0,L|31:128,1,65,2|0,3:2|0:0,0:0:0:0:
227,124,65796,1,0,3:2:0:0:
423,124,65917,1,0,3:2:0:0:
196,124,66038,6,0,P|168:192|200:236,1,130,14|0,1:2|0:0,0:0:0:0:
268,236,66401,1,0,0:0:0:0:
464,236,66522,2,0,L|392:236,1,65,0|0,3:2|0:0,0:0:0:0:
204,236,66764,2,0,L|120:236,1,65,2|0,0:0|0:0,0:0:0:0:
356,236,67006,6,0,P|388:176|352:136,1,130,0|0,1:2|0:0,0:0:0:0:
280,136,67369,1,0,0:0:0:0:
84,136,67490,2,0,P|52:76|88:36,1,130,2|0,3:2|0:0,0:0:0:0:
160,36,67852,1,0,0:0:0:0:
372,36,67973,6,0,L|376:112,1,65,0|0,1:2|0:0,0:0:0:0:
272,100,68215,2,0,L|268:176,1,65,2|0,0:0|0:0,0:0:0:0:
464,172,68457,2,0,L|380:172,1,65,2|0,3:2|0:0,0:0:0:0:
204,168,68699,2,0,L|116:168,1,65,2|0,0:0|0:0,0:0:0:0:
356,168,68941,6,0,L|360:236,1,65,2|0,1:2|0:0,0:0:0:0:
256,232,69183,2,0,L|252:300,1,65,2|0,0:0|0:0,0:0:0:0:
448,296,69425,2,0,P|480:232|440:200,1,130,2|0,3:2|0:0,0:0:0:0:
372,200,69788,1,0,0:0:0:0:
156,200,69909,6,0,P|96:176|88:116,1,130,2|0,1:2|0:0,0:0:0:0:
160,116,70272,1,0,0:0:0:0:
356,116,70393,2,0,L|280:116,1,65,0|0,3:2|0:0,0:0:0:0:
96,116,70635,2,0,L|168:116,1,65,2|0,0:0|0:0,0:0:0:0:
376,116,70877,6,0,P|408:176|372:216,1,130,0|0,1:2|0:0,0:0:0:0:
300,216,71240,1,0,0:0:0:0:
104,212,71361,2,0,P|72:272|108:312,1,130,2|0,3:2|0:0,0:0:0:0:
180,312,71723,1,0,0:0:0:0:
392,312,71844,6,0,L|396:244,1,65,0|0,1:2|0:0,0:0:0:0:
312,248,72086,1,0,0:0:0:0:
396,248,72207,1,0,0:0:0:0:
200,248,72328,2,0,L|128:248,1,65,0|0,3:2|0:0,0:0:0:0:
332,248,72570,2,0,L|400:248,1,65,2|0,0:0|0:0,0:0:0:0:
180,248,72812,6,0,L|176:180,1,65,0|0,1:2|0:0,0:0:0:0:
276,188,73054,2,0,L|280:124,1,65,2|0,0:0|0:0,0:0:0:0:
84,124,73296,2,0,P|52:68|96:20,1,130,2|0,3:2|0:0,0:0:0:0:
160,24,73659,1,0,0:0:0:0:
396,28,73780,6,0,P|424:92|392:140,1,130,14|0,1:2|0:0,0:0:0:0:
324,140,74143,1,0,0:0:0:0:
128,136,74264,2,0,L|204:136,1,65,0|0,3:2|0:0,0:0:0:0:
388,140,74506,2,0,L|392:208,1,65,2|0,0:0|0:0,0:0:0:0:
176,208,74748,6,0,P|112:232|100:296,1,130,0|0,1:2|0:0,0:0:0:0:
168,288,75111,1,0,0:0:0:0:
360,292,75231,2,0,P|424:268|436:204,1,130,2|0,3:2|0:0,0:0:0:0:
368,212,75594,1,0,0:0:0:0:
152,208,75715,6,0,L|148:144,1,65,0|0,1:2|0:0,0:0:0:0:
252,144,75957,2,0,L|256:80,1,65,2|0,0:0|0:0,0:0:0:0:
60,80,76199,2,0,L|140:80,1,65,2|0,3:2|0:0,0:0:0:0:
320,80,76441,2,0,L|404:76,1,65,2|0,0:0|0:0,0:0:0:0:
168,80,76683,6,0,L|164:144,1,65,2|0,1:2|0:0,0:0:0:0:
268,148,76925,2,0,L|272:224,1,65,2|0,0:0|0:0,0:0:0:0:
76,212,77167,2,0,P|40:268|76:316,1,130,2|0,3:2|0:0,0:0:0:0:
144,316,77530,1,0,0:0:0:0:
360,316,77651,6,0,P|388:256|348:216,1,130,2|0,1:2|0:0,0:0:0:0:
276,216,78014,1,0,0:0:0:0:
80,216,78135,2,0,L|160:216,1,65,0|0,3:2|0:0,0:0:0:0:
340,216,78377,2,0,L|420:216,1,65,2|0,0:0|0:0,0:0:0:0:
188,216,78619,6,0,P|128:192|108:132,1,130,0|0,1:2|0:0,0:0:0:0:
180,132,78981,1,0,0:0:0:0:
376,132,79102,2,0,P|436:108|456:48,1,130,2|0,3:2|0:0,0:0:0:0:
384,48,79465,1,0,0:0:0:0:
168,48,79586,6,0,L|164:120,1,65,0|0,1:2|0:0,0:0:0:0:
268,112,79828,2,0,L|272:180,1,65,2|0,0:0|0:0,0:0:0:0:
76,184,80070,2,0,L|72:256,1,65,2|0,3:2|0:0,0:0:0:0:
268,248,80312,1,2,3:2:0:0:
72,248,80433,6,0,P|17:188|95:138,1,195,0|2,3:2|0:0,0:0:0:0:
287,142,81038,2,0,L|79:140,1,195,2|0,0:0|0:0,0:0:0:0:
316,208,81522,6,0,P|352:268|316:304,1,130,2|0,1:2|0:0,0:0:0:0:
252,304,81885,1,0,0:0:0:0:
148,304,82006,2,0,L|216:304,1,65,2|0,0:0|0:0,0:0:0:0:
408,304,82248,2,0,L|412:232,1,65,2|0,0:0|0:0,0:0:0:0:
308,240,82490,5,2,0:0:0:0:
112,240,82731,1,0,1:2:0:0:
308,240,82973,2,0,L|384:240,1,65,2|0,0:0|1:2,0:0:0:0:
176,240,83215,2,0,L|108:240,1,65,2|0,0:0|0:0,0:0:0:0:
328,240,83457,6,0,P|364:200|328:144,1,130,2|0,1:2|0:0,0:0:0:0:
264,144,83820,1,0,0:0:0:0:
160,144,83941,2,0,L|156:80,1,65
352,80,84183,5,2,0:0:0:0:
416,80,84304,2,0,P|420:144|368:172,1,130,0|0,0:0|0:0,0:0:0:0:
172,168,84667,1,2,1:2:0:0:
368,168,84909,2,0,L|424:168,1,32.5
324,168,85030,2,0,L|288:168,2,32.5,0|0|2,1:2|0:0|0:0,0:0:0:0:
428,168,85272,1,0,0:0:0:0:
212,168,85393,6,0,P|156:176|140:240,1,130,2|0,1:2|0:0,0:0:0:0:
204,240,85756,1,0,0:0:0:0:
308,240,85877,2,0,L|312:176,1,65,2|0,0:0|0:0,0:0:0:0:
116,176,86119,2,0,L|112:112,1,65,2|0,0:0|0:0,0:0:0:0:
216,108,86361,5,2,0:0:0:0:
412,108,86602,1,0,1:2:0:0:
216,108,86844,2,0,L|140:108,1,65,2|0,0:0|1:2,0:0:0:0:
348,108,87086,2,0,L|412:108,1,65,2|0,0:0|0:0,0:0:0:0:
196,108,87328,5,0,1:2:0:0:
392,108,87570,2,0,P|428:168|388:204,1,130,2|0,0:0|0:0,0:0:0:0:
328,204,87933,1,0,0:0:0:0:
132,204,88054,5,2,0:0:0:0:
68,208,88175,2,0,P|72:272|128:296,1,130
324,296,88538,2,0,L|404:296,1,65,2|0,1:2|0:0,0:0:0:0:
192,296,88780,2,0,L|112:296,1,65,2|0,0:0|0:0,0:0:0:0:
344,296,89022,5,2,0:0:0:0:
