osu file format v14

[General]
AudioFilename: audio.mp3
AudioLeadIn: 0
PreviewTime: 49465
Countdown: 0
SampleSet: Soft
StackLeniency: 0.7
Mode: 2
LetterboxInBreaks: 0
WidescreenStoryboard: 1

[Editor]
DistanceSpacing: 1
BeatDivisor: 4
GridSize: 4
TimelineZoom: 1.1

[Metadata]
Title:TWISTED HEARTS (TV Size)
TitleUnicode:TWISTED HEARTS (TV Size)
Artist:Hatanaka Tasuku
ArtistUnicode:畠中祐
Creator:rew0825
Version:Cup
Source:憂国のモリアーティ
Tags:Yuukoku no Moriarty the Patriot Patriotism 2nd Season Anime Japanese J-Pop JPop Pop Male Vocal OP Opening Sherlock Holmes William James Arthur Conan Doyle Gorou ゴロー
BeatmapID:3133249
BeatmapSetID:1524741

[Difficulty]
HPDrainRate:2
CircleSize:2.5
OverallDifficulty:5.7
ApproachRate:5.7
SliderMultiplier:1.81
SliderTickRate:2

[Events]
//Background and Video events
Video,-375,"VDO.mp4"
0,0,"BG.jpeg",0,0
//Break Periods
//Storyboard Layer 0 (Background)
//Storyboard Layer 1 (Fail)
//Storyboard Layer 2 (Pass)
//Storyboard Layer 3 (Foreground)
//Storyboard Layer 4 (Overlay)
//Storyboard Sound Samples

[TimingPoints]
232,483.870967741935,4,2,1,40,1,0
4102,-100,4,2,2,40,0,0
4223,-100,4,2,1,40,0,0
7973,-100,4,2,1,50,0,0
15715,-100,4,2,1,25,0,0
17651,-100,4,2,2,40,0,0
17772,-100,4,2,1,40,0,0
19586,-100,4,2,2,40,0,0
19707,-100,4,2,1,40,0,0
21522,-100,4,2,2,40,0,0
21643,-100,4,2,1,30,0,0
23457,-100,4,2,2,40,0,0
23578,-100,4,2,1,30,0,0
25393,-100,4,2,2,50,0,0
25514,-100,4,2,1,50,0,0
29385,-100,4,2,1,40,0,0
29990,-100,4,2,1,50,0,0
30111,-100,4,2,1,40,0,0
31199,-100,4,2,1,50,0,0
31320,-100,4,2,1,40,0,0
31925,-100,4,2,1,50,0,0
32046,-100,4,2,1,40,0,0
33135,-100,4,2,1,60,0,0
34586,-100,4,2,3,60,0,0
34707,-100,4,2,1,60,0,0
36522,-100,4,2,3,60,0,0
36643,-100,4,2,1,60,0,0
38457,-100,4,2,3,60,0,0
38578,-100,4,2,1,60,0,0
40393,-100,4,2,3,60,0,0
40514,-100,4,2,1,60,0,0
42328,-100,4,2,3,60,0,0
42449,-100,4,2,1,60,0,0
44264,-100,4,2,3,60,0,0
44385,-100,4,2,1,60,0,0
46199,-100,4,2,3,60,0,0
46320,-100,4,2,1,60,0,0
46683,-100,4,2,1,50,0,0
48619,-100,4,2,4,60,0,0
49586,-100,4,2,4,65,0,0
50554,-100,4,2,3,70,0,1
65977,-100,4,2,3,70,0,0
66038,-100,4,2,3,70,0,1
80433,-100,4,2,3,60,0,1
81522,-100,4,2,1,50,0,0

[Colours]
Combo1 : 227,204,108
Combo2 : 70,108,208
Combo3 : 201,61,85

[HitObjects]
380,300,232,6,0,L|132:188,1,271.5,2|2,0:0|0:0,0:0:0:0:
132,188,1683,1,2,0:0:0:0:
312,188,2167,6,0,P|296:112|128:68,1,271.5,2|2,0:0|0:0,0:0:0:0:
312,80,3377,2,0,L|316:180,1,90.5,2|2,0:0|0:0,0:0:0:0:
132,300,4102,6,0,L|380:188,1,271.5,2|2,3:2|0:0,0:0:0:0:
376,188,5553,1,2,0:0:0:0:
200,188,6038,6,0,P|216:112|384:68,1,271.5,2|2,0:0|0:0,0:0:0:0:
200,80,7248,2,0,L|196:180,1,90.5,2|2,0:0|0:0,0:0:0:0:
376,188,7973,6,0,P|428:244|368:308,1,181,2|2,1:2|0:0,0:0:0:0:
188,316,8941,2,0,P|112:300|92:208,1,181,2|2,0:0|0:0,0:0:0:0:
272,212,9909,6,0,P|336:200|360:96,1,181,2|0,1:2|0:0,0:0:0:0:
264,100,10635,1,2,0:0:0:0:
84,96,11119,2,0,P|28:152|88:216,1,181,2|2,1:2|0:0,0:0:0:0:
184,220,11844,6,0,P|256:236|288:332,1,181,2|2,1:2|0:0,0:0:0:0:
108,332,12812,2,0,P|56:280|120:216,1,181,2|2,0:0|0:0,0:0:0:0:
300,212,13780,5,0,1:2:0:0:
399,210,14022,2,0,P|443:150|379:82,1,181,2|2,0:0|0:0,0:0:0:0:
203,82,14990,1,2,1:2:0:0:
112,79,15231,1,2,0:0:0:0:
211,81,15473,5,2,0:0:0:0:
256,192,15957,12,0,17167,0:0:0:0:
164,336,17651,6,0,L|159:153,1,181,0|2,3:2|0:0,0:0:0:0:
356,236,18619,2,0,L|359:51,1,181,2|2,0:0|0:0,0:0:0:0:
160,100,19586,6,0,P|88:112|56:208,1,181,2|2,3:2|0:0,0:0:0:0:
156,204,20312,1,2,0:0:0:0:
336,200,20796,2,0,P|408:212|440:308,1,181,2|2,0:0|0:0,0:0:0:0:
340,308,21522,5,2,3:2:0:0:
160,308,22006,1,2,0:0:0:0:
164,128,22490,1,0,0:0:0:0:
264,128,22731,2,0,P|348:124|408:52,1,181,2|2,0:0|0:0,0:0:0:0:
308,52,23457,6,0,P|228:56|200:144,1,181,2|0,3:2|0:0,0:0:0:0:
300,144,24183,1,2,0:0:0:0:
480,104,24667,2,0,P|496:164|408:224,1,181,2|2,0:0|0:0,0:0:0:0:
312,220,25393,6,0,P|228:228|196:320,1,181,4|2,1:2|0:0,0:0:0:0:
376,324,26361,2,0,P|424:252|364:200,1,181,2|2,0:0|0:0,0:0:0:0:
184,204,27328,6,0,P|128:168|192:104,1,181,2|2,1:2|0:0,0:0:0:0:
280,104,28054,1,2,1:2:0:0:
100,104,28538,2,0,P|48:156|108:224,1,181,2|2,3:2|0:0,0:0:0:0:
200,228,29264,6,0,P|280:232|336:312,1,181,0|2,1:2|0:0,0:0:0:0:
248,344,29990,1,0,1:2:0:0:
428,344,30473,2,0,P|476:288|408:232,1,181,2|2,3:2|0:0,0:0:0:0:
308,232,31199,6,0,P|268:160|336:108,1,181,2|2,1:2|0:0,0:0:0:0:
432,108,31925,1,2,1:2:0:0:
252,108,32409,2,0,P|196:156|256:224,1,181,2|2,3:2|0:0,0:0:0:0:
356,200,33135,6,0,P|316:252|248:264,1,135.75,6|2,1:2|1:2,0:0:0:0:
112,204,33861,2,0,P|64:164|96:64,1,181,2|2,1:2|0:0,0:0:0:0:
192,60,34586,1,8,2:3:0:0:
376,60,35070,6,0,P|412:100|364:156,1,135.75,2|2,1:2|1:2,0:0:0:0:
220,148,35796,2,0,P|260:200|368:228,1,181,2|2,1:2|0:0,0:0:0:0:
368,288,36522,1,8,2:3:0:0:
188,288,37006,6,0,P|136:264|164:164,1,181,2|2,1:2|0:0,0:0:0:0:
344,164,37973,2,0,P|408:156|448:56,1,181,2|8,0:0|2:3,0:0:0:0:
360,68,38699,1,0,0:0:0:0:
260,80,38941,6,0,P|188:96|168:160,1,135.75,2|2,1:2|1:2,0:0:0:0:
312,152,39667,2,0,P|412:152|456:220,1,181,2|2,1:2|0:0,0:0:0:0:
356,220,40393,1,8,2:3:0:0:
176,220,40877,6,0,P|140:176|192:116,1,135.75,6|2,1:2|1:2,0:0:0:0:
324,116,41602,2,0,P|380:172|312:224,1,181,2|10,1:2|0:0,0:0:0:0:
220,224,42328,1,8,2:3:0:0:
40,224,42812,6,0,P|52:172|128:136,1,135.75,2|2,1:2|1:2,0:0:0:0:
264,148,43538,2,0,P|236:104|112:80,1,181,2|10,1:2|0:0,0:0:0:0:
116,168,44264,1,8,2:3:0:0:
296,168,44748,6,0,P|352:220|288:280,1,181,0|2,1:2|0:0,0:0:0:0:
196,284,45473,1,2,1:2:0:0:
292,284,45715,2,0,P|352:268|348:164,1,181,2|10,0:0|2:3,0:0:0:0:
168,244,46683,6,0,L|164:60,1,181,2|0,0:0|0:0,0:0:0:0:
344,64,47651,2,0,L|348:252,1,181,2|0,0:0|0:0,0:0:0:0:
168,240,48619,6,0,P|128:296|172:344,1,135.75,2|2,3:2|3:2,0:0:0:0:
260,348,49223,1,2,3:2:0:0:
396,348,49586,2,0,P|460:329|478:268,1,135.75,2|2,3:2|3:2,0:0:0:0:
387,267,50191,1,2,3:2:0:0:
224,257,50554,6,0,P|148:208|164:128,1,181,14|0,1:2|3:2,0:0:0:0:
264,128,51280,1,2,0:0:0:0:
164,128,51522,2,0,P|96:120|40:24,1,181,2|0,1:2|3:2,0:0:0:0:
220,24,52490,6,0,P|296:40|332:136,1,181,2|0,1:2|3:2,0:0:0:0:
236,128,53215,1,2,0:0:0:0:
140,136,53457,2,0,P|84:196|148:252,1,181,2|0,1:2|3:2,0:0:0:0:
336,252,54425,6,0,P|392:196|332:136,1,181,2|2,1:2|3:2,0:0:0:0:
152,140,55393,1,0,1:2:0:0:
52,140,55635,2,0,P|64:200|168:240,1,181,2|2,0:0|0:0,0:0:0:0:
264,240,56361,6,0,P|312:176|244:120,1,181,0|2,1:2|3:2,0:0:0:0:
68,108,57328,2,0,P|36:168|80:228,1,135.75,2|2,1:2|0:0,0:0:0:0:
168,224,57933,1,2,0:0:0:0:
316,224,58296,6,0,P|368:160|308:104,1,181,14|0,1:2|3:2,0:0:0:0:
208,104,59022,1,2,0:0:0:0:
308,104,59264,2,0,P|376:116|408:216,1,181,2|0,1:2|3:2,0:0:0:0:
228,236,60231,6,0,P|160:204|156:104,1,181,2|0,1:2|3:2,0:0:0:0:
244,112,60957,1,2,0:0:0:0:
336,108,61199,2,0,P|384:164|320:232,1,181,2|0,1:2|3:2,0:0:0:0:
144,208,62167,6,0,P|88:264|156:324,1,181,2|2,1:2|3:2,0:0:0:0:
328,332,63135,1,0,1:2:0:0:
428,328,63377,2,0,P|456:256|384:200,1,181,2|2,0:0|0:0,0:0:0:0:
284,204,64102,6,0,L|100:204,1,181,2|2,1:2|3:2,0:0:0:0:
284,204,65070,1,2,1:2:0:0:
380,200,65312,1,2,0:0:0:0:
284,204,65554,1,2,3:2:0:0:
104,204,66038,6,0,P|48:260|120:324,1,181,14|0,1:2|3:2,0:0:0:0:
284,328,67006,2,0,P|352:320|384:224,1,181,0|2,1:2|3:2,0:0:0:0:
204,212,67973,6,0,P|160:164|224:88,1,181,0|2,1:2|3:2,0:0:0:0:
316,88,68699,1,2,0:0:0:0:
220,88,68941,2,0,P|128:104|96:184,1,181,2|2,1:2|3:2,0:0:0:0:
276,184,69909,6,0,P|352:196|384:288,1,181,2|0,1:2|3:2,0:0:0:0:
204,304,70877,2,0,P|144:276|152:172,1,181,0|2,1:2|3:2,0:0:0:0:
332,188,71844,6,0,P|388:248|324:308,1,181,0|0,1:2|3:2,0:0:0:0:
232,308,72570,2,0,P|144:300|108:144,1,271.5,2|2,0:0|3:2,0:0:0:0:
288,148,73780,6,0,P|352:136|388:32,1,181,14|0,1:2|3:2,0:0:0:0:
208,36,74748,2,0,P|132:56|104:152,1,181,0|2,1:2|3:2,0:0:0:0:
284,156,75715,6,0,P|332:212|268:280,1,181,0|2,1:2|3:2,0:0:0:0:
180,276,76441,1,2,0:0:0:0:
272,276,76683,2,0,P|344:264|380:172,1,181,2|2,1:2|3:2,0:0:0:0:
204,216,77651,6,0,P|136:204|108:104,1,181,2|0,1:2|3:2,0:0:0:0:
284,72,78619,2,0,P|356:80|380:176,1,181,0|2,1:2|3:2,0:0:0:0:
200,164,79586,6,0,P|148:208|208:284,1,181,0|2,1:2|3:2,0:0:0:0:
296,288,80312,2,0,P|396:280|444:216,1,181,2|2,3:2|0:0,0:0:0:0:
352,208,81038,1,2,0:0:0:0:
172,208,81522,6,0,P|104:192|68:88,1,181,2|2,1:2|0:0,0:0:0:0:
248,108,82490,2,0,P|312:120|344:228,1,181,2|2,0:0|0:0,0:0:0:0:
168,216,83457,6,0,P|124:148|192:92,1,181,2|0,1:2|0:0,0:0:0:0:
280,88,84183,1,2,0:0:0:0:
460,88,84667,2,0,P|472:156|380:204,1,181,2|2,1:2|0:0,0:0:0:0:
288,204,85393,6,0,P|212:216|176:304,1,181,2|2,1:2|0:0,0:0:0:0:
356,312,86361,2,0,P|420:292|456:184,1,181,2|2,0:0|0:0,0:0:0:0:
276,184,87328,5,0,1:2:0:0:
184,184,87570,2,0,P|144:140|208:48,1,181,2|2,0:0|0:0,0:0:0:0:
336,48,88538,1,2,1:2:0:0:
341,147,88780,1,2,0:0:0:0:
241,150,89022,5,2,0:0:0:0:
