osu file format v14

[General]
AudioFilename: audio.mp3
AudioLeadIn: 0
PreviewTime: 56124
Countdown: 0
SampleSet: Soft
StackLeniency: 0.7
Mode: 2
LetterboxInBreaks: 0
WidescreenStoryboard: 1

[Editor]
DistanceSpacing: 1.8
BeatDivisor: 4
GridSize: 4
TimelineZoom: 2.1

[Metadata]
Title:DYING WISH (TV Size)
TitleUnicode:DYING WISH (TV Size)
Artist:Hatanaka Tasuku
ArtistUnicode:畠中祐
Creator:rew0825
Version:Salad
Source:憂国のモリアーティ
Tags:Yuukoku no Moriarty the Patriot Patriotism Anime Japanese J-Pop JPop Pop Male Vocal Vocals OP Opening Sherlock Holmes William James Arthur Conan Doyle Gorou ゴロー
BeatmapID:3144954
BeatmapSetID:1533842

[Difficulty]
HPDrainRate:3
CircleSize:3
OverallDifficulty:7
ApproachRate:7
SliderMultiplier:1.54
SliderTickRate:1

[Events]
//Background and Video events
0,0,"BG.jpg",0,0
Video,-20,"OP1.mp4"
//Break Periods
//Storyboard Layer 0 (Background)
//Storyboard Layer 1 (Fail)
//Storyboard Layer 2 (Pass)
//Storyboard Layer 3 (Foreground)
//Storyboard Layer 4 (Overlay)
//Storyboard Sound Samples

[TimingPoints]
691,342.857142857143,4,2,1,55,1,0
6348,-100,4,2,1,30,0,0
7376,-100,4,2,1,15,0,0
7548,-100,4,2,1,40,0,0
13033,-100,4,2,1,45,0,0
18519,-100,4,2,1,50,0,0
29490,-100,4,2,1,55,0,0
37719,-100,4,2,1,50,0,0
43205,-100,4,2,1,55,0,0
51433,-100,4,2,1,60,0,0
56233,-100,4,2,1,55,0,0
56919,-100,4,2,1,65,0,1
67805,-100,4,2,1,65,0,0
67891,-100,4,2,1,65,0,1
78862,-100,4,2,1,60,0,0
84433,-100,4,2,1,30,0,0
85719,-100,4,2,1,22,0,0
87090,-100,4,2,1,15,0,0

[Colours]
Combo1 : 227,204,108
Combo2 : 70,108,208
Combo3 : 201,61,85

[HitObjects]
180,344,691,6,0,L|176:188,1,154,4|0,2:3|0:0,0:0:0:0:
332,188,1376,2,0,L|336:32,1,154,2|0,0:0|0:0,0:0:0:0:
176,44,2062,6,0,P|104:56|72:124,1,154,2|0,0:0|0:0,0:0:0:0:
228,120,2748,2,0,L|408:120,1,154,2|0,0:0|0:0,0:0:0:0:
228,120,3433,6,0,P|184:180|236:228,1,154,2|2,0:0|0:0,0:0:0:0:
308,228,3948,1,0,0:0:0:0:
384,228,4119,2,0,P|428:276|376:336,1,154,2|2,0:0|0:0,0:0:0:0:
228,332,4805,6,0,P|168:316|140:236,1,154,2|0,0:0|0:0,0:0:0:0:
216,232,5319,1,0,0:0:0:0:
296,232,5491,2,0,P|368:216|392:144,1,154,2|0,0:0|0:0,0:0:0:0:
116,140,6176,5,4,2:3:0:0:
256,192,6519,12,0,7205,0:0:0:0:
200,192,7548,6,0,L|28:192,2,154,0|0|0,0:0|0:0|0:0,0:0:0:0:
352,192,8576,2,0,L|356:116,1,77,2|2,0:0|0:0,0:0:0:0:
280,116,8919,5,2,0:0:0:0:
204,116,9091,2,0,P|160:160|208:224,1,154,2|2,0:0|0:0,0:0:0:0:
284,224,9605,2,0,L|120:224,1,154,2|2,0:0|0:0,0:0:0:0:
284,224,10291,6,0,L|460:224,2,154,2|0|0,0:0|0:0|0:0,0:0:0:0:
128,224,11319,2,0,L|124:148,1,77,2|2,0:0|0:0,0:0:0:0:
200,148,11662,5,2,0:0:0:0:
280,147,11833,2,0,L|284:226,1,77,2|2,0:0|0:0,0:0:0:0:
128,224,12348,2,0,L|48:224,2,77,2|2|2,0:0|0:0|0:0,0:0:0:0:
404,232,13033,6,0,P|448:192|400:128,1,154,4|0,2:3|0:0,0:0:0:0:
244,128,13719,1,0,0:0:0:0:
168,132,13891,1,2,0:0:0:0:
172,208,14062,1,2,0:0:0:0:
248,212,14233,1,2,0:0:0:0:
324,212,14405,6,0,P|388:208|428:132,1,154,2|2,0:0|0:0,0:0:0:0:
272,132,15091,1,2,0:0:0:0:
268,208,15262,1,2,0:0:0:0:
344,208,15433,1,2,0:0:0:0:
348,284,15605,1,2,0:0:0:0:
272,284,15776,6,0,P|200:272|168:204,1,154,2|0,0:0|0:0,0:0:0:0:
324,200,16462,1,0,0:0:0:0:
396,184,16633,1,2,0:0:0:0:
432,120,16805,1,2,0:0:0:0:
396,184,16976,1,2,0:0:0:0:
324,200,17148,5,2,0:0:0:0:
168,200,17491,1,2,0:0:0:0:
96,200,17662,1,2,0:0:0:0:
168,200,17833,1,2,0:0:0:0:
324,200,18176,1,2,0:0:0:0:
328,124,18348,1,0,0:0:0:0:
160,120,18519,6,0,P|112:152|152:224,1,154,6|0,2:3|0:0,0:0:0:0:
228,224,19033,1,10,0:0:0:0:
268,288,19205,1,2,0:0:0:0:
228,224,19376,1,2,0:0:0:0:
152,224,19548,1,10,0:0:0:0:
308,224,19891,6,0,P|376:216|408:144,1,154,2|2,1:2|0:0,0:0:0:0:
332,140,20405,1,2,0:0:0:0:
300,72,20576,1,10,0:0:0:0:
332,140,20748,1,2,0:0:0:0:
408,144,20919,1,10,0:0:0:0:
252,144,21262,6,0,P|204:184|252:244,1,154,8|0,1:2|0:0,0:0:0:0:
328,244,21776,1,10,0:0:0:0:
172,248,22119,1,2,0:0:0:0:
96,248,22291,1,10,0:0:0:0:
172,248,22462,6,0,P|240:240|268:164,1,154,2|8,0:0|0:0,0:0:0:0:
192,168,22976,1,2,0:0:0:0:
116,168,23148,2,0,P|56:156|40:72,1,154,2|2,0:0|0:0,0:0:0:0:
116,68,23662,1,10,0:0:0:0:
392,64,24005,6,0,P|436:104|388:168,1,154,8|0,1:2|0:0,0:0:0:0:
316,160,24519,1,10,0:0:0:0:
276,96,24691,1,2,0:0:0:0:
316,160,24862,1,2,0:0:0:0:
392,168,25033,1,10,0:0:0:0:
236,168,25376,6,0,P|191:215|240:276,1,154,2|2,1:2|0:0,0:0:0:0:
316,276,25891,1,2,0:0:0:0:
356,212,26062,1,10,0:0:0:0:
316,276,26233,1,2,0:0:0:0:
236,276,26405,1,10,0:0:0:0:
80,272,26748,6,0,P|36:224|84:160,1,154,8|0,1:2|0:0,0:0:0:0:
156,164,27262,1,10,0:0:0:0:
312,160,27605,1,2,0:0:0:0:
316,84,27776,1,10,0:0:0:0:
240,84,27948,6,0,P|188:92|164:180,1,154,2|8,0:0|0:0,0:0:0:0:
240,184,28462,1,2,0:0:0:0:
392,184,28805,2,0,P|452:200|464:284,1,154,10|10,0:0|0:0,0:0:0:0:
388,284,29319,1,8,0:0:0:0:
216,284,29491,6,0,L|56:284,1,154,6|0,1:2|1:2,0:0:0:0:
216,288,30176,1,0,1:2:0:0:
292,276,30348,1,2,0:0:0:0:
328,208,30519,1,2,1:2:0:0:
292,276,30691,1,2,0:0:0:0:
216,288,30862,6,0,L|36:288,1,154,8|0,1:2|1:2,0:0:0:0:
216,288,31548,1,0,1:2:0:0:
140,288,31719,1,2,0:0:0:0:
62,288,31891,1,2,1:2:0:0:
340,216,32233,6,0,P|412:196|432:124,1,154,10|2,1:2|1:2,0:0:0:0:
356,124,32748,1,2,0:0:0:0:
204,116,33091,2,0,P|152:136|172:216,1,154,2|2,0:0|0:0,0:0:0:0:
248,220,33605,6,0,P|308:232|328:316,1,154,8|2,1:2|1:2,0:0:0:0:
172,308,34291,1,2,1:2:0:0:
96,300,34462,1,0,0:0:0:0:
72,228,34633,1,2,1:2:0:0:
120,168,34805,1,0,0:0:0:0:
288,168,34976,6,0,L|444:168,1,154,8|0,1:2|1:2,0:0:0:0:
288,168,35662,1,0,1:2:0:0:
212,156,35833,1,2,0:0:0:0:
172,92,36005,1,2,1:2:0:0:
212,156,36176,1,2,0:0:0:0:
288,168,36348,6,0,L|464:168,1,154,8|0,1:2|1:2,0:0:0:0:
288,168,37033,1,0,1:2:0:0:
364,168,37205,1,2,0:0:0:0:
440,168,37376,1,2,1:2:0:0:
164,168,37719,6,0,P|120:208|168:276,1,154,10|0,1:2|0:0,0:0:0:0:
244,276,38233,1,10,0:0:0:0:
248,200,38405,1,2,0:0:0:0:
92,200,38748,1,10,0:0:0:0:
248,200,39091,6,0,L|416:200,1,154,2|2,0:0|0:0,0:0:0:0:
248,200,39776,1,10,0:0:0:0:
172,200,39948,1,2,0:0:0:0:
248,200,40119,1,10,0:0:0:0:
404,200,40462,6,0,P|444:144|392:84,1,154,8|0,0:0|0:0,0:0:0:0:
320,84,40976,1,10,0:0:0:0:
160,88,41319,2,0,L|156:164,1,77,2|10,0:0|0:0,0:0:0:0:
236,160,41662,6,0,P|304:164|328:244,1,154,2|8,0:0|0:0,0:0:0:0:
252,236,42176,1,2,0:0:0:0:
96,236,42519,2,0,P|60:176|112:124,1,154,10|10,0:0|0:0,0:0:0:0:
188,124,43033,1,2,0:0:0:0:
360,124,43205,6,0,P|404:168|348:236,1,154,4|0,1:2|1:2,0:0:0:0:
284,236,43719,1,8,0:0:0:0:
128,236,44062,1,2,0:0:0:0:
204,236,44233,1,10,0:0:0:0:
196,312,44405,1,2,0:0:0:0:
120,312,44576,6,0,P|80:272|128:204,1,154,2|0,1:2|1:2,0:0:0:0:
284,208,45262,2,0,P|352:200|380:128,1,154,8|10,1:2|1:2,0:0:0:0:
208,120,45776,6,0,P|148:128|120:208,1,154,10|0,0:0|0:0,0:0:0:0:
196,208,46291,1,2,1:2:0:0:
272,212,46462,2,0,P|336:232|348:312,1,154,10|2,0:0|0:0,0:0:0:0:
196,300,47148,6,0,P|156:248|208:188,1,154,2|8,0:0|0:0,0:0:0:0:
280,188,47662,1,2,1:2:0:0:
124,188,48005,2,0,P|76:172|56:80,1,154,10|10,1:2|1:2,0:0:0:0:
336,76,48691,6,0,P|408:80|440:152,1,154,2|0,1:2|1:2,0:0:0:0:
364,148,49205,1,8,0:0:0:0:
208,144,49548,1,2,0:0:0:0:
204,220,49719,1,10,1:2:0:0:
280,220,49891,1,2,0:0:0:0:
356,220,50062,6,0,P|400:260|356:328,1,154,2|0,1:2|1:2,0:0:0:0:
200,324,50748,1,8,1:2:0:0:
196,248,50919,1,2,0:0:0:0:
272,248,51091,1,2,1:2:0:0:
276,172,51262,1,10,0:0:0:0:
108,172,51433,5,2,1:2:0:0:
32,164,51605,2,0,P|16:96|72:40,1,154,8|8,0:3|0:0,0:0:0:0:
148,40,52119,1,8,1:3:0:0:
304,44,52462,1,8,1:2:0:0:
148,40,52805,5,0,1:2:0:0:
72,52,52976,1,8,0:0:0:0:
48,124,53148,1,8,1:3:0:0:
72,52,53319,1,8,0:0:0:0:
148,40,53491,1,0,1:2:0:0:
144,116,53662,1,8,2:3:0:0:
72,136,53833,1,0,1:2:0:0:
336,144,54176,6,0,P|376:180|328:252,1,154,2|2,1:2|1:2,0:0:0:0:
256,252,54691,1,8,2:3:0:0:
332,252,54862,1,8,1:3:0:0:
404,236,55033,1,0,0:0:0:0:
332,252,55205,1,2,1:2:0:0:
168,252,55376,1,2,1:2:0:0:
316,252,56233,6,0,L|480:252,1,154,2|2,0:0|0:0,0:0:0:0:
192,256,56919,6,0,L|24:256,2,154,6|8|0,1:2|0:0|1:2,0:0:0:0:
348,268,57948,1,10,0:0:0:0:
180,264,58119,6,0,P|140:212|196:156,1,154,2|0,0:0|0:0,0:0:0:0:
268,160,58633,1,8,0:0:0:0:
116,160,58976,1,0,1:2:0:0:
40,156,59148,1,2,0:0:0:0:
116,160,59319,1,10,0:0:0:0:
392,164,59662,6,0,P|432:100|380:52,1,154,2|10,1:2|0:0,0:0:0:0:
308,52,60176,1,2,0:0:0:0:
312,128,60348,1,0,1:2:0:0:
464,128,60691,1,10,0:0:0:0:
296,128,60862,6,0,P|232:144|216:224,1,154,2|2,0:0|0:0,0:0:0:0:
292,220,61376,1,8,0:0:0:0:
444,220,61719,1,0,1:2:0:0:
448,296,61891,1,2,0:0:0:0:
372,304,62062,1,10,0:0:0:0:
96,304,62405,6,0,P|56:256|104:192,1,154,2|10,1:2|0:0,0:0:0:0:
176,192,62919,1,2,0:0:0:0:
172,116,63091,1,0,1:2:0:0:
20,116,63433,1,10,0:0:0:0:
192,116,63605,6,0,P|256:128|276:212,1,154,2|2,0:0|0:0,0:0:0:0:
200,204,64119,1,8,0:0:0:0:
124,204,64291,2,0,P|60:232|48:312,1,154,2|2,0:0|0:0,0:0:0:0:
124,312,64805,1,8,0:0:0:0:
400,304,65148,6,0,P|440:248|392:188,1,154,2|8,1:2|0:0,0:0:0:0:
316,188,65662,1,2,0:0:0:0:
320,112,65833,1,2,1:2:0:0:
476,116,66176,1,10,0:0:0:0:
200,108,66519,6,0,P|160:156|208:220,1,154,2|8,1:2|0:0,0:0:0:0:
284,220,67033,1,2,0:0:0:0:
112,220,67205,2,0,P|52:204|28:120,1,154,2|8,1:2|0:0,0:0:0:0:
304,120,67891,6,0,L|480:120,2,154,6|8|0,1:2|0:0|1:2,0:0:0:0:
152,120,68919,1,10,0:0:0:0:
324,120,69091,6,0,P|368:160|320:224,1,154,2|0,0:0|0:0,0:0:0:0:
240,224,69605,1,8,0:0:0:0:
392,224,69948,1,0,1:2:0:0:
468,220,70119,1,2,0:0:0:0:
392,224,70291,1,10,0:0:0:0:
124,220,70633,6,0,P|120:168|204:144,1,154,2|10,1:2|0:0,0:0:0:0:
280,144,71148,1,2,0:0:0:0:
204,144,71319,1,0,1:2:0:0:
48,144,71662,1,10,0:0:0:0:
216,144,71833,6,0,P|284:160|300:240,1,154,2|2,0:0|0:0,0:0:0:0:
224,232,72348,1,8,0:0:0:0:
68,236,72691,1,0,1:2:0:0:
60,320,72862,2,0,P|92:272|184:248,1,154,2|2,0:0|0:0,0:0:0:0:
352,332,73376,6,0,P|396:284|348:220,1,154,2|10,1:2|0:0,0:0:0:0:
272,216,73891,1,2,0:0:0:0:
276,140,74062,1,0,1:2:0:0:
432,144,74405,1,10,0:0:0:0:
264,140,74576,6,0,P|192:160|176:236,1,154,2|2,0:0|0:0,0:0:0:0:
252,232,75091,1,8,0:0:0:0:
328,232,75262,2,0,P|404:216|424:140,1,154,2|2,0:0|0:0,0:0:0:0:
348,144,75776,1,8,0:0:0:0:
72,136,76119,5,2,1:2:0:0:
68,210,76291,1,0,1:2:0:0:
220,212,76633,1,2,1:2:0:0:
223,137,76805,1,2,1:2:0:0:
72,136,77148,1,10,0:0:0:0:
68,61,77319,1,0,1:2:0:0:
240,60,77491,6,0,P|316:80|332:148,1,154,2|8,0:0|0:0,0:0:0:0:
256,156,78005,1,2,0:0:0:0:
88,168,78176,2,0,P|44:216|92:284,1,154,2|8,1:2|0:0,0:0:0:0:
364,280,78862,6,0,L|368:120,1,154,6|0,1:2|1:2,0:0:0:0:
212,124,79548,2,0,L|208:284,1,154,2|8,1:2|1:2,0:0:0:0:
364,276,80233,6,0,P|420:272|452:188,1,154,2|0,1:2|1:2,0:0:0:0:
296,184,80919,2,0,L|124:180,1,154,10|0,1:2|1:2,0:0:0:0:
420,188,81605,6,0,P|456:140|404:72,1,154,2|2,1:2|1:2,0:0:0:0:
332,72,82119,1,8,0:0:0:0:
256,72,82291,2,0,P|212:116|260:184,1,154,2|10,1:2|1:2,0:0:0:0:
408,188,82976,6,0,P|448:240|396:300,1,154,2|2,1:2|1:2,0:0:0:0:
320,300,83491,1,8,0:0:0:0:
244,296,83662,2,0,L|404:296,1,154,2|10,1:2|1:2,0:0:0:0:
120,296,84348,5,6,1:2:0:0:
256,192,84691,12,0,87091,0:0:0:0:
