osu file format v14

[General]
AudioFilename: audio.mp3
AudioLeadIn: 0
PreviewTime: 56124
Countdown: 0
SampleSet: Soft
StackLeniency: 0.7
Mode: 2
LetterboxInBreaks: 0
WidescreenStoryboard: 1

[Editor]
DistanceSpacing: 1.1
BeatDivisor: 8
GridSize: 4
TimelineZoom: 2.1

[Metadata]
Title:DYING WISH (TV Size)
TitleUnicode:DYING WISH (TV Size)
Artist:Hatanaka Tasuku
ArtistUnicode:畠中祐
Creator:rew0825
Version:Cup
Source:憂国のモリアーティ
Tags:Yuukoku no Moriarty the Patriot Patriotism Anime Japanese J-Pop JPop Pop Male Vocal Vocals OP Opening Sherlock Holmes William James Arthur Conan Doyle Gorou ゴロー
BeatmapID:3145195
BeatmapSetID:1533842

[Difficulty]
HPDrainRate:2
CircleSize:2.5
OverallDifficulty:6
ApproachRate:6
SliderMultiplier:1.4
SliderTickRate:1

[Events]
//Background and Video events
0,0,"BG.jpg",0,0
Video,-20,"OP1.mp4"
//Break Periods
//Storyboard Layer 0 (Background)
//Storyboard Layer 1 (Fail)
//Storyboard Layer 2 (Pass)
//Storyboard Layer 3 (Foreground)
//Storyboard Layer 4 (Overlay)
//Storyboard Sound Samples

[TimingPoints]
691,342.857142857143,4,2,1,55,1,0
6348,-100,4,2,1,30,0,0
7376,-100,4,2,1,15,0,0
7548,-100,4,2,1,40,0,0
13033,-100,4,2,1,45,0,0
18519,-100,4,2,1,50,0,0
29490,-100,4,2,1,55,0,0
37719,-100,4,2,1,50,0,0
43205,-100,4,2,1,55,0,0
51433,-100,4,2,1,60,0,0
56233,-100,4,2,1,55,0,0
56919,-100,4,2,1,65,0,1
67805,-100,4,2,1,65,0,0
67891,-100,4,2,1,65,0,1
78862,-100,4,2,1,60,0,0
84433,-100,4,2,1,30,0,0
85719,-100,4,2,1,22,0,0
87090,-100,4,2,1,15,0,0

[Colours]
Combo1 : 227,204,108
Combo2 : 70,108,208
Combo3 : 201,61,85

[HitObjects]
112,356,691,6,0,P|28:296|124:192,1,280,4|2,2:3|0:0,0:0:0:0:
400,356,2062,6,0,P|484:296|388:192,1,280,2|2,0:0|0:0,0:0:0:0:
108,208,3433,6,0,L|104:64,1,140,2|2,0:0|0:0,0:0:0:0:
244,68,4119,2,0,L|248:208,1,140,2|2,0:0|0:0,0:0:0:0:
108,208,4805,6,0,L|232:272,1,140,2|0,0:0|0:0,0:0:0:0:
372,272,5491,2,0,L|248:208,1,140,2|0,0:0|0:0,0:0:0:0:
92,208,6176,5,4,2:3:0:0:
348,324,7548,6,0,P|424:288|340:164,1,280,0|0,0:0|0:0,0:0:0:0:
200,164,8576,1,2,0:0:0:0:
340,168,8919,6,0,P|416:184|448:360,1,280,2|2,0:0|0:0,0:0:0:0:
308,360,9948,1,2,0:0:0:0:
168,364,10291,6,0,P|88:304|184:196,1,280,2|0,0:0|0:0,0:0:0:0:
324,200,11319,1,2,0:0:0:0:
184,200,11662,6,0,P|112:184|80:128,1,140,2|2,0:0|0:0,0:0:0:0:
220,132,12348,2,0,P|296:128|348:68,1,140,2|2,0:0|0:0,0:0:0:0:
188,104,13033,6,0,P|152:152|188:216,1,140,4|0,2:3|0:0,0:0:0:0:
328,216,13719,2,0,P|364:160|324:104,1,140,0|2,0:0|0:0,0:0:0:0:
256,104,14233,1,2,0:0:0:0:
184,104,14405,6,0,P|124:116|96:184,1,140,2|2,0:0|0:0,0:0:0:0:
236,184,15091,2,0,P|268:240|228:296,1,140,2|2,0:0|0:0,0:0:0:0:
160,292,15605,1,2,0:0:0:0:
228,296,15776,6,0,P|300:284|336:224,1,140,2|0,0:0|0:0,0:0:0:0:
196,212,16462,2,0,P|168:152|208:92,1,140,0|2,0:0|0:0,0:0:0:0:
276,96,16976,1,2,0:0:0:0:
348,96,17148,6,0,P|384:144|340:208,1,140,2|2,0:0|0:0,0:0:0:0:
208,204,17833,1,2,0:0:0:0:
348,204,18176,1,2,0:0:0:0:
192,204,18519,6,0,P|132:216|96:284,1,140,6|0,2:3|0:0,0:0:0:0:
236,288,19205,1,2,0:0:0:0:
304,280,19376,1,2,0:0:0:0:
236,288,19548,1,10,0:0:0:0:
96,288,19891,6,0,P|64:228|108:172,1,140,2|2,1:2|0:0,0:0:0:0:
240,180,20576,1,10,0:0:0:0:
308,168,20748,1,2,0:0:0:0:
240,180,20919,1,10,0:0:0:0:
100,180,21262,6,0,P|44:124|120:40,1,210,8|10,1:2|0:0,0:0:0:0:
256,44,22119,1,2,0:0:0:0:
396,44,22462,6,0,P|432:100|392:152,1,140,2|8,0:0|0:0,0:0:0:0:
252,148,23148,2,0,P|188:164|168:232,1,140,2|2,0:0|0:0,0:0:0:0:
236,228,23662,1,10,0:0:0:0:
392,228,24005,6,0,P|420:160|384:112,1,140,8|0,1:2|0:0,0:0:0:0:
244,116,24691,1,2,0:0:0:0:
180,128,24862,1,2,0:0:0:0:
184,200,25033,1,10,0:0:0:0:
324,204,25376,6,0,P|388:212|408:280,1,140,2|2,1:2|0:0,0:0:0:0:
268,284,26062,1,10,0:0:0:0:
200,276,26233,1,2,0:0:0:0:
268,284,26405,1,10,0:0:0:0:
408,288,26748,6,0,P|468:224|396:152,1,210,8|10,1:2|0:0,0:0:0:0:
256,152,27605,1,2,0:0:0:0:
116,152,27948,6,0,P|60:112|124:16,1,210,2|2,0:0|0:0,0:0:0:0:
264,24,28805,2,0,P|336:32|372:84,1,140,10|10,0:0|0:0,0:0:0:0:
216,100,29491,6,0,P|176:152|212:208,1,140,6|0,1:2|1:2,0:0:0:0:
352,212,30176,2,0,P|388:272|348:320,1,140,0|2,1:2|1:2,0:0:0:0:
280,320,30691,1,2,0:0:0:0:
212,320,30862,6,0,P|152:300|124:232,1,140,8|0,1:2|1:2,0:0:0:0:
264,228,31548,1,0,1:2:0:0:
332,208,31719,1,2,0:0:0:0:
264,228,31891,1,2,1:2:0:0:
112,228,32233,6,0,P|80:160|132:112,1,140,10|2,1:2|1:2,0:0:0:0:
188,116,32748,1,2,0:0:0:0:
328,116,33091,1,2,0:0:0:0:
188,116,33433,6,0,P|116:124|72:244,1,210,2|2,0:0|1:2,0:0:0:0:
212,252,34291,2,0,P|272:244|324:180,1,140,2|2,1:2|1:2,0:0:0:0:
252,188,34805,1,0,0:0:0:0:
176,180,34976,6,0,P|148:128|188:64,1,140,8|0,1:2|1:2,0:0:0:0:
328,68,35662,2,0,P|360:128|316:184,1,140,0|2,1:2|1:2,0:0:0:0:
252,180,36176,1,2,0:0:0:0:
180,180,36348,6,0,P|144:232|184:296,1,140,8|0,1:2|1:2,0:0:0:0:
316,300,37033,1,0,1:2:0:0:
384,284,37205,1,2,0:0:0:0:
316,300,37376,1,2,1:2:0:0:
160,300,37719,6,0,P|92:288|60:228,1,140,10|0,1:2|0:0,0:0:0:0:
200,236,38405,2,0,P|272:224|308:160,1,140,2|10,0:0|0:0,0:0:0:0:
168,160,39091,6,0,P|140:104|180:36,1,140,2|2,0:0|0:0,0:0:0:0:
312,40,39776,2,0,P|348:96|308:152,1,140,10|10,0:0|0:0,0:0:0:0:
172,152,40462,6,0,P|84:184|108:280,1,210,8|10,0:0|0:0,0:0:0:0:
248,288,41319,1,2,0:0:0:0:
388,288,41662,6,0,P|448:244|376:156,1,210,2|2,0:0|0:0,0:0:0:0:
240,148,42519,2,0,P|172:136|136:76,1,140,10|10,0:0|0:0,0:0:0:0:
292,76,43205,6,0,P|352:132|276:212,1,210,4|8,1:2|0:0,0:0:0:0:
144,212,44062,1,2,0:0:0:0:
140,280,44233,1,10,0:0:0:0:
280,280,44576,6,0,P|352:268|396:208,1,140,2|0,1:2|1:2,0:0:0:0:
252,224,45262,2,0,P|220:176|268:104,1,140,8|10,1:2|1:2,0:0:0:0:
332,108,45776,6,0,P|420:124|436:288,1,280,10|10,0:0|0:0,0:0:0:0:
296,292,46805,1,2,0:0:0:0:
156,288,47148,6,0,P|104:212|184:148,1,210,2|2,0:0|1:2,0:0:0:0:
320,160,48005,2,0,P|380:152|424:80,1,140,10|10,1:2|1:2,0:0:0:0:
268,76,48691,6,0,P|184:96|172:208,1,210,2|8,1:2|0:0,0:0:0:0:
312,208,49548,1,2,0:0:0:0:
316,276,49719,1,10,1:2:0:0:
176,280,50062,6,0,P|144:220|188:160,1,140,2|0,1:2|1:2,0:0:0:0:
320,176,50748,2,0,P|352:116|308:64,1,140,8|2,1:2|1:2,0:0:0:0:
240,64,51262,1,10,0:0:0:0:
244,132,51433,5,2,1:2:0:0:
320,132,51605,2,0,P|396:144|432:260,1,210,8|8,0:3|1:3,0:0:0:0:
292,268,52462,1,8,1:2:0:0:
152,272,52805,5,0,1:2:0:0:
88,240,52976,1,8,0:0:0:0:
152,272,53148,1,8,1:3:0:0:
292,268,53491,1,0,1:2:0:0:
356,236,53662,1,8,2:3:0:0:
292,268,53834,1,0,1:2:0:0:
140,272,54176,6,0,P|112:204|152:156,1,140,2|2,1:2|1:2,0:0:0:0:
288,164,54862,1,8,1:3:0:0:
348,144,55033,1,0,0:0:0:0:
288,164,55205,1,2,1:2:0:0:
212,164,55376,1,2,1:2:0:0:
220,64,56233,6,0,P|284:72|320:132,1,140,2|2,0:0|0:0,0:0:0:0:
180,140,56919,6,0,P|84:212|180:292,1,280,6|0,1:2|1:2,0:0:0:0:
320,300,57948,1,10,0:0:0:0:
396,296,58119,6,0,P|428:228|340:148,1,210,2|8,0:0|0:0,0:0:0:0:
204,148,58976,2,0,P|148:136|104:64,1,140,0|10,1:2|0:0,0:0:0:0:
260,64,59662,6,0,P|296:124|260:176,1,140,2|10,1:2|0:0,0:0:0:0:
120,168,60348,2,0,P|88:220|128:292,1,140,0|10,1:2|0:0,0:0:0:0:
196,288,60862,6,0,P|256:280|284:212,1,140,2|2,0:0|0:0,0:0:0:0:
212,220,61376,1,8,0:0:0:0:
72,216,61719,2,0,P|48:164|92:100,1,140,0|10,1:2|0:0,0:0:0:0:
244,96,62405,6,0,P|308:108|336:184,1,140,2|10,1:2|0:0,0:0:0:0:
196,172,63091,2,0,P|160:228|200:288,1,140,0|10,1:2|0:0,0:0:0:0:
272,292,63605,6,0,P|320:280|356:200,1,140,2|2,0:0|0:0,0:0:0:0:
216,224,64291,2,0,P|152:212|120:148,1,140,2|2,0:0|0:0,0:0:0:0:
192,148,64805,1,8,0:0:0:0:
348,152,65148,6,0,P|384:104|344:44,1,140,2|8,1:2|0:0,0:0:0:0:
204,52,65833,2,0,P|168:108|208:160,1,140,2|10,1:2|0:0,0:0:0:0:
360,164,66519,6,0,L|484:236,1,140,2|8,1:2|0:0,0:0:0:0:
340,232,67205,2,0,L|216:304,1,140,2|8,1:2|0:0,0:0:0:0:
372,300,67891,6,0,P|420:252|300:144,1,280,6|0,1:2|1:2,0:0:0:0:
160,140,68919,1,10,0:0:0:0:
84,144,69091,6,0,P|72:224|176:272,1,210,2|8,0:0|0:0,0:0:0:0:
312,276,69948,2,0,P|376:260|404:188,1,140,0|10,1:2|0:0,0:0:0:0:
252,188,70633,6,0,P|196:168|172:96,1,140,2|10,1:2|0:0,0:0:0:0:
312,100,71319,2,0,P|340:148|304:224,1,140,0|10,1:2|0:0,0:0:0:0:
232,220,71833,6,0,P|168:236|160:304,1,140,2|2,0:0|0:0,0:0:0:0:
232,300,72348,1,8,0:0:0:0:
372,300,72691,1,0,1:2:0:0:
440,292,72862,2,0,P|464:228|416:176,1,140,2|2,0:0|0:0,0:0:0:0:
344,180,73376,6,0,P|288:172|224:112,1,140,2|10,1:2|0:0,0:0:0:0:
368,100,74062,2,0,P|404:156|356:212,1,140,0|10,1:2|0:0,0:0:0:0:
288,212,74576,6,0,P|224:220|200:284,1,140,2|2,0:0|0:0,0:0:0:0:
340,284,75262,2,0,P|376:224|328:176,1,140,2|2,0:0|0:0,0:0:0:0:
264,180,75776,1,8,0:0:0:0:
108,180,76119,5,2,1:2:0:0:
40,168,76291,2,0,P|32:96|144:40,1,210,0|2,1:2|1:2,0:0:0:0:
280,40,77148,1,10,0:0:0:0:
124,36,77491,6,0,P|96:84|132:156,1,140,2|8,0:0|0:0,0:0:0:0:
268,158,78176,1,2,1:2:0:0:
128,154,78519,1,8,0:0:0:0:
284,156,78862,6,0,P|404:176|400:312,1,280,6|2,1:2|1:2,0:0:0:0:
260,308,79891,1,8,1:2:0:0:
120,308,80233,6,0,P|44:248|144:140,1,280,2|10,1:2|1:2,0:0:0:0:
284,136,81262,1,0,1:2:0:0:
424,136,81605,6,0,L|428:280,1,140,2|2,1:2|1:2,0:0:0:0:
288,280,82291,2,0,L|284:140,1,140,2|10,1:2|1:2,0:0:0:0:
424,144,82976,6,0,L|300:80,1,140,2|2,1:2|1:2,0:0:0:0:
160,84,83662,2,0,L|284:148,1,140,2|10,1:2|1:2,0:0:0:0:
440,148,84348,5,6,1:2:0:0:
256,192,84691,12,0,87091,0:0:0:0:
