osu file format v14

[General]
AudioFilename: audio.mp3
AudioLeadIn: 0
PreviewTime: -1
Countdown: 1
SampleSet: Normal
StackLeniency: 0.7
Mode: 0
LetterboxInBreaks: 0
WidescreenStoryboard: 0

[Editor]
DistanceSpacing: 1
BeatDivisor: 4
GridSize: 8
TimelineZoom: 1

[Metadata]
Title:Toumei Elegy (Transparent Elegy)
TitleUnicode:Toumei Elegy (Transparent Elegy)
Artist:Hata-tan
ArtistUnicode:Hata-tan
Creator:Naranja Sagged
Version:Shadowbanned
Source:
Tags:Hata-tan shitposting on osugame memes
BeatmapID:939576
BeatmapSetID:436154

[Difficulty]
HPDrainRate:6
CircleSize:5
OverallDifficulty:8
ApproachRate:9
SliderMultiplier:1.5
SliderTickRate:1

[Events]
//Background and Video events
0,0,"hatoumei.png",0,0
//Break Periods
//Storyboard Layer 0 (Background)
//Storyboard Layer 1 (Fail)
//Storyboard Layer 2 (Pass)
//Storyboard Layer 3 (Foreground)
//Storyboard Sound Samples

[TimingPoints]
1160.63927308767,272.727272727273,4,1,0,100,1,0
58706,75,4,1,0,100,1,0
59306,272.727272727273,4,1,0,100,1,1
76487,272.727272727273,4,1,0,100,1,0

[HitObjects]
72,184,1228,6,0,B|104:96|104:104|144:256|144:256|256:32|504:128,1,600
344,336,2933,2,0,B|416:240|312:264|312:264|144:56|16:224,1,487.5
256,192,5251,1,0,0:0:0:0:
24,152,7297,6,0,P|160:48|368:136,1,412.5
376,216,8183,1,0,0:0:0:0:
376,296,8319,1,0,0:0:0:0:
296,296,8456,1,0,0:0:0:0:
296,216,8592,1,0,0:0:0:0:
352,56,8728,6,0,P|416:128|400:160,1,112.5
416,184,9069,1,0,0:0:0:0:
328,128,9206,1,0,0:0:0:0:
216,128,9342,1,0,0:0:0:0:
216,128,9410,1,0,0:0:0:0:
216,128,9478,1,0,0:0:0:0:
216,128,9547,1,0,0:0:0:0:
208,120,9615,1,0,0:0:0:0:
272,168,9956,6,0,L|248:136,1,37.5
264,216,10092,2,0,L|304:264,1,37.5
224,224,10228,2,0,L|120:168,1,112.5
48,304,10706,6,0,B|48:200|48:200|96:288|96:288|88:168|88:168|320:224|416:24,1,712.5
240,104,12410,6,0,L|192:56,9,37.5
248,144,13092,6,0,L|296:192,9,37.5
264,176,13774,1,0,0:0:0:0:
264,192,13842,1,0,0:0:0:0:
256,208,13910,1,0,0:0:0:0:
240,216,13978,1,0,0:0:0:0:
216,216,14047,1,0,0:0:0:0:
192,208,14115,1,0,0:0:0:0:
168,192,14183,1,0,0:0:0:0:
152,176,14251,1,0,0:0:0:0:
128,168,14319,1,0,0:0:0:0:
104,168,14387,1,0,0:0:0:0:
72,184,14456,1,0,0:0:0:0:
56,216,14524,1,0,0:0:0:0:
48,248,14592,1,0,0:0:0:0:
64,280,14660,1,0,0:0:0:0:
96,296,14728,1,0,0:0:0:0:
136,296,14797,1,0,0:0:0:0:
168,272,14865,1,0,0:0:0:0:
192,240,14933,1,0,0:0:0:0:
208,208,15001,1,0,0:0:0:0:
232,176,15069,1,0,0:0:0:0:
264,152,15137,1,0,0:0:0:0:
304,136,15206,1,0,0:0:0:0:
336,128,15274,1,0,0:0:0:0:
312,104,15342,1,0,0:0:0:0:
280,88,15410,1,0,0:0:0:0:
256,80,15478,1,0,0:0:0:0:
216,80,15547,1,0,0:0:0:0:
184,96,15615,1,0,0:0:0:0:
112,272,16024,5,0,0:0:0:0:
64,120,16160,1,0,0:0:0:0:
208,160,16228,1,0,0:0:0:0:
96,200,16297,1,0,0:0:0:0:
96,200,16365,1,0,0:0:0:0:
96,200,16433,1,0,0:0:0:0:
80,232,16637,6,0,P|88:304|128:312,1,112.5
117,313,16910,5,0,0:0:0:0:
117,313,16978,1,0,0:0:0:0:
256,280,17115,1,0,0:0:0:0:
288,184,17251,1,0,0:0:0:0:
392,320,17387,1,0,0:0:0:0:
224,352,17524,1,0,0:0:0:0:
224,352,17592,1,0,0:0:0:0:
216,352,17660,6,0,B|136:240|152:256,1,112.5
56,192,18001,5,0,0:0:0:0:
72,80,18274,1,0,0:0:0:0:
176,80,18547,1,0,0:0:0:0:
160,200,18819,1,0,0:0:0:0:
40,192,19092,1,0,0:0:0:0:
40,320,19365,1,0,0:0:0:0:
160,312,19637,1,0,0:0:0:0:
368,112,19842,5,0,0:0:0:0:
368,80,19910,1,0,0:0:0:0:
304,200,20047,1,0,0:0:0:0:
304,224,20115,1,0,0:0:0:0:
96,288,20319,5,0,0:0:0:0:
72,264,20387,1,0,0:0:0:0:
256,304,20592,1,0,0:0:0:0:
272,320,20660,1,0,0:0:0:0:
160,72,20797,5,0,0:0:0:0:
192,64,20865,1,0,0:0:0:0:
104,184,21001,1,0,0:0:0:0:
96,208,21069,1,0,0:0:0:0:
296,144,21342,5,0,0:0:0:0:
296,144,21410,1,0,0:0:0:0:
296,144,21478,1,0,0:0:0:0:
296,144,21547,1,0,0:0:0:0:
296,144,21615,1,0,0:0:0:0:
296,144,21683,1,0,0:0:0:0:
296,144,21751,1,0,0:0:0:0:
272,144,21819,1,0,0:0:0:0:
288,120,21887,1,0,0:0:0:0:
304,144,21956,1,0,0:0:0:0:
264,144,22024,1,0,0:0:0:0:
288,120,22092,1,0,0:0:0:0:
304,144,22160,1,0,0:0:0:0:
272,144,22228,1,0,0:0:0:0:
288,120,22297,1,0,0:0:0:0:
304,144,22365,1,0,0:0:0:0:
248,144,22433,1,0,0:0:0:0:
280,112,22501,1,0,0:0:0:0:
304,152,22569,1,0,0:0:0:0:
256,144,22637,1,0,0:0:0:0:
280,112,22706,1,0,0:0:0:0:
296,144,22774,1,0,0:0:0:0:
328,272,23047,6,0,B|296:192|240:240|440:152|440:152|512:64|344:48,1,412.5
348,48,23797,1,0,0:0:0:0:
348,48,23865,1,0,0:0:0:0:
240,56,24069,5,0,0:0:0:0:
184,176,24206,1,0,0:0:0:0:
312,176,24342,1,0,0:0:0:0:
168,88,24478,1,0,0:0:0:0:
240,256,24615,1,0,0:0:0:0:
336,96,24751,1,0,0:0:0:0:
272,112,24887,6,0,L|248:80,1,37.5
264,144,25024,2,0,L|288:176,1,37.5
232,144,25160,2,0,L|200:112,1,37.5
240,176,25297,2,0,L|264:208,1,37.5
200,176,25433,2,0,L|176:144,1,37.5
208,208,25569,2,0,L|232:240,1,37.5
168,208,25706,2,0,L|144:176,1,37.5
168,240,25842,2,0,L|192:272,1,37.5
352,208,26115,6,0,B|336:272|336:272|328:184|248:96|112:56|80:248,1,450
432,256,27069,6,0,L|432:176,1,75
424,96,27342,5,0,0:0:0:0:
312,48,27478,1,0,0:0:0:0:
272,160,27615,1,0,0:0:0:0:
376,184,27751,1,0,0:0:0:0:
320,40,27887,1,0,0:0:0:0:
200,88,28024,1,0,0:0:0:0:
200,208,28160,1,0,0:0:0:0:
256,88,28433,5,0,0:0:0:0:
112,256,28706,1,0,0:0:0:0:
376,256,28978,1,0,0:0:0:0:
256,8,29251,1,0,0:0:0:0:
40,328,29524,1,0,0:0:0:0:
440,328,29797,1,0,0:0:0:0:
320,176,29933,6,0,L|352:152,10,37.5
280,168,30683,6,0,L|248:192,10,37.5
280,136,31433,6,0,L|312:112,10,37.5
264,128,32115,5,0,0:0:0:0:
256,128,32183,1,0,0:0:0:0:
248,128,32251,1,0,0:0:0:0:
240,128,32319,1,0,0:0:0:0:
232,136,32387,1,0,0:0:0:0:
224,144,32456,1,0,0:0:0:0:
224,152,32524,1,0,0:0:0:0:
232,160,32592,1,0,0:0:0:0:
240,168,32660,1,0,0:0:0:0:
248,176,32728,1,0,0:0:0:0:
248,184,32797,1,0,0:0:0:0:
248,192,32865,1,0,0:0:0:0:
240,208,32933,1,0,0:0:0:0:
224,224,33001,1,0,0:0:0:0:
208,232,33069,1,0,0:0:0:0:
192,240,33137,1,0,0:0:0:0:
168,240,33206,1,0,0:0:0:0:
144,240,33274,1,0,0:0:0:0:
120,232,33342,1,0,0:0:0:0:
104,216,33410,1,0,0:0:0:0:
96,200,33478,1,0,0:0:0:0:
88,184,33547,1,0,0:0:0:0:
88,160,33615,1,0,0:0:0:0:
96,144,33683,1,0,0:0:0:0:
112,128,33751,1,0,0:0:0:0:
128,120,33819,1,0,0:0:0:0:
152,112,33887,1,0,0:0:0:0:
168,112,33956,1,0,0:0:0:0:
200,112,34024,1,0,0:0:0:0:
232,128,34092,1,0,0:0:0:0:
248,152,34160,1,0,0:0:0:0:
256,176,34228,1,0,0:0:0:0:
256,208,34297,1,0,0:0:0:0:
247,233,34365,1,0,0:0:0:0:
222,249,34433,1,0,0:0:0:0:
192,261,34501,1,0,0:0:0:0:
166,261,34569,1,0,0:0:0:0:
135,255,34637,1,0,0:0:0:0:
111,237,34706,1,0,0:0:0:0:
84,185,34774,1,0,0:0:0:0:
77,128,34842,1,0,0:0:0:0:
128,151,34910,1,0,0:0:0:0:
179,165,34978,1,0,0:0:0:0:
233,159,35047,1,0,0:0:0:0:
285,140,35115,1,0,0:0:0:0:
326,105,35183,1,0,0:0:0:0:
373,78,35251,1,0,0:0:0:0:
426,72,35319,1,0,0:0:0:0:
473,95,35387,1,0,0:0:0:0:
503,142,35456,1,0,0:0:0:0:
511,195,35524,1,0,0:0:0:0:
503,249,35592,1,0,0:0:0:0:
463,290,35660,1,0,0:0:0:0:
411,309,35728,1,0,0:0:0:0:
355,301,35797,1,0,0:0:0:0:
291,255,35865,1,0,0:0:0:0:
238,190,35933,1,0,0:0:0:0:
185,130,36001,1,0,0:0:0:0:
94,128,36069,1,0,0:0:0:0:
26,190,36137,1,0,0:0:0:0:
19,284,36206,1,0,0:0:0:0:
94,333,36274,1,0,0:0:0:0:
195,337,36342,1,0,0:0:0:0:
279,289,36410,1,0,0:0:0:0:
327,209,36478,1,0,0:0:0:0:
270,122,36547,1,0,0:0:0:0:
178,119,36615,1,0,0:0:0:0:
64,216,36683,1,0,0:0:0:0:
96,352,36751,1,0,0:0:0:0:
240,384,36819,1,0,0:0:0:0:
345,307,36887,1,0,0:0:0:0:
402,197,36956,1,0,0:0:0:0:
368,78,37024,1,0,0:0:0:0:
238,24,37092,1,0,0:0:0:0:
111,42,37160,1,0,0:0:0:0:
64,96,38251,6,0,P|184:64|304:160,1,262.5
216,168,39001,2,0,B|344:272|368:296|368:296|248:304,1,300
266,302,39615,1,0,0:0:0:0:
266,302,39683,1,0,0:0:0:0:
266,302,39751,1,0,0:0:0:0:
176,312,39887,1,0,0:0:0:0:
144,208,40024,1,0,0:0:0:0:
256,192,40160,1,0,0:0:0:0:
192,248,40296,1,0,0:0:0:0:
216,112,40433,1,0,0:0:0:0:
376,136,40569,1,0,0:0:0:0:
432,192,40706,6,0,P|408:288|400:288,1,112.5
352,296,41047,1,0,0:0:0:0:
352,176,41183,1,0,0:0:0:0:
224,176,41319,1,0,0:0:0:0:
224,304,41456,1,0,0:0:0:0:
336,192,41592,1,0,0:0:0:0:
256,112,41728,1,0,0:0:0:0:
168,192,41865,1,0,0:0:0:0:
256,272,42001,1,0,0:0:0:0:
336,192,42137,1,0,0:0:0:0:
336,40,42274,1,0,0:0:0:0:
160,40,42410,1,0,0:0:0:0:
168,192,42547,1,0,0:0:0:0:
168,192,42615,1,0,0:0:0:0:
168,192,42683,2,0,P|120:264|-16:264,1,225
88,120,43433,6,0,L|120:192,1,75
168,152,43706,2,0,L|272:176,1,75
160,224,43978,2,0,L|176:312,1,75
224,240,44251,2,0,L|312:248,1,75
240,304,44524,1,0,0:0:0:0:
304,328,44797,2,0,B|352:272|352:272|416:352|496:160|416:72,1,337.5
328,64,45615,6,0,L|328:128,8,37.5
319,60,46228,1,0,0:0:0:0:
310,58,46297,1,0,0:0:0:0:
297,55,46365,1,0,0:0:0:0:
283,55,46433,1,0,0:0:0:0:
264,58,46501,1,0,0:0:0:0:
250,65,46569,1,0,0:0:0:0:
241,79,46637,1,0,0:0:0:0:
237,92,46706,1,0,0:0:0:0:
238,103,46774,1,0,0:0:0:0:
244,118,46842,1,0,0:0:0:0:
252,128,46910,1,0,0:0:0:0:
263,134,46978,1,0,0:0:0:0:
274,139,47047,1,0,0:0:0:0:
289,141,47115,1,0,0:0:0:0:
305,143,47183,1,0,0:0:0:0:
321,141,47251,1,0,0:0:0:0:
334,134,47319,1,0,0:0:0:0:
349,125,47387,1,0,0:0:0:0:
367,120,47456,1,0,0:0:0:0:
387,114,47524,1,0,0:0:0:0:
409,117,47592,1,0,0:0:0:0:
422,126,47660,1,0,0:0:0:0:
430,140,47728,1,0,0:0:0:0:
436,156,47797,1,0,0:0:0:0:
431,173,47865,1,0,0:0:0:0:
407,147,47933,1,0,0:0:0:0:
372,136,48001,1,0,0:0:0:0:
340,142,48069,1,0,0:0:0:0:
309,157,48137,1,0,0:0:0:0:
284,177,48206,1,0,0:0:0:0:
263,207,48274,1,0,0:0:0:0:
253,235,48342,1,0,0:0:0:0:
248,264,48410,1,0,0:0:0:0:
252,290,48478,1,0,0:0:0:0:
276,317,48547,1,0,0:0:0:0:
306,327,48615,1,0,0:0:0:0:
264,348,48683,1,0,0:0:0:0:
214,345,48751,1,0,0:0:0:0:
164,329,48819,1,0,0:0:0:0:
119,303,48887,1,0,0:0:0:0:
83,266,48956,1,0,0:0:0:0:
67,219,49024,1,0,0:0:0:0:
60,174,49092,1,0,0:0:0:0:
63,121,49160,1,0,0:0:0:0:
71,71,49228,1,0,0:0:0:0:
101,27,49297,1,0,0:0:0:0:
115,87,49365,1,0,0:0:0:0:
147,139,49433,1,0,0:0:0:0:
189,183,49501,1,0,0:0:0:0:
241,212,49569,1,0,0:0:0:0:
301,216,49637,1,0,0:0:0:0:
357,190,49706,1,0,0:0:0:0:
396,144,49774,1,0,0:0:0:0:
413,87,49842,1,0,0:0:0:0:
423,27,49910,1,0,0:0:0:0:
485,108,49978,1,0,0:0:0:0:
495,196,50047,1,0,0:0:0:0:
473,282,50115,1,0,0:0:0:0:
402,345,50183,1,0,0:0:0:0:
307,366,50251,1,0,0:0:0:0:
216,366,50319,1,0,0:0:0:0:
125,341,50387,1,0,0:0:0:0:
54,280,50456,1,0,0:0:0:0:
14,197,50524,1,0,0:0:0:0:
6,156,50592,6,0,B|62:83|62:83|67:191|67:191|141:100|141:100|85:254|233:315|460:207,1,750
435,247,52024,2,0,P|343:336|123:313,2,337.5
440,168,53456,2,0,B|424:82|424:82|360:172|360:172|294:240|73:154,1,487.5
253,110,54750,5,0,0:0:0:0:
254,120,54819,1,0,0:0:0:0:
255,130,54887,1,0,0:0:0:0:
255,138,54955,1,0,0:0:0:0:
256,146,55023,1,0,0:0:0:0:
258,157,55091,1,0,0:0:0:0:
259,168,55160,1,0,0:0:0:0:
259,168,55228,1,0,0:0:0:0:
260,178,55297,1,0,0:0:0:0:
261,188,55365,1,0,0:0:0:0:
260,198,55433,2,0,B|268:272|268:272|194:213|129:373,2,262.5
256,192,56797,12,0,58228,0:0:0:0:
177,227,58826,6,0,P|216:108|295:191,2,262.5
97,341,59374,5,0,0:0:0:0:
188,295,59510,1,0,0:0:0:0:
252,215,59646,1,0,0:0:0:0:
132,152,59783,1,0,0:0:0:0:
69,241,59919,1,0,0:0:0:0:
189,232,60056,1,0,0:0:0:0:
189,232,60124,2,0,B|264:186|264:186|248:283|414:223,1,262.5
393,230,60669,1,0,0:0:0:0:
393,230,60737,1,0,0:0:0:0:
393,230,60806,1,0,0:0:0:0:
403,96,60942,1,0,0:0:0:0:
310,174,61078,1,0,0:0:0:0:
303,78,61215,1,0,0:0:0:0:
213,159,61351,1,0,0:0:0:0:
184,58,61487,1,0,0:0:0:0:
184,58,61556,1,0,0:0:0:0:
184,58,61624,1,0,0:0:0:0:
87,294,61828,6,0,B|158:236|158:236|201:324|276:273,1,225
334,271,62374,1,0,0:0:0:0:
334,271,62442,1,0,0:0:0:0:
441,207,62646,1,0,0:0:0:0:
295,201,62783,1,0,0:0:0:0:
231,323,62919,1,0,0:0:0:0:
374,249,63056,1,0,0:0:0:0:
168,245,63192,1,0,0:0:0:0:
291,147,63328,1,0,0:0:0:0:
392,128,63465,1,0,0:0:0:0:
392,128,63533,1,0,0:0:0:0:
392,128,63601,1,0,0:0:0:0:
392,128,63669,1,0,0:0:0:0:
392,128,63737,1,0,0:0:0:0:
392,128,63806,1,0,0:0:0:0:
392,128,63874,2,0,P|427:58|342:22,2,187.5
170,224,64828,5,0,0:0:0:0:
247,90,64965,1,0,0:0:0:0:
306,220,65101,1,0,0:0:0:0:
157,141,65237,1,0,0:0:0:0:
320,139,65374,1,0,0:0:0:0:
226,266,65510,1,0,0:0:0:0:
100,183,65646,1,0,0:0:0:0:
373,183,65783,1,0,0:0:0:0:
95,311,65919,1,0,0:0:0:0:
356,302,66056,1,0,0:0:0:0:
356,302,66124,1,0,0:0:0:0:
356,302,66192,1,0,0:0:0:0:
356,302,66260,1,0,0:0:0:0:
356,302,66328,2,0,B|410:249|410:249|320:228|367:168,1,187.5
420,124,66874,6,0,L|331:96,3,75
364,41,67487,5,0,0:0:0:0:
364,41,67556,1,0,0:0:0:0:
364,41,67624,1,0,0:0:0:0:
254,37,67760,1,0,0:0:0:0:
174,79,67896,1,0,0:0:0:0:
138,161,68033,1,0,0:0:0:0:
170,240,68169,1,0,0:0:0:0:
191,264,68237,2,0,L|258:306,1,75
266,302,68442,1,0,0:0:0:0:
277,297,68510,1,0,0:0:0:0:
286,286,68578,1,0,0:0:0:0:
296,265,68646,1,0,0:0:0:0:
298,243,68715,1,0,0:0:0:0:
285,223,68783,1,0,0:0:0:0:
267,211,68851,1,0,0:0:0:0:
244,207,68919,1,0,0:0:0:0:
216,213,68987,1,0,0:0:0:0:
197,225,69056,1,0,0:0:0:0:
186,234,69124,6,0,B|149:276|141:273|50:227,1,150
51,114,69669,5,0,0:0:0:0:
51,114,69737,1,0,0:0:0:0:
51,114,69806,1,0,0:0:0:0:
159,113,69942,1,0,0:0:0:0:
265,115,70078,1,0,0:0:0:0:
336,183,70215,1,0,0:0:0:0:
342,198,70283,2,0,L|346:295,1,75
346,282,70556,5,0,0:0:0:0:
337,306,70624,1,0,0:0:0:0:
314,334,70692,1,0,0:0:0:0:
280,343,70760,1,0,0:0:0:0:
250,343,70828,1,0,0:0:0:0:
212,328,70896,1,0,0:0:0:0:
191,312,70965,1,0,0:0:0:0:
172,281,71033,1,0,0:0:0:0:
163,260,71101,1,0,0:0:0:0:
163,221,71169,1,0,0:0:0:0:
173,199,71237,1,0,0:0:0:0:
198,169,71306,1,0,0:0:0:0:
222,157,71374,1,0,0:0:0:0:
304,134,71510,5,0,0:0:0:0:
304,134,71578,1,0,0:0:0:0:
304,134,71646,1,0,0:0:0:0:
303,128,71783,2,0,B|389:111|389:111|366:190|475:184,1,225
402,67,72328,5,0,0:0:0:0:
354,52,72396,1,0,0:0:0:0:
307,72,72465,1,0,0:0:0:0:
232,216,72601,1,0,0:0:0:0:
188,236,72669,1,0,0:0:0:0:
135,228,72737,1,0,0:0:0:0:
168,101,72874,1,0,0:0:0:0:
272,68,72942,1,0,0:0:0:0:
345,146,73010,1,0,0:0:0:0:
345,146,73078,1,0,0:0:0:0:
345,146,73146,1,0,0:0:0:0:
417,222,73283,1,0,0:0:0:0:
431,268,73351,1,0,0:0:0:0:
409,309,73419,1,0,0:0:0:0:
406,315,73487,2,0,B|329:348|322:308|275:207,1,187.5
412,108,74101,6,0,B|292:52|292:52|345:177|60:98|60:98|9:208,1,525
419,300,75260,2,0,B|352:225|352:225|341:324|341:324|225:140|391:43,1,525
163,136,76760,5,8,0:0:0:0:
205,99,76896,1,8,0:0:0:0:
179,157,77033,1,8,0:0:0:0:
222,116,77169,1,8,0:0:0:0:
205,181,77306,1,8,0:0:0:0:
244,145,77442,1,8,0:0:0:0:
220,203,77578,1,8,0:0:0:0:
264,166,77715,1,8,0:0:0:0:
254,215,77851,1,8,0:0:0:0:
257,220,77919,1,8,0:0:0:0:
258,223,77987,1,8,0:0:0:0:
262,227,78056,1,8,0:0:0:0:
267,232,78124,1,8,0:0:0:0:
274,236,78192,1,8,0:0:0:0:
280,240,78260,1,8,0:0:0:0:
285,241,78328,1,8,0:0:0:0:
293,244,78396,1,8,0:0:0:0:
304,245,78465,1,8,0:0:0:0:
315,247,78533,1,8,0:0:0:0:
325,246,78601,1,8,0:0:0:0:
336,245,78669,1,8,0:0:0:0:
345,240,78737,1,8,0:0:0:0:
355,234,78806,1,8,0:0:0:0:
366,222,78874,1,8,0:0:0:0:
370,214,78942,1,8,0:0:0:0:
375,203,79010,1,8,0:0:0:0:
376,194,79078,1,8,0:0:0:0:
353,207,79146,1,8,0:0:0:0:
320,214,79215,1,8,0:0:0:0:
293,215,79283,1,8,0:0:0:0:
260,211,79351,1,8,0:0:0:0:
235,200,79419,1,8,0:0:0:0:
211,179,79487,1,8,0:0:0:0:
200,156,79556,1,8,0:0:0:0:
195,126,79624,1,8,0:0:0:0:
209,99,79692,1,8,0:0:0:0:
225,76,79760,1,8,0:0:0:0:
189,68,79828,1,8,0:0:0:0:
154,48,79896,1,8,0:0:0:0:
136,31,79965,1,8,0:0:0:0:
124,4,80033,1,8,0:0:0:0:
90,37,80101,1,8,0:0:0:0:
73,78,80169,1,8,0:0:0:0:
75,116,80237,1,8,0:0:0:0:
87,154,80306,1,8,0:0:0:0:
107,188,80374,1,8,0:0:0:0:
131,213,80442,1,8,0:0:0:0:
163,233,80510,1,8,0:0:0:0:
198,239,80578,1,8,0:0:0:0:
230,229,80646,1,8,0:0:0:0:
255,204,80715,1,8,0:0:0:0:
276,168,80783,1,8,0:0:0:0:
314,145,80851,1,8,0:0:0:0:
355,137,80919,1,8,0:0:0:0:
396,151,80987,1,8,0:0:0:0:
419,182,81056,1,8,0:0:0:0:
412,225,81124,1,8,0:0:0:0:
379,257,81192,1,8,0:0:0:0:
338,269,81260,1,8,0:0:0:0:
299,256,81328,1,8,0:0:0:0:
276,224,81396,1,8,0:0:0:0:
266,181,81465,1,8,0:0:0:0:
285,146,81533,1,8,0:0:0:0:
314,119,81601,1,8,0:0:0:0:
352,106,81669,1,8,0:0:0:0:
393,117,81737,1,8,0:0:0:0:
369,63,81806,1,8,0:0:0:0:
323,27,81874,1,8,0:0:0:0:
266,11,81942,1,8,0:0:0:0:
208,8,82010,1,8,0:0:0:0:
152,23,82078,1,8,0:0:0:0:
108,54,82146,1,8,0:0:0:0:
83,107,82215,1,8,0:0:0:0:
76,162,82283,1,8,0:0:0:0:
82,217,82351,1,8,0:0:0:0:
104,271,82419,1,8,0:0:0:0:
153,295,82487,1,8,0:0:0:0:
177,245,82556,1,8,0:0:0:0:
210,201,82624,1,8,0:0:0:0:
262,184,82692,1,8,0:0:0:0:
311,206,82760,1,8,0:0:0:0:
342,245,82828,1,8,0:0:0:0:
352,296,82896,1,8,0:0:0:0:
327,339,82965,1,8,0:0:0:0:
404,311,83033,1,8,0:0:0:0:
451,241,83101,1,8,0:0:0:0:
463,157,83169,1,8,0:0:0:0:
418,91,83237,1,8,0:0:0:0:
347,61,83306,1,8,0:0:0:0:
270,66,83374,1,8,0:0:0:0:
209,112,83442,1,8,0:0:0:0:
189,182,83510,1,8,0:0:0:0:
204,249,83578,1,8,0:0:0:0:
239,306,83646,1,8,0:0:0:0:
307,330,83715,1,8,0:0:0:0:
381,308,83783,1,8,0:0:0:0:
278,280,83851,1,8,0:0:0:0:
219,210,83919,1,8,0:0:0:0:
203,102,83987,1,8,0:0:0:0:
288,37,84056,1,8,0:0:0:0:
386,36,84124,1,8,0:0:0:0:
462,116,84192,1,8,0:0:0:0:
456,217,84260,1,8,0:0:0:0:
365,268,84328,1,8,0:0:0:0:
255,270,84396,1,8,0:0:0:0:
189,182,84465,1,8,0:0:0:0:
244,350,84533,1,8,0:0:0:0:
432,350,84601,1,8,0:0:0:0:
507,194,84669,1,8,0:0:0:0:
432,49,84737,1,8,0:0:0:0:
272,39,84806,1,8,0:0:0:0:
128,77,84874,1,8,0:0:0:0:
44,185,84942,1,8,0:0:0:0:
43,321,85010,1,8,0:0:0:0:
469,315,85078,1,8,0:0:0:0:
471,19,85146,1,8,0:0:0:0:
44,21,85215,1,8,0:0:0:0:
43,321,85283,1,8,0:0:0:0:
134,299,85759,6,0,B|195:208|195:208|204:325|465:199|465:199|425:82|425:82|391:186|164:71,1,825
386,192,87737,6,0,L|311:237,2,75
393,186,88077,1,0,0:0:0:0:
397,173,88146,1,0,0:0:0:0:
398,153,88214,1,0,0:0:0:0:
388,135,88282,1,0,0:0:0:0:
375,123,88350,1,0,0:0:0:0:
354,117,88418,1,0,0:0:0:0:
330,128,88487,1,0,0:0:0:0:
313,137,88555,2,0,L|308:96,5,37.5
302,142,88964,1,0,0:0:0:0:
290,147,89032,1,0,0:0:0:0:
273,157,89100,1,0,0:0:0:0:
250,161,89168,1,0,0:0:0:0:
231,163,89237,1,0,0:0:0:0:
208,153,89305,1,0,0:0:0:0:
145,119,89441,6,0,P|68:177|81:206,1,150
140,270,89850,1,0,0:0:0:0:
246,303,89918,1,0,0:0:0:0:
246,303,89987,1,0,0:0:0:0:
246,303,90055,1,0,0:0:0:0:
219,200,90191,1,0,0:0:0:0:
341,163,90327,1,0,0:0:0:0:
444,235,90464,1,0,0:0:0:0:
310,228,90600,1,0,0:0:0:0:
454,166,90737,1,0,0:0:0:0:
429,308,90873,1,0,0:0:0:0:
429,308,90941,1,0,0:0:0:0:
429,308,91009,2,0,B|328:323|328:323|337:235|283:254,2,187.5
410,186,92032,5,0,0:0:0:0:
370,193,92100,1,0,0:0:0:0:
331,206,92168,1,0,0:0:0:0:
410,186,92441,1,0,0:0:0:0:
370,193,92509,1,0,0:0:0:0:
331,206,92577,1,0,0:0:0:0:
410,186,92849,1,0,0:0:0:0:
370,193,92918,1,0,0:0:0:0:
331,206,92986,1,0,0:0:0:0:
389,103,93259,2,0,B|319:32|319:32|253:161|170:46,1,300
116,75,93941,5,0,0:0:0:0:
89,113,94077,1,0,0:0:0:0:
76,157,94214,1,0,0:0:0:0:
83,204,94350,1,0,0:0:0:0:
110,239,94487,1,0,0:0:0:0:
157,236,94623,1,0,0:0:0:0:
130,276,94759,1,0,0:0:0:0:
133,322,94896,1,0,0:0:0:0:
177,341,95032,1,0,0:0:0:0:
227,325,95168,1,0,0:0:0:0:
246,276,95305,1,0,0:0:0:0:
218,237,95441,1,0,0:0:0:0:
173,225,95577,1,0,0:0:0:0:
176,271,95714,1,0,0:0:0:0:
141,307,95850,1,0,0:0:0:0:
93,305,95987,1,0,0:0:0:0:
59,267,96123,1,0,0:0:0:0:
47,220,96259,1,0,0:0:0:0:
70,175,96396,1,0,0:0:0:0:
104,140,96532,1,0,0:0:0:0:
150,122,96668,1,0,0:0:0:0:
197,131,96805,1,0,0:0:0:0:
219,167,96941,1,0,0:0:0:0:
244,209,97077,1,0,0:0:0:0:
265,162,97214,1,0,0:0:0:0:
290,116,97350,1,0,0:0:0:0:
329,86,97487,1,0,0:0:0:0:
376,69,97623,1,0,0:0:0:0:
424,74,97759,1,0,0:0:0:0:
466,98,97896,1,0,0:0:0:0:
486,144,98032,1,0,0:0:0:0:
494,194,98168,1,0,0:0:0:0:
482,242,98305,1,0,0:0:0:0:
454,200,98441,1,0,0:0:0:0:
400,200,98577,1,0,0:0:0:0:
387,250,98714,1,0,0:0:0:0:
419,290,98850,1,0,0:0:0:0:
419,228,98987,1,0,0:0:0:0:
378,197,99123,1,0,0:0:0:0:
330,193,99259,1,0,0:0:0:0:
286,213,99396,1,0,0:0:0:0:
262,258,99532,1,0,0:0:0:0:
265,310,99668,1,0,0:0:0:0:
194,350,99805,5,0,0:0:0:0:
194,350,99873,1,0,0:0:0:0:
194,350,99941,1,0,0:0:0:0:
107,274,100077,1,0,0:0:0:0:
176,194,100214,1,0,0:0:0:0:
264,267,100350,1,0,0:0:0:0:
183,283,100487,1,0,0:0:0:0:
255,144,100623,1,0,0:0:0:0:
368,228,100759,1,0,0:0:0:0:
375,227,100827,2,0,B|442:178|442:178|365:141|456:52,1,225
389,45,101373,5,0,0:0:0:0:
332,35,101509,1,0,0:0:0:0:
275,38,101646,1,0,0:0:0:0:
224,67,101782,1,0,0:0:0:0:
183,108,101918,1,0,0:0:0:0:
149,156,102055,1,0,0:0:0:0:
120,105,102191,1,0,0:0:0:0:
63,105,102327,1,0,0:0:0:0:
56,161,102464,1,0,0:0:0:0:
109,191,102600,1,0,0:0:0:0:
154,153,102737,1,0,0:0:0:0:
195,93,102873,1,0,0:0:0:0:
259,52,103009,1,0,0:0:0:0:
337,49,103146,1,0,0:0:0:0:
411,67,103282,1,0,0:0:0:0:
463,122,103418,1,0,0:0:0:0:
467,200,103555,1,0,0:0:0:0:
425,274,103691,1,0,0:0:0:0:
355,306,103827,1,0,0:0:0:0:
276,312,103964,1,0,0:0:0:0:
195,297,104100,1,0,0:0:0:0:
265,268,104237,1,0,0:0:0:0:
323,214,104373,1,0,0:0:0:0:
317,139,104509,1,0,0:0:0:0:
256,93,104646,1,0,0:0:0:0:
186,105,104782,1,0,0:0:0:0:
153,169,104918,1,0,0:0:0:0:
247,121,105055,1,0,0:0:0:0:
202,64,105191,1,0,0:0:0:0:
126,35,105327,1,0,0:0:0:0:
50,66,105464,1,0,0:0:0:0:
25,137,105600,1,0,0:0:0:0:
42,215,105737,1,0,0:0:0:0:
87,109,105873,1,0,0:0:0:0:
170,41,106009,1,0,0:0:0:0:
262,21,106146,1,0,0:0:0:0:
370,23,106282,1,0,0:0:0:0:
455,62,106418,1,0,0:0:0:0:
495,134,106555,1,0,0:0:0:0:
497,213,106691,1,0,0:0:0:0:
408,108,106827,1,0,0:0:0:0:
305,37,106964,1,0,0:0:0:0:
189,25,107100,1,0,0:0:0:0:
65,64,107237,1,0,0:0:0:0:
14,186,107373,1,0,0:0:0:0:
15,196,107441,2,0,B|52:284|52:284|117:174|117:174|118:330|340:61|380:68|380:68|408:164|290:260,1,787.5
249,277,109077,5,0,0:0:0:0:
233,282,109146,1,0,0:0:0:0:
213,288,109214,1,0,0:0:0:0:
194,291,109282,1,0,0:0:0:0:
167,289,109350,1,0,0:0:0:0:
158,280,109418,1,0,0:0:0:0:
144,262,109487,1,0,0:0:0:0:
139,239,109555,1,0,0:0:0:0:
142,215,109623,1,0,0:0:0:0:
154,187,109691,1,0,0:0:0:0:
175,165,109759,1,0,0:0:0:0:
182,162,109827,2,0,B|264:99|264:99|225:181|384:201,1,262.5
395,148,110714,2,0,P|312:73|270:155,2,225
257,46,111873,5,0,0:0:0:0:
123,197,112146,1,0,0:0:0:0:
364,199,112282,1,0,0:0:0:0:
257,46,112418,1,0,0:0:0:0:
48,200,112555,1,0,0:0:0:0:
439,203,112691,1,0,0:0:0:0:
441,122,113237,5,0,0:0:0:0:
416,77,113305,1,0,0:0:0:0:
412,141,113373,1,0,0:0:0:0:
370,99,113441,1,0,0:0:0:0:
377,159,113509,1,0,0:0:0:0:
332,113,113577,1,0,0:0:0:0:
326,165,113646,1,0,0:0:0:0:
285,139,113714,1,0,0:0:0:0:
272,160,113782,1,0,0:0:0:0:
255,165,113850,1,0,0:0:0:0:
237,172,113918,1,0,0:0:0:0:
208,175,113987,1,0,0:0:0:0:
182,173,114055,1,0,0:0:0:0:
159,168,114123,1,0,0:0:0:0:
141,153,114191,1,0,0:0:0:0:
136,130,114259,1,0,0:0:0:0:
137,103,114327,1,0,0:0:0:0:
149,83,114396,1,0,0:0:0:0:
164,69,114464,1,0,0:0:0:0:
190,58,114532,1,0,0:0:0:0:
209,60,114600,1,0,0:0:0:0:
222,77,114668,1,0,0:0:0:0:
226,101,114737,1,0,0:0:0:0:
215,124,114805,1,0,0:0:0:0:
245,107,114873,1,0,0:0:0:0:
284,95,114941,1,0,0:0:0:0:
296,121,115009,1,0,0:0:0:0:
300,139,115077,1,0,0:0:0:0:
295,165,115146,1,0,0:0:0:0:
260,185,115214,1,0,0:0:0:0:
219,182,115282,1,0,0:0:0:0:
204,159,115350,1,0,0:0:0:0:
200,131,115418,1,0,0:0:0:0:
170,175,115487,1,0,0:0:0:0:
164,217,115555,1,0,0:0:0:0:
180,248,115623,1,0,0:0:0:0:
207,268,115691,1,0,0:0:0:0:
270,265,115759,1,0,0:0:0:0:
328,210,115827,1,0,0:0:0:0:
341,152,115896,1,0,0:0:0:0:
335,87,115964,1,0,0:0:0:0:
280,32,116032,1,0,0:0:0:0:
198,38,116100,1,0,0:0:0:0:
140,77,116168,1,0,0:0:0:0:
122,134,116237,1,0,0:0:0:0:
129,158,116373,2,0,B|209:210|209:215|209:215|94:292|307:264,1,300
355,254,117055,1,0,0:0:0:0:
355,254,117123,1,0,0:0:0:0:
355,254,117191,1,0,0:0:0:0:
388,155,117327,1,0,0:0:0:0:
220,37,117464,1,0,0:0:0:0:
314,205,117600,1,0,0:0:0:0:
159,84,117737,1,0,0:0:0:0:
119,248,117873,1,0,0:0:0:0:
119,248,117941,1,0,0:0:0:0:
119,248,118009,1,0,0:0:0:0:
417,197,118146,5,0,0:0:0:0:
121,193,118282,1,0,0:0:0:0:
426,77,118418,1,0,0:0:0:0:
194,284,118555,1,0,0:0:0:0:
317,22,118691,1,0,0:0:0:0:
314,293,118827,1,0,0:0:0:0:
200,42,118964,1,0,0:0:0:0:
197,72,119032,2,0,B|141:144|141:144|273:85|273:176,1,262.5
22,256,119646,5,0,0:0:0:0:
41,30,119782,1,0,0:0:0:0:
156,290,119918,1,0,0:0:0:0:
257,14,120055,1,0,0:0:0:0:
272,331,120191,1,0,0:0:0:0:
432,28,120327,1,0,0:0:0:0:
416,336,120464,1,0,0:0:0:0:
416,336,120532,2,0,B|307:320|307:320|370:239|240:195,1,262.5
263,203,121077,1,0,0:0:0:0:
263,203,121146,1,0,0:0:0:0:
263,203,121214,1,0,0:0:0:0:
263,203,121282,1,0,0:0:0:0:
263,203,121350,1,0,0:0:0:0:
263,203,121418,1,0,0:0:0:0:
263,203,121487,1,0,0:0:0:0:
263,203,121555,1,0,0:0:0:0:
263,203,121623,1,0,0:0:0:0:
263,203,121691,1,0,0:0:0:0:
263,203,121759,2,0,B|352:181|352:181|370:238,3,150
406,112,122850,5,0,0:0:0:0:
406,112,122918,1,0,0:0:0:0:
406,112,122987,1,0,0:0:0:0:
310,54,123123,1,0,0:0:0:0:
164,162,123259,1,0,0:0:0:0:
333,178,123396,1,0,0:0:0:0:
168,263,123532,1,0,0:0:0:0:
333,268,123668,1,0,0:0:0:0:
160,350,123805,1,0,0:0:0:0:
160,350,123873,1,0,0:0:0:0:
160,350,123941,1,0,0:0:0:0:
160,350,124009,2,0,B|233:337|233:337|231:251|295:240,1,187.5
281,243,124418,1,0,0:0:0:0:
281,243,124487,1,0,0:0:0:0:
385,158,124623,1,0,0:0:0:0:
408,135,124691,1,0,0:0:0:0:
271,174,124827,1,0,0:0:0:0:
240,153,124896,1,0,0:0:0:0:
215,59,125032,1,0,0:0:0:0:
244,40,125100,1,0,0:0:0:0:
124,181,125237,1,0,0:0:0:0:
114,209,125305,1,0,0:0:0:0:
233,266,125577,2,0,B|564:35|419:239|419:239|425:247,1,375
363,298,126464,5,0,0:0:0:0:
309,328,126600,1,0,0:0:0:0:
329,247,126737,1,0,0:0:0:0:
273,281,126873,1,0,0:0:0:0:
295,204,127009,1,0,0:0:0:0:
236,238,127146,1,0,0:0:0:0:
245,190,127282,1,0,0:0:0:0:
245,190,127350,1,0,0:0:0:0:
237,183,127418,1,0,0:0:0:0:
228,172,127487,1,0,0:0:0:0:
219,163,127555,1,0,0:0:0:0:
214,150,127623,1,0,0:0:0:0:
213,135,127691,1,0,0:0:0:0:
215,123,127759,1,0,0:0:0:0:
219,113,127827,1,0,0:0:0:0:
225,102,127896,1,0,0:0:0:0:
243,87,127964,1,0,0:0:0:0:
269,78,128032,1,0,0:0:0:0:
288,78,128100,1,0,0:0:0:0:
306,85,128168,1,0,0:0:0:0:
317,99,128237,1,0,0:0:0:0:
323,110,128305,1,0,0:0:0:0:
325,123,128373,1,0,0:0:0:0:
343,84,128441,1,0,0:0:0:0:
326,46,128509,1,0,0:0:0:0:
285,28,128577,1,0,0:0:0:0:
244,24,128646,1,0,0:0:0:0:
203,34,128714,1,0,0:0:0:0:
164,53,128782,1,0,0:0:0:0:
137,84,128850,1,0,0:0:0:0:
126,128,128918,1,0,0:0:0:0:
128,173,128987,1,0,0:0:0:0:
147,213,129055,1,0,0:0:0:0:
91,193,129123,1,0,0:0:0:0:
57,146,129191,1,0,0:0:0:0:
46,87,129259,1,0,0:0:0:0:
75,36,129327,1,0,0:0:0:0:
60,92,129396,1,0,0:0:0:0:
97,131,129464,1,0,0:0:0:0:
150,131,129532,1,0,0:0:0:0:
181,87,129600,1,0,0:0:0:0:
157,36,129668,1,0,0:0:0:0:
210,56,129737,1,0,0:0:0:0:
231,106,129805,1,0,0:0:0:0:
207,159,129873,1,0,0:0:0:0:
199,215,129941,1,0,0:0:0:0:
243,254,130009,1,0,0:0:0:0:
302,245,130077,1,0,0:0:0:0:
335,194,130146,1,0,0:0:0:0:
337,136,130214,1,0,0:0:0:0:
306,89,130282,1,0,0:0:0:0:
245,78,130350,1,0,0:0:0:0:
202,113,130418,1,0,0:0:0:0:
188,168,130487,1,0,0:0:0:0:
227,211,130555,1,0,0:0:0:0:
288,209,130623,1,0,0:0:0:0:
324,167,130691,1,0,0:0:0:0:
358,121,130759,1,0,0:0:0:0:
408,93,130827,1,0,0:0:0:0:
463,105,130896,1,0,0:0:0:0:
406,48,130964,1,0,0:0:0:0:
331,37,131032,1,0,0:0:0:0:
249,55,131100,1,0,0:0:0:0:
182,97,131168,1,0,0:0:0:0:
147,169,131237,1,0,0:0:0:0:
170,247,131305,1,0,0:0:0:0:
254,268,131373,1,0,0:0:0:0:
302,195,131441,1,0,0:0:0:0:
368,138,131509,1,0,0:0:0:0:
448,154,131577,1,0,0:0:0:0:
491,218,131646,1,0,0:0:0:0:
473,299,131714,1,0,0:0:0:0:
407,330,131782,1,0,0:0:0:0:
444,267,131850,1,0,0:0:0:0:
444,190,131918,1,0,0:0:0:0:
416,123,131987,1,0,0:0:0:0:
356,76,132055,1,0,0:0:0:0:
279,83,132123,1,0,0:0:0:0:
220,143,132191,1,0,0:0:0:0:
184,84,132259,1,0,0:0:0:0:
132,40,132327,1,0,0:0:0:0:
73,70,132396,1,0,0:0:0:0:
35,125,132464,1,0,0:0:0:0:
35,184,132532,1,0,0:0:0:0:
75,240,132600,1,0,0:0:0:0:
78,133,132668,1,0,0:0:0:0:
122,54,132737,1,0,0:0:0:0:
207,24,132805,1,0,0:0:0:0:
298,25,132873,1,0,0:0:0:0:
391,45,132941,1,0,0:0:0:0:
453,120,133009,1,0,0:0:0:0:
469,209,133077,1,0,0:0:0:0:
421,291,133146,1,0,0:0:0:0:
336,326,133214,1,0,0:0:0:0:
234,332,133282,1,0,0:0:0:0:
156,278,133350,1,0,0:0:0:0:
135,200,133418,1,0,0:0:0:0:
158,125,133487,1,0,0:0:0:0:
227,84,133555,1,0,0:0:0:0:
308,87,133623,1,0,0:0:0:0:
352,152,133691,1,0,0:0:0:0:
338,227,133759,1,0,0:0:0:0:
255,261,133827,1,0,0:0:0:0:
200,206,133896,1,0,0:0:0:0:
228,126,133964,1,0,0:0:0:0:
310,132,134032,1,0,0:0:0:0:
316,209,134100,1,0,0:0:0:0:
255,216,134168,1,0,0:0:0:0:
242,187,134237,1,0,0:0:0:0:
272,187,134305,1,0,0:0:0:0:
269,206,134373,1,0,0:0:0:0:
256,203,134441,1,0,0:0:0:0:
256,203,134509,1,0,0:0:0:0:
256,203,134577,1,0,0:0:0:0:
256,203,134646,1,0,0:0:0:0:
256,203,134714,1,0,0:0:0:0:
283,214,134782,6,0,B|365:144|365:144|195:185|195:185|234:138|48:18|48:18|32:37|4:230|62:322|62:322|126:278|230:289|255:367,1,1050
315,288,136896,6,0,L|267:252,1,37.5
338,260,137032,2,0,L|376:293,1,37.5
352,235,137168,2,0,L|319:208,1,37.5
372,208,137305,2,0,L|406:232,1,37.5
387,182,137441,2,0,L|353:160,1,37.5
400,155,137577,2,0,L|448:184,1,37.5
413,126,137714,2,0,L|366:98,1,37.5
427,98,137850,2,0,L|463:120,1,37.5
317,72,138122,5,0,0:0:0:0:
294,60,138190,1,0,0:0:0:0:
290,98,138259,1,0,0:0:0:0:
341,89,138327,1,0,0:0:0:0:
307,63,138395,1,0,0:0:0:0:
280,84,138463,1,0,0:0:0:0:
316,96,138531,1,0,0:0:0:0:
313,62,138600,1,0,0:0:0:0:
297,77,138668,1,0,0:0:0:0:
314,101,138736,1,0,0:0:0:0:
283,65,138804,1,0,0:0:0:0:
318,154,139146,6,0,B|224:230|224:230|199:108|76:131,2,300
279,214,140577,5,0,0:0:0:0:
279,214,140646,1,0,0:0:0:0:
409,120,140782,1,0,0:0:0:0:
311,53,140850,1,0,0:0:0:0:
141,193,140918,1,0,0:0:0:0:
301,127,140987,1,0,0:0:0:0:
175,57,141055,1,0,0:0:0:0:
20,192,141123,1,0,0:0:0:0:
20,192,141191,1,0,0:0:0:0:
20,203,141259,2,0,P|27:276|131:309,1,187.5
183,209,141737,5,0,0:0:0:0:
183,209,141805,1,0,0:0:0:0:
183,209,141873,1,0,0:0:0:0:
263,85,142009,1,0,0:0:0:0:
331,214,142146,1,0,0:0:0:0:
164,118,142282,1,0,0:0:0:0:
354,124,142418,1,0,0:0:0:0:
138,283,142555,1,0,0:0:0:0:
245,39,142691,1,0,0:0:0:0:
362,299,142827,1,0,0:0:0:0:
97,84,142964,1,0,0:0:0:0:
400,61,143100,1,0,0:0:0:0:
436,102,143168,2,0,B|460:192|460:192|370:149|336:295,1,262.5
328,300,143782,2,0,B|258:329|258:329|269:261|269:261|199:346|106:259,1,300
99,199,144600,5,0,0:0:0:0:
88,187,144668,1,0,0:0:0:0:
65,161,144737,1,0,0:0:0:0:
61,144,144805,1,0,0:0:0:0:
76,126,144873,1,0,0:0:0:0:
114,120,144941,1,0,0:0:0:0:
415,64,145077,1,0,0:0:0:0:
441,103,145146,1,0,0:0:0:0:
451,150,145214,1,0,0:0:0:0:
456,197,145282,1,0,0:0:0:0:
447,239,145350,1,0,0:0:0:0:
422,265,145418,1,0,0:0:0:0:
401,290,145487,2,0,B|315:287|315:287|324:194|226:260,1,225
256,192,146305,12,0,148759,0:0:0:0:
35,275,149168,6,0,B|36:104|36:104|32:204|32:204|144:198|144:198|143:90|143:90|139:291|139:291|211:159|211:159|219:148|323:163|325:264|219:311|162:241|162:241|355:282|359:287|359:285|343:84|343:84|351:191|351:191|246:189|427:174|427:174|376:280|377:280|524:263|524:263|426:154|426:155|534:285,1,2175
429,85,153396,5,0,0:0:0:0:
402,70,153532,1,0,0:0:0:0:
367,66,153668,1,0,0:0:0:0:
337,80,153805,1,0,0:0:0:0:
321,111,153941,1,0,0:0:0:0:
333,144,154077,1,0,0:0:0:0:
365,156,154214,1,0,0:0:0:0:
395,136,154350,1,0,0:0:0:0:
429,135,154487,1,0,0:0:0:0:
459,157,154623,1,0,0:0:0:0:
478,191,154759,1,0,0:0:0:0:
479,227,154896,1,0,0:0:0:0:
464,258,155032,1,0,0:0:0:0:
424,274,155168,1,0,0:0:0:0:
391,264,155305,1,0,0:0:0:0:
382,225,155441,1,0,0:0:0:0:
400,192,155577,1,0,0:0:0:0:
426,170,155714,1,0,0:0:0:0:
460,170,155850,1,0,0:0:0:0:
425,120,155987,1,0,0:0:0:0:
377,84,156123,1,0,0:0:0:0:
318,79,156259,1,0,0:0:0:0:
262,88,156396,1,0,0:0:0:0:
219,126,156532,1,0,0:0:0:0:
268,157,156668,1,0,0:0:0:0:
285,213,156805,1,0,0:0:0:0:
260,264,156941,1,0,0:0:0:0:
203,279,157077,1,0,0:0:0:0:
168,229,157214,1,0,0:0:0:0:
162,170,157350,1,0,0:0:0:0:
211,136,157487,1,0,0:0:0:0:
266,122,157623,1,0,0:0:0:0:
322,130,157759,1,0,0:0:0:0:
373,155,157896,1,0,0:0:0:0:
419,188,158032,1,0,0:0:0:0:
437,209,158100,2,0,P|487:299|465:368,1,150
356,339,158509,1,0,0:0:0:0:
400,300,158646,1,0,0:0:0:0:
435,252,158782,1,0,0:0:0:0:
449,194,158918,1,0,0:0:0:0:
440,135,159055,1,0,0:0:0:0:
414,81,159191,1,0,0:0:0:0:
366,43,159327,1,0,0:0:0:0:
398,95,159464,1,0,0:0:0:0:
364,145,159600,1,0,0:0:0:0:
306,140,159737,1,0,0:0:0:0:
283,85,159873,1,0,0:0:0:0:
315,36,160009,1,0,0:0:0:0:
263,12,160146,1,0,0:0:0:0:
205,12,160282,1,0,0:0:0:0:
147,25,160418,1,0,0:0:0:0:
99,60,160555,1,0,0:0:0:0:
159,72,160691,1,0,0:0:0:0:
209,100,160827,1,0,0:0:0:0:
233,151,160964,1,0,0:0:0:0:
240,206,161100,1,0,0:0:0:0:
178,186,161237,1,0,0:0:0:0:
181,245,161373,1,0,0:0:0:0:
225,287,161509,1,0,0:0:0:0:
287,289,161646,1,0,0:0:0:0:
342,257,161782,1,0,0:0:0:0:
364,200,161918,1,0,0:0:0:0:
364,144,162055,1,0,0:0:0:0:
364,144,162123,2,0,P|309:52|195:38,1,225
95,68,162737,6,0,B|237:55|237:55|108:132|109:132|307:95|503:188|478:217,1,562.5
428,257,164032,5,0,0:0:0:0:
401,257,164100,1,0,0:0:0:0:
312,255,164237,1,0,0:0:0:0:
276,255,164305,1,0,0:0:0:0:
171,253,164441,1,0,0:0:0:0:
134,255,164509,1,0,0:0:0:0:
121,256,164577,2,0,B|31:248|31:243|31:243|18:312,1,150
124,98,165123,5,0,0:0:0:0:
124,98,165191,1,0,0:0:0:0:
124,98,165259,1,0,0:0:0:0:
439,191,165396,1,0,0:0:0:0:
439,191,165464,1,0,0:0:0:0:
480,15,165532,1,0,0:0:0:0:
480,15,165600,1,0,0:0:0:0:
480,15,165668,1,0,0:0:0:0:
145,295,165805,1,0,0:0:0:0:
145,295,165873,1,0,0:0:0:0:
210,286,166146,6,0,B|339:219|339:220|285:324|354:319|354:320|424:150|424:150|300:99,1,450
394,189,167237,1,0,0:0:0:0:
394,189,167305,1,0,0:0:0:0:
394,189,167373,1,0,0:0:0:0:
332,61,167509,1,0,0:0:0:0:
173,40,167646,1,0,0:0:0:0:
79,118,167782,1,0,0:0:0:0:
79,118,167850,1,0,0:0:0:0:
79,118,167918,1,0,0:0:0:0:
71,130,167987,6,0,P|47:231|75:252,1,150
182,143,168396,5,0,0:0:0:0:
182,143,168464,1,0,0:0:0:0:
182,143,168532,1,0,0:0:0:0:
350,140,168668,1,0,0:0:0:0:
350,140,168737,1,0,0:0:0:0:
467,252,168873,1,0,0:0:0:0:
467,252,168941,1,0,0:0:0:0:
467,252,169009,1,0,0:0:0:0:
334,289,169146,1,0,0:0:0:0:
255,110,169214,1,0,0:0:0:0:
251,307,169282,1,0,0:0:0:0:
113,126,169350,1,0,0:0:0:0:
183,331,169418,1,0,0:0:0:0:
32,142,169487,1,0,0:0:0:0:
31,155,169555,2,0,B|33:246|101:272|101:272|33:333,1,225
431,43,170237,6,0,B|330:45|330:45|332:144|210:46,1,262.5
216,69,170714,1,0,0:0:0:0:
216,83,170782,1,0,0:0:0:0:
216,96,170850,1,0,0:0:0:0:
216,108,170918,1,0,0:0:0:0:
221,115,170987,1,0,0:0:0:0:
228,126,171055,1,0,0:0:0:0:
240,133,171123,1,0,0:0:0:0:
250,138,171191,1,0,0:0:0:0:
266,142,171259,1,0,0:0:0:0:
280,142,171327,1,0,0:0:0:0:
300,137,171396,1,0,0:0:0:0:
317,129,171464,1,0,0:0:0:0:
343,126,171532,1,0,0:0:0:0:
354,133,171600,1,0,0:0:0:0:
371,138,171668,2,0,L|418:93,11,37.5
376,144,172487,1,0,0:0:0:0:
384,156,172555,1,0,0:0:0:0:
387,180,172623,1,0,0:0:0:0:
385,201,172691,1,0,0:0:0:0:
373,222,172759,1,0,0:0:0:0:
359,230,172827,1,0,0:0:0:0:
337,234,172896,1,0,0:0:0:0:
302,230,172964,1,0,0:0:0:0:
286,204,173032,1,0,0:0:0:0:
287,168,173100,1,0,0:0:0:0:
270,133,173168,1,0,0:0:0:0:
250,113,173237,1,0,0:0:0:0:
229,108,173305,1,0,0:0:0:0:
202,111,173373,1,0,0:0:0:0:
185,121,173441,1,0,0:0:0:0:
173,142,173509,1,0,0:0:0:0:
176,168,173577,1,0,0:0:0:0:
170,191,173646,2,0,L|108:192,13,37.5
104,266,174668,5,0,0:0:0:0:
104,266,174737,1,0,0:0:0:0:
104,266,174805,1,0,0:0:0:0:
254,302,174941,1,0,0:0:0:0:
307,113,175009,1,0,0:0:0:0:
129,75,175077,1,0,0:0:0:0:
232,217,175146,1,0,0:0:0:0:
458,111,175214,1,0,0:0:0:0:
265,19,175282,1,0,0:0:0:0:
259,19,175350,2,0,P|173:30|96:113,1,187.5
86,343,175827,5,0,0:0:0:0:
28,19,175964,1,0,0:0:0:0:
251,338,176100,1,0,0:0:0:0:
250,15,176237,1,0,0:0:0:0:
423,343,176373,1,0,0:0:0:0:
490,10,176509,1,0,0:0:0:0:
300,354,176646,5,0,0:0:0:0:
508,118,176782,1,0,0:0:0:0:
152,294,176918,1,0,0:0:0:0:
316,43,177055,1,0,0:0:0:0:
27,216,177191,1,0,0:0:0:0:
29,204,177259,2,0,B|58:141|147:111|147:111|125:221|391:108,1,412.5
378,53,178350,6,0,L|340:33,19,37.5
381,61,179714,1,0,0:0:0:0:
383,69,179782,1,0,0:0:0:0:
383,77,179850,1,0,0:0:0:0:
379,84,179918,1,0,0:0:0:0:
376,89,179987,1,0,0:0:0:0:
369,94,180055,1,0,0:0:0:0:
360,99,180123,1,0,0:0:0:0:
348,101,180191,1,0,0:0:0:0:
334,99,180259,1,0,0:0:0:0:
325,90,180327,1,0,0:0:0:0:
321,72,180396,1,0,0:0:0:0:
328,53,180464,1,0,0:0:0:0:
340,43,180532,1,0,0:0:0:0:
309,37,180600,1,0,0:0:0:0:
274,44,180668,1,0,0:0:0:0:
247,59,180737,1,0,0:0:0:0:
230,87,180805,1,0,0:0:0:0:
258,92,180873,1,0,0:0:0:0:
284,125,180941,1,0,0:0:0:0:
282,156,181009,1,0,0:0:0:0:
248,174,181077,1,0,0:0:0:0:
217,159,181146,1,0,0:0:0:0:
205,125,181214,1,0,0:0:0:0:
229,133,181282,1,0,0:0:0:0:
242,160,181350,1,0,0:0:0:0:
232,192,181418,1,0,0:0:0:0:
198,205,181487,1,0,0:0:0:0:
162,204,181555,1,0,0:0:0:0:
145,168,181623,1,0,0:0:0:0:
118,211,181691,1,0,0:0:0:0:
122,263,181759,1,0,0:0:0:0:
156,299,181827,1,0,0:0:0:0:
205,305,181896,1,0,0:0:0:0:
250,285,181964,1,0,0:0:0:0:
259,234,182032,1,0,0:0:0:0:
235,187,182100,1,0,0:0:0:0:
189,168,182168,1,0,0:0:0:0:
223,119,182237,1,0,0:0:0:0:
268,84,182305,1,0,0:0:0:0:
321,62,182373,1,0,0:0:0:0:
376,56,182441,1,0,0:0:0:0:
352,109,182509,1,0,0:0:0:0:
389,153,182577,1,0,0:0:0:0:
443,125,182646,1,0,0:0:0:0:
456,70,182714,1,0,0:0:0:0:
492,146,182782,1,0,0:0:0:0:
489,219,182850,1,0,0:0:0:0:
449,277,182918,1,0,0:0:0:0:
380,299,182987,1,0,0:0:0:0:
309,272,183055,1,0,0:0:0:0:
276,203,183123,1,0,0:0:0:0:
304,134,183191,1,0,0:0:0:0:
386,129,183259,1,0,0:0:0:0:
422,202,183327,1,0,0:0:0:0:
388,272,183396,1,0,0:0:0:0:
317,312,183464,1,0,0:0:0:0:
230,311,183532,1,0,0:0:0:0:
171,255,183600,1,0,0:0:0:0:
200,183,183668,1,0,0:0:0:0:
268,138,183737,1,0,0:0:0:0:
341,176,183805,1,0,0:0:0:0:
392,229,183873,1,0,0:0:0:0:
368,108,183941,1,0,0:0:0:0:
273,47,184009,1,0,0:0:0:0:
149,59,184077,1,0,0:0:0:0:
52,134,184146,1,0,0:0:0:0:
28,233,184214,1,0,0:0:0:0:
61,322,184282,1,0,0:0:0:0:
144,369,184350,1,0,0:0:0:0:
151,365,184418,2,0,B|236:317|236:317|239:379|239:379|348:261|268:206,1,337.5
256,192,185237,12,0,187964,0:0:0:0:
433,192,188305,5,0,0:0:0:0:
414,140,188441,1,0,0:0:0:0:
376,99,188577,1,0,0:0:0:0:
327,73,188714,1,0,0:0:0:0:
380,81,188850,1,0,0:0:0:0:
424,109,188987,1,0,0:0:0:0:
440,156,189123,1,0,0:0:0:0:
433,205,189259,1,0,0:0:0:0:
389,240,189396,1,0,0:0:0:0:
407,190,189532,1,0,0:0:0:0:
380,141,189668,1,0,0:0:0:0:
319,147,189805,1,0,0:0:0:0:
332,206,189941,1,0,0:0:0:0:
391,214,190077,1,0,0:0:0:0:
450,196,190214,1,0,0:0:0:0:
443,253,190350,1,0,0:0:0:0:
402,292,190487,1,0,0:0:0:0:
350,316,190623,1,0,0:0:0:0:
297,320,190759,1,0,0:0:0:0:
257,276,190896,1,0,0:0:0:0:
242,216,191032,1,0,0:0:0:0:
239,158,191168,1,0,0:0:0:0:
249,100,191305,1,0,0:0:0:0:
296,64,191441,1,0,0:0:0:0:
253,26,191577,1,0,0:0:0:0:
195,25,191714,1,0,0:0:0:0:
140,44,191850,1,0,0:0:0:0:
188,57,191987,1,0,0:0:0:0:
238,86,192123,1,0,0:0:0:0:
244,139,192259,1,0,0:0:0:0:
212,187,192396,1,0,0:0:0:0:
158,203,192532,1,0,0:0:0:0:
146,204,192600,1,0,0:0:0:0:
133,215,192668,1,0,0:0:0:0:
123,228,192737,1,0,0:0:0:0:
115,243,192805,1,0,0:0:0:0:
118,258,192873,1,0,0:0:0:0:
129,268,192941,1,0,0:0:0:0:
144,269,193009,1,0,0:0:0:0:
162,267,193077,1,0,0:0:0:0:
161,310,193146,1,0,0:0:0:0:
134,334,193214,1,0,0:0:0:0:
94,339,193282,1,0,0:0:0:0:
56,315,193350,1,0,0:0:0:0:
39,284,193418,1,0,0:0:0:0:
31,240,193487,1,0,0:0:0:0:
33,192,193555,1,0,0:0:0:0:
47,151,193623,1,0,0:0:0:0:
62,117,193691,1,0,0:0:0:0:
89,80,193759,1,0,0:0:0:0:
134,67,193827,1,0,0:0:0:0:
177,60,193896,1,0,0:0:0:0:
171,106,193964,1,0,0:0:0:0:
160,145,194032,1,0,0:0:0:0:
164,190,194100,1,0,0:0:0:0:
205,155,194168,1,0,0:0:0:0:
243,141,194237,1,0,0:0:0:0:
278,154,194305,1,0,0:0:0:0:
303,188,194373,1,0,0:0:0:0:
283,229,194441,1,0,0:0:0:0:
246,252,194509,1,0,0:0:0:0:
200,232,194577,1,0,0:0:0:0:
190,276,194646,1,0,0:0:0:0:
166,318,194714,1,0,0:0:0:0:
114,319,194782,1,0,0:0:0:0:
84,285,194850,1,0,0:0:0:0:
86,236,194918,1,0,0:0:0:0:
106,195,194987,1,0,0:0:0:0:
136,169,195055,1,0,0:0:0:0:
174,154,195123,1,0,0:0:0:0:
215,150,195191,1,0,0:0:0:0:
255,163,195259,1,0,0:0:0:0:
284,194,195327,1,0,0:0:0:0:
309,230,195396,1,0,0:0:0:0:
341,268,195464,1,0,0:0:0:0:
393,275,195532,1,0,0:0:0:0:
447,256,195600,1,0,0:0:0:0:
473,204,195668,1,0,0:0:0:0:
473,148,195737,1,0,0:0:0:0:
445,97,195805,1,0,0:0:0:0:
403,53,195873,1,0,0:0:0:0:
346,33,195941,1,0,0:0:0:0:
288,47,196009,1,0,0:0:0:0:
233,72,196077,1,0,0:0:0:0:
190,113,196146,1,0,0:0:0:0:
171,170,196214,1,0,0:0:0:0:
192,224,196282,1,0,0:0:0:0:
235,262,196350,1,0,0:0:0:0:
290,278,196418,1,0,0:0:0:0:
339,247,196487,1,0,0:0:0:0:
327,318,196555,1,0,0:0:0:0:
260,357,196623,1,0,0:0:0:0:
187,360,196691,1,0,0:0:0:0:
119,327,196759,1,0,0:0:0:0:
76,266,196827,1,0,0:0:0:0:
61,191,196896,1,0,0:0:0:0:
64,115,196964,1,0,0:0:0:0:
100,48,197032,1,0,0:0:0:0:
171,13,197100,1,0,0:0:0:0:
243,12,197168,1,0,0:0:0:0:
309,35,197237,1,0,0:0:0:0:
337,94,197305,1,0,0:0:0:0:
334,68,197373,1,0,0:0:0:0:
335,52,197441,1,0,0:0:0:0:
343,37,197509,1,0,0:0:0:0:
352,26,197577,1,0,0:0:0:0:
368,21,197646,1,0,0:0:0:0:
388,20,197714,1,0,0:0:0:0:
402,23,197782,1,0,0:0:0:0:
419,31,197850,1,0,0:0:0:0:
430,52,197918,1,0,0:0:0:0:
434,84,197987,1,0,0:0:0:0:
434,99,198055,1,0,0:0:0:0:
420,112,198123,1,0,0:0:0:0:
395,116,198191,1,0,0:0:0:0:
364,111,198259,1,0,0:0:0:0:
348,101,198327,1,0,0:0:0:0:
358,146,198396,1,0,0:0:0:0:
376,194,198464,1,0,0:0:0:0:
364,240,198532,1,0,0:0:0:0:
321,266,198600,1,0,0:0:0:0:
364,290,198668,1,0,0:0:0:0:
398,327,198737,1,0,0:0:0:0:
421,362,198805,1,0,0:0:0:0:
452,311,198873,1,0,0:0:0:0:
441,255,198941,1,0,0:0:0:0:
408,208,199009,1,0,0:0:0:0:
368,163,199077,1,0,0:0:0:0:
370,107,199146,1,0,0:0:0:0:
400,57,199214,1,0,0:0:0:0:
447,30,199282,1,0,0:0:0:0:
364,21,199350,1,0,0:0:0:0:
300,36,199418,1,0,0:0:0:0:
242,70,199487,1,0,0:0:0:0:
203,120,199555,1,0,0:0:0:0:
189,185,199623,1,0,0:0:0:0:
198,252,199691,1,0,0:0:0:0:
240,302,199759,1,0,0:0:0:0:
300,320,199827,1,0,0:0:0:0:
362,324,199896,1,0,0:0:0:0:
411,287,199964,1,0,0:0:0:0:
428,227,200032,1,0,0:0:0:0:
363,266,200100,1,0,0:0:0:0:
288,280,200168,1,0,0:0:0:0:
217,251,200237,1,0,0:0:0:0:
192,191,200305,1,0,0:0:0:0:
250,223,200373,1,0,0:0:0:0:
321,214,200441,1,0,0:0:0:0:
380,169,200509,1,0,0:0:0:0:
404,95,200577,1,0,0:0:0:0:
295,144,200646,1,0,0:0:0:0:
157,120,200714,1,0,0:0:0:0:
94,21,200782,1,0,0:0:0:0:
32,150,200850,1,0,0:0:0:0:
34,283,200918,1,0,0:0:0:0:
111,362,200987,1,0,0:0:0:0:
229,366,201055,1,0,0:0:0:0:
352,352,201123,1,0,0:0:0:0:
444,294,201191,1,0,0:0:0:0:
480,194,201259,1,0,0:0:0:0:
476,103,201327,1,0,0:0:0:0:
477,12,201396,1,0,0:0:0:0:
11,16,201464,1,0,0:0:0:0:
17,378,201532,1,0,0:0:0:0:
492,365,201600,1,0,0:0:0:0:
350,29,201941,6,0,B|216:47|216:47|281:99,1,187.5
256,79,202350,1,0,0:0:0:0:
256,79,202418,1,0,0:0:0:0:
256,79,202487,1,0,0:0:0:0:
397,103,202623,1,0,0:0:0:0:
391,228,202759,1,0,0:0:0:0:
238,218,202896,1,0,0:0:0:0:
428,149,203032,1,0,0:0:0:0:
432,355,203168,1,0,0:0:0:0:
223,361,203305,1,0,0:0:0:0:
221,353,203373,2,0,P|133:305|198:277,1,225
268,227,203850,5,0,0:0:0:0:
268,227,203918,1,0,0:0:0:0:
268,227,203987,1,0,0:0:0:0:
342,89,204123,1,0,0:0:0:0:
399,193,204259,1,0,0:0:0:0:
193,114,204396,1,0,0:0:0:0:
268,84,204532,1,0,0:0:0:0:
116,280,204668,1,0,0:0:0:0:
425,84,204805,1,0,0:0:0:0:
51,349,204941,1,0,0:0:0:0:
69,42,205077,1,0,0:0:0:0:
472,340,205214,1,0,0:0:0:0:
472,340,205282,2,0,P|319:350|283:355,1,187.5
278,353,205691,1,0,0:0:0:0:
277,352,205759,1,0,0:0:0:0:
277,352,205827,1,0,0:0:0:0:
278,353,205896,1,0,0:0:0:0:
278,353,205964,1,0,0:0:0:0:
278,353,206032,1,0,0:0:0:0:
278,353,206100,1,0,0:0:0:0:
386,279,206237,5,0,0:0:0:0:
386,279,206305,1,0,0:0:0:0:
386,279,206373,1,0,0:0:0:0:
383,132,206509,1,0,0:0:0:0:
383,132,206577,1,0,0:0:0:0:
229,104,206714,1,0,0:0:0:0:
229,104,206782,1,0,0:0:0:0:
229,104,206850,1,0,0:0:0:0:
216,106,206918,2,0,P|133:146|140:204,1,150
139,206,207259,5,0,0:0:0:0:
145,230,207327,1,0,0:0:0:0:
162,252,207396,1,0,0:0:0:0:
183,263,207464,1,0,0:0:0:0:
216,263,207532,1,0,0:0:0:0:
242,254,207600,1,0,0:0:0:0:
258,224,207668,1,0,0:0:0:0:
268,185,207737,1,0,0:0:0:0:
267,137,207805,1,0,0:0:0:0:
239,104,207873,1,0,0:0:0:0:
205,99,207941,1,0,0:0:0:0:
169,114,208009,2,0,B|74:162|76:200|88:194|168:187,1,187.5
430,63,208487,5,0,0:0:0:0:
430,63,208555,1,0,0:0:0:0:
430,63,208623,1,0,0:0:0:0:
456,230,208759,1,0,0:0:0:0:
456,230,208827,1,0,0:0:0:0:
260,50,208896,1,0,0:0:0:0:
260,50,208964,1,0,0:0:0:0:
260,50,209032,1,0,0:0:0:0:
279,250,209100,1,0,0:0:0:0:
279,250,209168,1,0,0:0:0:0:
67,49,209305,1,0,0:0:0:0:
67,49,209373,1,0,0:0:0:0:
67,49,209441,1,0,0:0:0:0:
84,271,209577,1,0,0:0:0:0:
84,271,209646,1,0,0:0:0:0:
127,175,210123,6,0,B|184:64|367:54|367:54|237:159|393:180,1,487.5
257,131,211350,5,0,0:0:0:0:
189,99,211487,1,0,0:0:0:0:
240,200,211555,1,0,0:0:0:0:
160,230,211623,1,0,0:0:0:0:
477,235,211691,1,0,0:0:0:0:
475,97,211759,1,0,0:0:0:0:
150,80,211827,1,0,0:0:0:0:
156,222,211896,1,0,0:0:0:0:
467,228,211964,1,0,0:0:0:0:
482,102,212032,1,0,0:0:0:0:
158,76,212100,1,0,0:0:0:0:
152,254,212168,1,0,0:0:0:0:
478,242,212237,1,0,0:0:0:0:
466,102,212305,1,0,0:0:0:0:
165,80,212373,1,0,0:0:0:0:
419,128,212850,6,0,B|325:40|326:43|354:241|6:143,1,450
404,31,214077,6,0,B|87:61|87:61|400:167|71:322,1,750
82,297,215509,6,0,P|285:269|297:350,1,337.5
366,344,216327,1,0,0:0:0:0:
411,168,216600,5,0,0:0:0:0:
412,128,216668,1,0,0:0:0:0:
317,212,216805,1,0,0:0:0:0:
318,258,216873,1,0,0:0:0:0:
261,97,217009,1,0,0:0:0:0:
292,72,217077,1,0,0:0:0:0:
207,172,217214,1,0,0:0:0:0:
194,211,217282,1,0,0:0:0:0:
168,79,217418,5,0,0:0:0:0:
168,38,217487,1,0,0:0:0:0:
116,184,217623,1,0,0:0:0:0:
92,224,217691,1,0,0:0:0:0:
256,56,218032,5,0,0:0:0:0:
256,72,218100,1,0,0:0:0:0:
256,88,218168,1,0,0:0:0:0:
256,112,218237,1,0,0:0:0:0:
256,128,218305,1,0,0:0:0:0:
256,144,218373,1,0,0:0:0:0:
256,168,218441,1,0,0:0:0:0:
256,192,218509,1,0,0:0:0:0:
256,216,218577,1,0,0:0:0:0:
256,232,218646,1,0,0:0:0:0:
256,248,218714,2,0,B|280:304|280:304|168:336|176:256,1,187.5
168,208,219259,5,0,0:0:0:0:
168,208,219327,1,0,0:0:0:0:
168,208,219396,1,0,0:0:0:0:
256,120,219532,1,0,0:0:0:0:
240,184,219668,1,0,0:0:0:0:
320,128,219805,1,0,0:0:0:0:
304,208,219941,1,0,0:0:0:0:
376,144,220077,1,0,0:0:0:0:
360,224,220214,1,0,0:0:0:0:
392,200,220282,2,0,B|360:104|360:104|320:64|264:152,1,225
240,160,220759,1,0,0:0:0:0:
200,160,220827,1,0,0:0:0:0:
152,144,220896,1,0,0:0:0:0:
128,112,220964,1,0,0:0:0:0:
128,72,221032,1,0,0:0:0:0:
168,48,221100,1,0,0:0:0:0:
208,40,221168,1,0,0:0:0:0:
248,40,221237,1,0,0:0:0:0:
280,64,221305,2,0,B|352:104|352:104|368:160,1,112.5
368,200,221646,5,0,0:0:0:0:
400,40,221782,1,0,0:0:0:0:
264,200,221918,1,0,0:0:0:0:
224,32,222055,1,0,0:0:0:0:
112,224,222191,1,0,0:0:0:0:
32,32,222327,1,0,0:0:0:0:
32,200,222668,6,0,L|448:192,2,412.5
112,240,224714,5,0,0:0:0:0:
288,88,225123,1,0,0:0:0:0:
448,224,225668,1,0,0:0:0:0:
264,352,226146,1,0,0:0:0:0:
152,208,226623,1,0,0:0:0:0:
264,104,227100,1,0,0:0:0:0:
368,208,227577,1,0,0:0:0:0:
224,296,228055,1,0,0:0:0:0:
152,192,228532,1,0,0:0:0:0:
256,88,229009,1,0,0:0:0:0:
384,160,229487,1,0,0:0:0:0:
248,304,229964,1,0,0:0:0:0:
120,208,230441,1,0,0:0:0:0:
256,192,230850,12,0,233714,0:0:0:0:
