osu file format v14

[General]
AudioFilename: audio.mp3
AudioLeadIn: 0
PreviewTime: 71628
Countdown: 0
SampleSet: Soft
StackLeniency: 0.7
Mode: 0
LetterboxInBreaks: 0
WidescreenStoryboard: 0

[Editor]
DistanceSpacing: 1.5
BeatDivisor: 4
GridSize: 32
TimelineZoom: 1

[Metadata]
Title:Toumei Datta Sekai (TV Size)
TitleUnicode:透明だった世界 (TV Size)
Artist:Hata Motohiro
ArtistUnicode:秦基博
Creator:Sajinn
Version:Painful
Source:NARUTO-ナルト-疾風伝
Tags:shippuden shippuuden opening 7 op anime male vocalist rock japanese jrock j-rock irohas suyuko nofc stixy mugiwarasekai
BeatmapID:3138574
BeatmapSetID:1534838

[Difficulty]
HPDrainRate:5.2
CircleSize:4.2
OverallDifficulty:8.2
ApproachRate:8.8
SliderMultiplier:1.92
SliderTickRate:1

[Events]
//Background and Video events
0,0,"cropped-1920-1200-1035225.jpg",0,0
//Break Periods
//Storyboard Layer 0 (Background)
//Storyboard Layer 1 (Fail)
//Storyboard Layer 2 (Pass)
//Storyboard Layer 3 (Foreground)
//Storyboard Layer 4 (Overlay)
//Storyboard Sound Samples

[TimingPoints]
-4711,357.142857142857,4,2,22,52,1,0
646,-192.307692307692,4,2,22,52,0,0
914,-192.307692307692,4,2,22,5,0,0
1003,-81.9672131147541,4,2,22,72,0,0
1271,-192.307692307692,4,2,22,5,0,0
1360,-98.0392156862745,4,2,22,72,0,0
3771,-192.307692307692,4,2,22,5,0,0
3860,-98.0392156862745,4,2,22,72,0,0
4128,-192.307692307692,4,2,22,5,0,0
4217,-98.0392156862745,4,2,22,72,0,0
6628,-192.307692307692,4,2,22,5,0,0
6717,-81.9672131147541,4,2,22,72,0,0
6985,-192.307692307692,4,2,22,5,0,0
7074,-98.0392156862745,4,2,22,72,0,0
9485,-192.307692307692,4,2,22,5,0,0
9574,-98.0392156862745,4,2,22,72,0,0
9842,-192.307692307692,4,2,22,5,0,0
9931,-98.0392156862745,4,2,22,72,0,0
12432,-161.290322580645,4,2,22,52,0,0
15289,-98.0392156862746,4,2,22,52,0,0
15557,-192.307692307692,4,2,22,5,0,0
15646,-98.0392156862746,4,2,22,52,0,0
15824,-138.888888888889,4,2,22,52,0,0
23860,-98.0392156862746,4,2,22,52,0,0
24396,-138.888888888889,4,2,22,52,0,0
26985,-192.307692307692,4,2,22,52,0,0
27074,-138.888888888889,4,2,22,52,0,0
27342,-192.307692307692,4,2,22,52,0,0
27431,-138.888888888889,4,2,22,52,0,0
34932,-138.888888888889,4,2,22,62,0,0
35289,-89.2857142857144,4,2,22,62,0,0
36003,-108.695652173913,4,2,22,62,0,0
36539,-89.2857142857143,4,2,22,62,0,0
36807,-192.307692307692,4,2,22,5,0,0
36896,-89.2857142857143,4,2,22,62,0,0
38414,-192.307692307692,4,2,22,5,0,0
38503,-108.695652173913,4,2,22,62,0,0
39396,-89.2857142857143,4,2,22,62,0,0
41717,-108.695652173913,4,2,22,62,0,0
42253,-89.2857142857143,4,2,22,62,0,0
42789,-108.695652173913,4,2,22,62,0,0
43860,-89.2857142857143,4,2,22,62,0,0
44128,-192.307692307692,4,2,22,5,0,0
44217,-108.695652173913,4,2,22,62,0,0
44574,-108.695652173913,4,2,22,62,0,0
45289,-89.2857142857143,4,2,22,62,0,0
45557,-192.307692307692,4,2,22,5,0,0
45646,-108.695652173913,4,2,22,62,0,0
46717,-89.2857142857143,4,2,22,62,0,0
47253,-108.695652173913,4,2,22,62,0,0
48146,-89.2857142857143,4,2,22,62,0,0
48414,-192.307692307692,4,2,22,5,0,0
48503,-108.695652173913,4,2,22,62,0,0
49574,-89.2857142857143,4,2,22,72,0,0
49842,-192.307692307692,4,2,22,5,0,0
49932,-89.2857142857143,4,2,22,72,0,0
50914,-192.307692307692,4,2,22,5,0,0
51004,-89.2857142857143,4,2,22,72,0,0
53414,-192.307692307692,4,2,22,5,0,0
53503,-89.2857142857143,4,2,22,72,0,0
55557,-192.307692307692,4,2,22,5,0,0
55646,-89.2857142857143,4,2,22,72,0,0
56271,-192.307692307692,4,2,22,5,0,0
56360,-89.2857142857143,4,2,22,72,0,0
61271,-192.307692307692,4,2,22,5,0,0
61361,-89.2857142857143,4,2,22,72,0,0
62342,-192.307692307692,4,2,22,5,0,0
62432,-89.2857142857143,4,2,22,72,0,0
62699,-192.307692307692,4,2,22,5,0,0
62789,-89.2857142857143,4,2,22,72,0,0
64842,-192.307692307692,4,2,22,5,0,0
64932,-89.2857142857143,4,2,22,72,0,0
65199,-192.307692307692,4,2,22,5,0,0
65289,-89.2857142857143,4,2,22,72,0,0
68057,-192.307692307692,4,2,22,72,0,0
68146,-89.2857142857143,4,2,22,72,0,0
69842,-192.307692307692,4,2,22,5,0,0
69932,-89.2857142857143,4,2,22,72,0,0
72432,-89.2857142857143,4,2,22,82,0,0
75557,-192.307692307692,4,2,22,5,0,0
75647,-89.2857142857143,4,2,22,82,0,0
81271,-192.307692307692,4,2,22,5,0,0
81361,-89.2857142857143,4,2,22,82,0,0

[Colours]
Combo1 : 255,128,64
Combo2 : 128,255,255

[HitObjects]
79,97,289,5,8,0:2:0:0:
112,77,378,5,8,3:0:0:0:
156,108,467,5,8,3:0:0:0:
221,73,557,5,8,3:0:0:0:
241,88,646,6,0,P|282:86|315:62,1,74.8799995429687,12|0,0:2|0:0,0:0:0:0:
342,138,1003,6,0,B|392:171|437:125|408:108|450:63|508:98,1,175.679992762207,4|0,1:2|0:0,0:0:0:0:
481,171,1360,2,0,P|464:226|449:278,1,97.9200005976563,10|0,0:2|1:2,0:0:0:0:
234,253,1717,2,0,P|282:236|335:216,1,97.9200005976563,10|0,0:2|1:2,0:0:0:0:
474,375,2074,1,10,0:2:0:0:
370,301,2253,1,2,1:2:0:0:
286,368,2432,5,8,0:2:0:0:
225,326,2610,1,0,1:2:0:0:
110,351,2789,5,8,0:2:0:0:
17,320,2967,1,0,1:2:0:0:
158,287,3146,5,8,0:2:0:0:
31,318,3324,1,0,1:2:0:0:
146,215,3503,5,8,0:2:0:0:
16,181,3682,2,0,P|42:172|70:158,1,48.9600002988281,0|0,1:2|0:0,0:0:0:0:
203,126,3860,6,0,P|146:136|119:54,1,146.880000896484,12|0,0:2|0:0,0:0:0:0:
222,131,4217,2,0,P|268:145|334:165,1,97.9200005976563,10|0,0:2|1:2,0:0:0:0:
367,6,4574,2,0,P|312:29|315:73,1,97.9200005976563,10|0,0:2|1:2,0:0:0:0:
438,198,4932,1,10,0:2:0:0:
397,82,5110,1,2,1:2:0:0:
313,270,5289,5,8,0:2:0:0:
365,219,5467,1,0,1:2:0:0:
302,282,5646,5,8,0:2:0:0:
204,237,5824,1,0,1:2:0:0:
102,364,6003,5,8,0:2:0:0:
215,315,6182,1,2,1:2:0:0:
47,206,6360,5,10,0:2:0:0:
99,345,6539,2,0,P|113:302|123:274,1,48.9600002988281,2|0,1:2|0:0,0:0:0:0:
205,159,6717,6,0,B|156:165|146:109|146:109|161:190|92:210,1,175.679992762207,12|0,0:2|0:0,0:0:0:0:
47,206,7074,2,0,P|33:159|18:112,1,97.9200005976563,10|0,0:2|1:2,0:0:0:0:
127,13,7432,2,0,P|173:27|220:41,1,97.9200005976563,10|0,0:2|1:2,0:0:0:0:
385,26,7789,1,10,0:2:0:0:
267,107,7967,1,2,1:2:0:0:
453,190,8146,5,8,0:2:0:0:
386,157,8324,1,0,1:2:0:0:
316,212,8503,5,8,0:2:0:0:
228,234,8682,1,0,1:2:0:0:
122,180,8860,5,8,0:2:0:0:
18,138,9039,1,0,1:2:0:0:
139,186,9217,5,8,0:2:0:0:
18,288,9396,2,0,P|54:276|83:267,1,48.9600002988281,0|0,1:2|0:0,0:0:0:0:
222,244,9574,6,0,B|273:262|273:262|294:293|294:293|367:320,1,146.880000896484,12|0,0:2|0:0,0:0:0:0:
419,278,9932,2,0,P|453:246|422:187,1,97.9200005976563,10|0,0:2|1:2,0:0:0:0:
306,96,10289,2,0,P|320:142|334:189,1,97.9200005976563,10|0,0:2|1:2,0:0:0:0:
421,292,10646,1,10,0:2:0:0:
452,187,10824,1,2,1:2:0:0:
295,88,11003,5,8,0:2:0:0:
356,127,11182,1,0,1:2:0:0:
468,35,11360,5,8,0:2:0:0:
386,52,11539,1,0,1:2:0:0:
292,4,11717,5,8,0:2:0:0:
190,31,11896,1,2,1:2:0:0:
47,17,12074,5,10,0:2:0:0:
101,135,12253,1,2,1:2:0:0:
105,139,12342,1,0,1:0:0:0:
109,143,12432,6,0,P|93:93|70:23,1,119.039995277344,2|0,0:2|0:0,0:0:0:0:
220,105,12967,2,0,P|201:161|183:218,1,119.039995277344,2|2,0:2|0:2,0:0:0:0:
46,253,13503,2,0,P|84:237|113:225,1,59.519997638672,2|2,0:2|0:2,0:0:0:0:
182,218,13860,2,0,P|231:247|289:198,1,119.039995277344,2|2,0:2|0:2,0:0:0:0:
294,139,14396,2,0,P|350:157|407:175,1,119.039995277344,2|2,0:2|0:2,0:0:0:0:
481,146,14932,1,10,0:2:0:0:
431,305,15199,5,2,0:0:0:0:
420,315,15289,2,0,P|376:318|361:209,1,146.880000896484,2|0,1:2|0:0,0:0:0:0:
344,231,15646,1,0,1:2:0:0:
286,356,15824,2,0,P|254:342|222:329,1,69.1200016875,2|0,0:2|1:2,0:0:0:0:
155,249,16182,1,2,0:2:0:0:
148,242,16271,2,0,P|167:237|190:228,1,34.56000084375,2|0,3:0|1:2,0:0:0:0:
128,341,16539,6,0,P|97:363|58:349,1,69.1200016875,2|0,3:0|1:2,0:0:0:0:
46,273,16896,2,0,P|59:241|72:209,1,69.1200016875,2|0,0:2|1:2,0:0:0:0:
202,174,17253,2,0,P|188:142|175:110,1,69.1200016875,2|0,0:2|1:2,0:0:0:0:
65,28,17610,1,2,0:2:0:0:
59,23,17699,2,0,P|87:34|109:42,1,34.56000084375,2|0,3:0|1:2,0:0:0:0:
171,99,17967,1,2,3:0:0:0:
176,95,18057,1,2,3:0:0:0:
181,92,18146,6,0,B|228:110|228:110|246:134|246:134|309:159,1,138.240003375,0|0,1:2|1:2,0:0:0:0:
338,5,18682,2,0,P|312:34|320:70,1,69.1200016875,0|0,0:0|1:2,0:0:0:0:
426,100,19039,1,2,0:2:0:0:
435,104,19128,2,0,P|407:115|385:123,1,34.56000084375,2|0,3:0|1:2,0:0:0:0:
308,154,19396,1,2,3:0:0:0:
396,242,19574,5,2,1:2:0:0:
332,290,19753,2,0,P|363:276|395:263,1,69.1200016875,2|0,0:2|1:2,0:0:0:0:
209,204,20110,2,0,P|240:217|272:230,1,69.1200016875,2|0,0:2|1:2,0:0:0:0:
250,340,20467,1,2,0:2:0:0:
241,348,20557,2,0,P|234:327|225:303,1,34.56000084375,2|0,3:0|1:2,0:0:0:0:
198,196,20824,1,2,3:0:0:0:
194,192,20914,1,2,3:0:0:0:
190,187,21003,6,0,P|143:233|80:213,1,138.240003375,2|0,1:2|1:2,0:0:0:0:
27,82,21539,1,2,0:2:0:0:
85,121,21717,2,0,P|116:106|148:93,1,69.1200016875,2|0,1:2|0:0,0:0:0:0:
182,22,21985,1,2,3:0:0:0:
189,15,22074,2,0,P|221:27|252:42,1,69.1200016875,0|2,1:2|3:0,0:0:0:0:
296,126,22432,5,0,1:2:0:0:
272,193,22610,1,0,0:0:0:0:
302,260,22789,1,0,1:2:0:0:
282,336,22967,1,0,0:0:0:0:
318,260,23146,1,0,1:2:0:0:
389,243,23324,1,0,0:0:0:0:
451,276,23503,1,0,1:2:0:0:
477,340,23682,1,2,3:0:0:0:
389,228,23860,6,0,B|351:180|387:129|412:146|446:90|383:32,1,195.840001195313,4|0,1:2|1:2,0:0:0:0:
282,39,24396,1,0,0:0:0:0:
256,105,24574,2,0,P|223:117|192:132,1,69.1200016875,0|0,1:2|0:0,0:0:0:0:
121,94,24842,1,2,3:0:0:0:
111,89,24932,2,0,P|90:60|107:24,1,69.1200016875,2|2,1:2|3:0,0:0:0:0:
181,145,25289,5,2,1:2:0:0:
146,208,25467,1,2,0:2:0:0:
206,299,25646,2,0,P|189:229|169:144,1,138.240003375,2|2,1:2|1:2,0:0:0:0:
282,222,26182,1,2,0:2:0:0:
287,230,26271,2,0,P|317:239|331:245,1,34.56000084375,2|0,3:0|1:2,0:0:0:0:
441,268,26539,1,2,3:0:0:0:
446,274,26628,1,2,3:0:0:0:
451,279,26717,6,0,P|402:298|345:321,1,103.68000253125,2|2,1:2|0:2,0:0:0:0:
316,384,27074,2,0,P|267:364|219:345,1,103.68000253125,2|2,1:2|0:2,0:0:0:0:
161,285,27432,2,0,P|184:258|175:211,1,69.1200016875,2|2,1:2|0:2,0:0:0:0:
124,177,27699,1,2,3:0:0:0:
114,172,27789,1,2,1:2:0:0:
47,207,27967,1,2,3:0:0:0:
2,97,28146,6,0,P|50:115|137:150,1,138.240003375,2|2,1:2|1:2,0:0:0:0:
159,54,28682,2,0,P|195:41|240:26,1,69.1200016875,2|0,0:2|1:2,0:0:0:0:
247,119,29039,1,2,0:2:0:0:
251,127,29128,2,0,P|238:153|233:165,1,34.56000084375,2|0,3:0|1:2,0:0:0:0:
271,266,29396,1,2,3:0:0:0:
275,271,29485,1,2,3:0:0:0:
278,276,29574,6,0,P|301:237|391:259,1,138.240003375,0|0,1:2|1:2,0:0:0:0:
445,373,30110,1,0,0:0:0:0:
385,331,30289,2,0,P|352:342|319:353,1,69.1200016875,0|0,1:2|0:0,0:0:0:0:
247,342,30557,1,2,3:0:0:0:
238,335,30646,5,2,1:2:0:0:
278,276,30824,1,2,3:0:0:0:
238,195,31003,1,2,1:2:0:0:
204,129,31182,1,2,0:2:0:0:
243,205,31360,1,2,1:2:0:0:
308,166,31539,1,2,0:2:0:0:
388,194,31717,1,2,1:2:0:0:
470,182,31896,1,2,0:2:0:0:
380,195,32074,1,2,1:2:0:0:
429,55,32253,1,2,3:0:0:0:
433,51,32342,1,2,3:0:0:0:
437,47,32432,6,0,P|453:114|469:181,1,138.240003375,2|0,1:2|1:2,0:0:0:0:
404,268,32967,1,2,0:2:0:0:
507,320,33146,2,0,P|448:300|401:282,1,103.68000253125,2|2,1:2|3:0,0:0:0:0:
353,334,33503,2,0,P|325:357|282:345,1,69.1200016875,0|2,1:2|3:0,0:0:0:0:
186,216,33860,5,2,1:2:0:0:
207,221,34039,1,0,0:0:0:0:
236,249,34217,1,0,1:2:0:0:
231,322,34396,1,0,0:0:0:0:
133,370,34574,1,0,1:2:0:0:
246,328,34753,1,0,0:0:0:0:
56,264,34932,1,8,0:2:0:0:
72,249,35289,6,0,B|119:202|71:137|36:165|-2:104|55:42,1,215.040002625,4|10,1:2|0:2,0:0:0:0:
52,53,35824,1,0,0:0:0:0:
151,143,36003,2,0,P|200:125|239:110,1,88.3199970351563,2|0,1:2|1:2,0:0:0:0:
344,21,36360,1,10,0:2:0:0:
482,92,36539,6,0,B|418:68|418:68|398:39|398:39|343:20,1,161.28000196875,6|0,1:2|0:0,0:0:0:0:
303,85,36896,1,0,1:2:0:0:
350,184,37074,5,8,0:2:0:0:
312,97,37253,1,0,0:0:0:0:
291,243,37432,5,0,1:2:0:0:
435,188,37610,1,0,1:2:0:0:
233,184,37789,5,8,0:2:0:0:
403,277,37967,1,0,0:0:0:0:
245,317,38146,6,0,B|284:298|291:243|291:243|287:297|335:321,1,161.28000196875,4|0,1:2|0:0,0:0:0:0:
231,322,38503,2,0,P|189:306|148:291,1,88.3199970351563,10|0,0:2|0:0,0:0:0:0:
159,141,38860,2,0,P|117:156|76:171,1,88.3199970351563,10|0,0:2|1:2,0:0:0:0:
35,238,39128,1,0,1:0:0:0:
30,248,39217,1,10,0:2:0:0:
212,234,39396,6,0,B|247:175|208:129|182:158|140:100|178:45,1,215.040002625,6|2,1:2|1:2,0:0:0:0:
318,34,39932,1,10,0:2:0:0:
385,102,40110,1,2,0:2:0:0:
465,57,40289,1,2,1:2:0:0:
376,111,40467,5,10,0:2:0:0:
371,118,40557,1,8,0:2:0:0:
370,132,40646,1,10,0:2:0:0:
377,149,40735,1,8,0:2:0:0:
392,175,40824,1,10,0:2:0:0:
385,209,40914,1,8,0:2:0:0:
363,242,41003,6,0,B|314:218|314:218|266:238|266:238|248:305|177:300,1,215.040002625,4|10,1:2|0:2,0:0:0:0:
182,296,41539,1,0,0:0:0:0:
82,171,41717,2,0,P|123:186|164:201,1,88.3199970351563,2|0,1:2|1:2,0:0:0:0:
45,271,42074,1,10,0:2:0:0:
166,107,42253,6,0,B|206:108|216:47|216:47|202:142|275:155,1,215.040002625,6|0,1:2|1:2,0:0:0:0:
353,90,42789,2,0,P|394:74|435:59,1,88.3199970351563,8|2,0:2|0:2,0:0:0:0:
507,200,43146,1,2,1:2:0:0:
388,155,43324,1,2,1:2:0:0:
502,128,43503,1,10,0:2:0:0:
357,227,43682,1,2,1:2:0:0:
354,232,43771,1,0,1:0:0:0:
350,238,43860,6,0,P|299:185|218:219,1,161.28000196875,6|0,1:2|0:0,0:0:0:0:
173,269,44217,1,10,0:2:0:0:
313,362,44396,1,2,0:2:0:0:
249,323,44574,2,0,B|207:360|158:320|182:301|143:260|88:291,1,176.639994070313,2|10,1:2|0:2,0:0:0:0:
33,353,45110,1,2,0:2:0:0:
18,152,45289,6,0,B|68:91|68:91|117:158,1,161.28000196875,4|0,1:2|0:0,0:0:0:0:
189,186,45646,2,0,P|230:169|271:154,1,88.3199970351563,8|0,0:2|0:0,0:0:0:0:
265,6,46003,2,0,P|226:30|227:80,1,88.3199970351563,0|0,1:2|1:2,0:0:0:0:
486,105,46360,2,0,P|444:88|403:73,1,88.3199970351563,8|2,0:2|1:2,0:0:0:0:
315,82,46628,1,0,1:0:0:0:
307,89,46717,6,0,B|353:137|314:194|288:165|246:223|287:289,1,215.040002625,6|10,1:2|0:2,0:0:0:0:
430,327,47253,1,2,0:2:0:0:
324,344,47432,2,0,P|365:327|406:312,1,88.3199970351563,2|0,1:2|1:2,0:0:0:0:
248,227,47789,1,10,0:2:0:0:
189,286,47967,1,2,0:2:0:0:
55,209,48146,6,0,B|108:229|108:229|124:260|124:260|200:290,1,161.28000196875,4|0,1:2|0:0,0:0:0:0:
248,227,48503,2,0,P|279:193|267:141,1,88.3199970351563,8|0,0:2|0:0,0:0:0:0:
89,59,48860,5,8,0:2:0:0:
83,64,48949,1,8,0:2:0:0:
84,72,49039,1,8,3:0:0:0:
90,79,49128,1,8,3:0:0:0:
103,92,49217,5,8,0:2:0:0:
150,70,49307,5,8,0:2:0:0:
209,105,49396,5,8,0:2:0:0:
279,71,49485,5,8,0:2:0:0:
284,76,49574,6,0,B|212:106|212:106|291:162,1,161.28000196875,6|0,1:2|0:0,0:0:0:0:
288,158,49932,1,8,0:2:0:0:
439,25,50110,2,0,P|419:76|399:131,1,107.5200013125,2|0,0:2|1:2,0:0:0:0:
438,193,50467,1,0,1:2:0:0:
397,357,50646,2,0,B|356:380|316:341|336:325|295:289|254:314,1,161.28000196875,10|0,0:2|0:0,0:0:0:0:
186,294,51003,5,0,1:2:0:0:
84,228,51182,1,0,1:0:0:0:
79,225,51271,1,0,1:0:0:0:
73,222,51360,1,8,0:2:0:0:
85,356,51539,2,0,P|136:336|191:316,1,107.5200013125,2|0,0:2|1:2,0:0:0:0:
256,217,51896,1,2,1:2:0:0:
179,77,52074,1,10,0:2:0:0:
347,73,52253,1,2,1:2:0:0:
352,76,52342,1,0,1:0:0:0:
357,80,52432,6,0,B|298:54|257:95|257:95|239:168|156:157,1,215.040002625,2|8,1:2|0:2,0:0:0:0:
48,42,52967,2,0,P|59:73|67:102,1,53.76000065625,2|0,0:2|1:2,0:0:0:0:
146,228,53146,2,0,B|114:233|91:184|91:184|107:261|55:286,1,161.28000196875,0|0,1:2|0:0,0:0:0:0:
36,368,53503,2,0,P|86:348|136:329,1,107.5200013125,10|0,0:2|0:0,0:0:0:0:
313,377,53860,6,0,B|344:323|299:273|283:293|232:222|282:169,1,215.040002625,0|8,1:2|0:2,0:0:0:0:
411,61,54396,1,2,0:2:0:0:
227,121,54574,1,2,1:2:0:0:
158,84,54753,1,0,1:2:0:0:
336,80,54932,1,10,0:2:0:0:
470,158,55110,1,2,1:2:0:0:
475,162,55199,1,0,1:0:0:0:
479,166,55289,6,0,P|405:142|319:113,1,161.28000196875,0|0,1:2|0:0,0:0:0:0:
253,142,55646,2,0,P|221:173|238:238,1,107.5200013125,8|0,0:2|0:0,0:0:0:0:
421,291,56003,2,0,B|369:314|369:314|350:348|350:348|274:380,1,161.28000196875,0|0,1:2|0:0,0:0:0:0:
237,318,56360,2,0,P|186:298|136:279,1,107.5200013125,8|2,0:2|0:2,0:0:0:0:
0,194,56717,5,2,1:2:0:0:
117,66,56896,2,0,P|97:116|78:166,1,107.5200013125,2|8,0:2|0:2,0:0:0:0:
136,279,57253,1,2,1:2:0:0:
139,285,57342,1,0,1:0:0:0:
143,290,57432,1,0,1:2:0:0:
276,161,57610,2,0,B|235:176|235:176|221:197|221:197|173:215,1,107.5200013125,2|8,1:2|0:2,0:0:0:0:
47,277,57967,1,2,0:2:0:0:
322,317,58146,6,0,B|275:288|275:288|227:311|227:311|209:383|128:378,2,215.040002625,0|8|0,1:2|0:2|1:2,0:0:0:0:
376,384,59039,1,0,1:2:0:0:
462,258,59217,1,10,0:2:0:0:
324,54,59396,6,0,P|343:123|386:271,1,215.040002625,6|0,1:2|1:2,0:0:0:0:
512,133,59932,2,0,P|479:93|428:102,1,107.5200013125,8|0,0:2|0:0,0:0:0:0:
331,205,60289,1,0,1:2:0:0:
199,135,60467,5,8,0:2:0:0:
183,127,60557,1,8,0:2:0:0:
163,127,60646,2,0,P|131:137|96:142,1,53.76000065625,8|8,0:2|0:2,0:0:0:0:
271,258,60824,2,0,P|239:248|204:243,1,53.76000065625,8|8,0:2|0:2,0:0:0:0:
0,306,61003,6,0,B|52:283|52:283|71:249|71:249|131:223,1,161.28000196875,6|0,1:2|0:0,0:0:0:0:
140,225,61360,1,8,0:2:0:0:
227,384,61539,2,0,P|188:347|209:296,1,107.5200013125,2|0,0:2|1:2,0:0:0:0:
271,258,61896,1,0,1:2:0:0:
477,374,62074,2,0,P|416:354|317:321,1,161.28000196875,10|0,0:2|0:0,0:0:0:0:
271,258,62432,6,0,B|248:217|287:177|303:197|339:156|314:115,1,161.28000196875,0|0,1:2|0:0,0:0:0:0:
246,84,62789,2,0,P|195:103|145:122,1,107.5200013125,8|0,0:2|0:0,0:0:0:0:
135,128,63057,1,0,1:2:0:0:
125,126,63146,1,2,1:2:0:0:
186,247,63324,1,2,1:2:0:0:
69,348,63503,1,10,0:2:0:0:
15,221,63681,1,2,1:2:0:0:
12,216,63771,1,0,1:0:0:0:
9,211,63860,6,0,B|66:196|109:235|109:235|105:305|177:333,1,215.040002625,2|8,1:2|0:2,0:0:0:0:
298,384,64396,2,0,P|279:333|260:283,1,107.5200013125,2|0,0:2|1:2,0:0:0:0:
192,154,64753,2,0,P|217:160|242:170,1,53.76000065625,0|0,1:2|0:0,0:0:0:0:
450,259,64932,2,0,B|409:282|369:243|389:227|348:191|307:216,1,161.28000196875,10|0,0:2|0:0,0:0:0:0:
260,283,65289,6,0,B|204:282|184:349|184:349|130:371|81:338,1,215.040002625,0|8,1:2|0:2,0:0:0:0:
21,207,65824,1,2,1:2:0:0:
17,203,65914,1,0,1:0:0:0:
12,199,66003,1,2,1:2:0:0:
71,147,66182,1,0,1:2:0:0:
19,29,66360,1,10,0:2:0:0:
138,182,66539,1,2,0:2:0:0:
328,71,66717,6,0,B|339:44|374:43|374:43|284:29|325:117|221:96,1,215.040002625,4|8,1:2|0:2,0:0:0:0:
132,193,67253,2,0,B|165:265|253:241|253:241|207:210|223:152,1,215.040002625,4|0,1:2|1:2,0:0:0:0:
388,124,67789,2,0,P|362:200|337:277,1,161.28000196875,10|2,0:2|0:2,0:0:0:0:
465,364,68146,6,0,B|420:411|346:352|397:327|324:269|280:311,1,215.040002625,6|10,1:2|0:2,0:0:0:0:
32,350,68682,2,0,B|59:322|55:279|55:279|74:381|151:374,1,215.040002625,6|0,1:2|1:2,0:0:0:0:
254,377,69217,1,10,0:2:0:0:
145,288,69396,1,2,0:2:0:0:
275,212,69574,6,0,P|200:231|159:160,1,161.28000196875,4|0,1:2|0:0,0:0:0:0:
175,95,69932,2,0,P|226:76|276:57,1,107.5200013125,8|0,0:2|0:0,0:0:0:0:
451,218,70289,2,0,B|412:202|412:202|398:181|398:181|357:166,1,107.5200013125,0|0,1:2|1:2,0:0:0:0:
275,212,70646,1,8,0:2:0:0:
439,56,70824,6,0,P|458:125|501:273,1,215.040002625,4|0,1:2|1:2,0:0:0:0:
413,367,71360,1,8,0:2:0:0:
345,322,71539,1,0,0:0:0:0:
224,361,71717,1,2,1:2:0:0:
92,284,71896,5,10,0:2:0:0:
77,272,71985,1,8,0:2:0:0:
66,254,72074,2,0,P|61:213|46:177,1,53.76000065625,8|8,0:2|0:2,0:0:0:0:
203,177,72253,2,0,P|208:136|223:100,1,53.76000065625,10|8,0:2|0:2,0:0:0:0:
52,26,72432,5,4,1:2:0:0:
40,13,72789,5,10,0:2:0:0:
153,67,72967,1,0,1:2:0:0:
226,44,73146,5,10,0:2:0:0:
336,79,73324,1,0,1:2:0:0:
241,50,73503,5,10,0:2:0:0:
308,219,73682,1,2,1:2:0:0:
414,155,73860,6,0,P|363:174|313:193,1,107.5200013125,8|0,0:2|1:2,0:0:0:0:
258,375,74217,2,0,P|207:355|157:337,1,107.5200013125,8|0,0:2|1:2,0:0:0:0:
74,172,74574,5,8,0:2:0:0:
137,204,74753,1,0,1:2:0:0:
222,180,74932,5,8,0:2:0:0:
105,267,75110,1,0,1:2:0:0:
38,53,75289,6,0,B|79:30|119:69|99:85|140:121|181:96,1,161.28000196875,12|0,0:2|0:0,0:0:0:0:
232,43,75646,5,10,0:2:0:0:
378,91,75824,1,0,1:2:0:0:
323,43,76003,5,10,0:2:0:0:
377,207,76182,1,0,1:2:0:0:
439,160,76360,5,10,0:2:0:0:
314,263,76539,1,2,1:2:0:0:
426,326,76717,6,0,P|375:306|325:288,1,107.5200013125,8|0,0:2|1:2,0:0:0:0:
222,180,77074,2,0,B|183:196|183:196|169:217|169:217|128:232,1,107.5200013125,8|0,0:2|1:2,0:0:0:0:
8,384,77432,5,10,0:2:0:0:
118,337,77610,1,2,1:2:0:0:
213,360,77789,5,8,0:2:0:0:
341,317,77967,1,2,1:2:0:0:
503,375,78146,5,14,0:2:0:0:
512,384,78503,5,10,0:2:0:0:
460,293,78682,1,0,1:2:0:0:
413,369,78860,5,10,0:2:0:0:
466,277,79039,1,0,1:2:0:0:
348,152,79217,5,10,0:2:0:0:
384,234,79396,1,2,1:2:0:0:
500,175,79574,6,0,P|449:193|399:212,1,107.5200013125,8|0,0:2|1:2,0:0:0:0:
339,69,79932,2,0,P|288:49|238:31,1,107.5200013125,8|0,0:2|1:2,0:0:0:0:
79,188,80289,5,8,0:2:0:0:
189,142,80467,1,0,1:2:0:0:
105,122,80646,5,8,0:2:0:0:
229,214,80824,1,0,1:2:0:0:
52,323,81003,6,0,B|111:265|111:265|168:342,1,161.28000196875,12|0,0:2|0:0,0:0:0:0:
215,374,81360,5,10,0:2:0:0:
364,341,81539,1,0,1:2:0:0:
224,293,81717,5,10,0:2:0:0:
295,314,81896,1,0,1:2:0:0:
397,226,82074,5,10,0:2:0:0:
499,253,82253,1,2,1:2:0:0:
381,216,82432,6,0,P|361:165|343:115,1,107.5200013125,8|0,0:2|1:2,0:0:0:0:
475,101,82789,2,0,P|494:50|512:0,1,107.5200013125,8|0,0:2|1:2,0:0:0:0:
333,104,83146,5,8,0:2:0:0:
263,142,83324,5,10,3:0:0:0:
193,113,83503,5,10,3:0:0:0:
135,149,83682,5,10,3:0:0:0:
273,153,83860,5,4,1:2:0:0:
256,192,83949,12,0,88682,0:0:0:0:
