osu file format v14

[General]
AudioFilename: audio.mp3
AudioLeadIn: 0
PreviewTime: 49478
Countdown: 0
SampleSet: Soft
StackLeniency: 0.7
Mode: 0
LetterboxInBreaks: 0
EpilepsyWarning: 1
WidescreenStoryboard: 1

[Editor]
DistanceSpacing: 1
BeatDivisor: 4
GridSize: 4
TimelineZoom: 1

[Metadata]
Title:Toumei Datta Sekai (TV Size)
TitleUnicode:透明だった世界 (TV Size)
Artist:Hata Motohiro
ArtistUnicode:秦 基博
Creator:Hantrik
Version:Normal
Source:NARUTO-ナルト-疾風伝
Tags:shippuden shippuuden opening 7 op anime male vocalist rock japanese jrock j-rock kalibe
BeatmapID:2496926
BeatmapSetID:1198915

[Difficulty]
HPDrainRate:3
CircleSize:3.2
OverallDifficulty:4
ApproachRate:5.5
SliderMultiplier:1
SliderTickRate:1

[Events]
//Background and Video events
0,0,"BG.jpg",0,0
//Break Periods
//Storyboard Layer 0 (Background)
//Storyboard Layer 1 (Fail)
//Storyboard Layer 2 (Pass)
//Storyboard Layer 3 (Foreground)
//Storyboard Layer 4 (Overlay)
//Storyboard Sound Samples

[TimingPoints]
-425,357.142857142857,4,2,1,60,1,0
289,-100,4,2,1,60,0,0
646,-100,4,2,1,60,0,0
914,-100,4,2,1,60,0,0
1003,-100,4,2,1,70,0,0
12432,-100,4,2,1,45,0,0
14932,-100,4,2,1,50,0,0
15199,-100,4,2,1,50,0,0
15289,-100,4,2,2,50,0,0
23860,-100,4,2,2,50,0,0
24396,-100,4,2,2,50,0,0
26985,-100,4,2,2,50,0,0
27074,-100,4,2,2,50,0,0
34932,-100,4,2,1,60,0,0
35199,-100,4,2,1,60,0,0
35289,-100,4,2,1,65,0,0
35557,-100,4,2,1,65,0,0
35646,-100,4,2,1,65,0,0
38414,-100,4,2,1,65,0,0
38503,-100,4,2,1,65,0,0
41271,-100,4,2,1,65,0,0
41360,-100,4,2,1,65,0,0
49574,-100,4,2,1,75,0,1
49842,-100,4,2,1,75,0,1
49932,-100,4,2,1,75,0,1
61271,-100,4,2,1,75,0,1
61360,-100,4,2,1,75,0,1
66717,-100,4,2,1,70,0,1
66985,-100,4,2,1,70,0,1
67074,-100,4,2,1,70,0,1
67521,-100,4,2,1,70,0,1
67610,-100,4,2,1,70,0,1
67789,-100,4,2,1,70,0,1
68146,-100,4,2,1,70,0,1
68414,-100,4,2,1,70,0,1
68503,-100,4,2,1,70,0,1
68949,-100,4,2,1,70,0,1
69039,-100,4,2,1,70,0,1
69217,-100,4,2,1,70,0,1
69574,-100,4,2,1,70,0,1
70110,-100,4,2,1,70,0,1
70824,-100,4,2,1,70,0,1
71360,-100,4,2,1,70,0,1
72432,-100,4,2,1,75,0,0
83860,-100,4,2,1,85,0,0
87789,-100,4,2,1,50,0,0
87967,-100,4,2,1,50,0,0

[Colours]
Combo1 : 222,147,84
Combo2 : 254,167,167
Combo3 : 248,67,81
Combo4 : 199,194,196
Combo5 : 134,130,132
Combo6 : 243,218,150

[HitObjects]
227,57,289,86,0,L|286:38,1,50,8|8,0:0|3:0,0:0:0:0:
323,50,646,1,12,0:0:0:0:
422,43,1003,70,0,L|433:110,1,50,6|0,1:2|0:0,0:0:0:0:
467,126,1360,1,10,0:0:0:0:
401,198,1717,1,10,0:0:0:0:
470,270,2074,1,10,0:0:0:0:
409,349,2432,2,0,L|359:333,1,50,10|0,0:0|1:0,0:0:0:0:
312,342,2789,1,10,0:0:0:0:
237,274,3146,2,0,L|187:290,1,50,10|0,0:0|1:0,0:0:0:0:
140,281,3503,1,10,0:0:0:0:
66,348,3860,6,0,P|49:309|46:289,1,50,10|0,0:0|1:0,0:0:0:0:
57,252,4217,1,10,0:0:0:0:
119,173,4574,1,10,0:0:0:0:
33,119,4932,1,10,0:0:0:0:
115,62,5289,2,0,L|176:43,1,50,10|0,0:0|1:0,0:0:0:0:
204,75,5646,1,8,0:0:0:0:
280,10,6003,1,10,0:0:0:0:
350,81,6360,1,10,0:0:0:0:
275,147,6717,70,0,L|286:206,1,50,14|0,0:0|1:0,0:0:0:0:
272,244,7074,1,10,0:0:0:0:
176,212,7432,1,10,0:0:0:0:
84,252,7789,1,10,0:0:0:0:
56,348,8146,2,0,P|93:353|114:344,1,50,10|0,0:0|1:0,0:0:0:0:
148,324,8503,1,10,0:0:0:0:
236,277,8860,2,0,P|273:272|294:281,1,50,10|0,0:0|1:0,0:0:0:0:
328,301,9217,1,10,0:0:0:0:
421,265,9574,6,0,P|429:222|422:196,1,50,10|0,0:0|1:0,0:0:0:0:
401,174,9932,1,10,0:0:0:0:
333,100,10289,1,10,0:0:0:0:
266,174,10646,1,10,0:0:0:0:
184,115,11003,2,0,L|124:95,1,50,10|0,0:0|1:0,0:0:0:0:
86,104,11360,1,8,0:0:0:0:
38,191,11717,1,10,0:0:0:0:
111,258,12074,1,10,0:0:0:0:
50,338,12432,54,0,P|122:362|187:319,1,150,2|2,0:0|0:0,0:0:0:0:
224,236,13324,2,0,B|274:227|274:227|320:266,1,100,2|2,0:0|0:0,0:0:0:0:
328,306,13860,2,0,L|427:295,1,100,2|2,0:0|0:0,0:0:0:0:
462,260,14396,2,0,L|483:155,1,100,2|2,0:0|0:0,0:0:0:0:
464,114,14932,1,10,0:0:0:0:
368,145,15289,70,0,L|264:118,1,100,6|0,1:2|1:0,0:0:0:0:
228,137,15824,1,2,0:0:0:0:
207,235,16182,2,0,L|154:250,1,50,2|0,0:0|1:0,0:0:0:0:
119,279,16539,2,0,L|70:265,1,50,10|0,0:0|1:0,0:0:0:0:
20,269,16896,1,2,0:0:0:0:
65,180,17253,1,2,0:0:0:0:
19,90,17610,2,0,P|80:74|123:104,1,100,2|8,0:0|0:0,0:0:0:0:
140,129,18146,5,0,1:0:0:0:
221,70,18503,1,0,1:0:0:0:
283,147,18860,1,8,0:0:0:0:
283,147,19039,2,0,L|392:124,1,100,2|10,0:0|0:0,0:0:0:0:
419,94,19574,2,0,L|475:108,1,50,2|2,1:2|0:0,0:0:0:0:
499,201,20110,1,2,0:0:0:0:
434,277,20467,2,0,P|404:260|382:254,1,50,2|0,0:0|1:0,0:0:0:0:
340,268,20824,69,10,0:0:0:0:
340,268,21003,2,0,P|300:283|189:270,1,150,2|2,1:2|0:0,0:0:0:0:
158,239,21717,1,10,1:2:0:0:
190,144,22074,1,0,1:0:0:0:
139,57,22432,2,0,P|181:39|205:41,1,50,0|2,1:0|0:0,0:0:0:0:
231,56,22789,2,0,P|273:74|297:72,1,50,2|2,1:2|0:0,0:0:0:0:
318,46,23146,1,8,0:0:0:0:
414,18,23503,1,0,1:0:0:0:
491,81,23860,6,0,B|468:104|448:121|448:121|462:156|472:212,1,150,6|2,1:2|0:0,0:0:0:0:
468,259,24574,1,10,1:2:0:0:
405,337,24932,2,0,P|373:332|350:314,1,50,2|8,1:2|0:0,0:0:0:0:
331,280,25289,1,2,1:2:0:0:
258,348,25646,1,2,1:2:0:0:
188,276,26003,1,10,1:2:0:0:
122,351,26360,1,0,1:0:0:0:
44,287,26717,70,0,L|34:224,1,50,2|0,1:2|0:0,0:0:0:0:
75,206,27074,2,0,L|85:143,1,50,2|0,1:2|0:0,0:0:0:0:
54,114,27432,1,10,1:2:0:0:
133,53,27789,1,2,1:2:0:0:
204,123,28146,2,0,L|302:98,1,100,2|2,1:2|1:2,0:0:0:0:
348,113,28682,1,2,0:0:0:0:
331,211,29039,2,0,L|277:198,1,50,2|0,0:0|1:0,0:0:0:0:
244,230,29396,5,8,0:0:0:0:
244,230,29574,2,0,L|195:241,1,50,0|0,1:0|0:0,0:0:0:0:
147,226,29932,1,0,1:0:0:0:
91,309,30289,1,8,0:0:0:0:
166,374,30646,1,2,1:2:0:0:
255,328,31003,2,0,L|301:311,1,50,2|2,1:2|0:0,0:0:0:0:
339,277,31360,2,0,L|385:294,1,50,2|2,1:2|0:0,0:0:0:0:
435,286,31717,2,0,L|446:229,1,50,10|2,1:2|0:0,0:0:0:0:
480,202,32074,1,2,1:2:0:0:
407,133,32432,70,0,P|364:133|280:63,1,150,2|2,1:2|0:0,0:0:0:0:
282,19,33146,1,10,1:2:0:0:
199,76,33503,2,0,L|145:59,1,50,0|10,1:0|0:0,0:0:0:0:
105,39,33860,2,0,P|59:42|27:98,1,100,2|0,1:2|1:0,0:0:0:0:
46,134,34396,1,0,0:0:0:0:
46,134,34574,2,0,L|42:195,1,50,0|0,1:0|1:0,0:0:0:0:
31,232,34932,1,8,0:0:0:0:
95,308,35289,37,6,1:2:0:0:
184,262,35646,2,0,L|254:248,1,50,10|0,0:0|0:0,0:0:0:0:
263,212,36003,2,0,L|312:221,1,50,2|0,1:2|1:0,0:0:0:0:
357,253,36360,1,10,0:0:0:0:
357,253,36539,2,0,L|382:148,1,100,6|0,1:2|0:0,0:0:0:0:
361,110,37074,1,10,0:0:0:0:
280,50,37432,1,2,1:2:0:0:
212,123,37789,1,10,0:0:0:0:
136,57,38146,69,6,1:2:0:0:
83,142,38503,2,0,L|93:196,1,50,10|0,0:0|1:0,0:0:0:0:
137,213,38860,2,0,L|127:267,1,50,10|0,0:0|1:0,0:0:0:0:
95,300,39217,1,10,0:0:0:0:
95,300,39396,2,0,P|129:283|199:311,1,100,6|2,1:2|1:2,0:0:0:0:
213,340,39932,1,10,0:0:0:0:
290,276,40289,1,2,1:2:0:0:
359,348,40646,1,10,0:0:0:0:
417,266,41003,5,6,1:2:0:0:
477,186,41360,2,0,L|415:161,1,50,10|0,0:0|0:0,0:0:0:0:
396,130,41717,2,0,L|349:148,1,50,2|0,1:2|1:0,0:0:0:0:
309,178,42074,1,10,0:0:0:0:
309,178,42253,2,0,B|257:201|257:201|204:169,1,100,6|0,1:2|1:0,0:0:0:0:
194,135,42789,1,10,0:0:0:0:
120,67,43146,1,2,1:2:0:0:
28,107,43503,1,10,0:0:0:0:
22,206,43860,69,6,1:2:0:0:
81,286,44217,2,0,L|141:272,1,50,10|2,0:0|0:0,0:0:0:0:
176,292,44574,1,2,1:2:0:0:
235,211,44932,2,0,L|283:222,1,50,10|2,0:0|0:0,0:0:0:0:
311,263,45289,2,0,L|426:237,1,100,6|10,1:2|0:0,0:0:0:0:
480,171,46003,1,2,1:2:0:0:
446,76,46360,2,0,L|382:62,1,50,10|2,0:0|0:0,0:0:0:0:
349,81,46717,5,6,1:2:0:0:
255,46,47074,2,0,L|244:113,1,50,10|2,0:0|0:0,0:0:0:0:
250,145,47432,1,2,1:2:0:0:
162,192,47789,2,0,L|146:131,1,50,10|2,0:0|0:0,0:0:0:0:
110,111,48146,2,0,P|60:109|29:157,1,100,6|10,1:2|0:0,0:0:0:0:
37,242,48860,1,8,0:0:0:0:
209,333,49574,22,0,L|327:298,1,100,6|8,1:2|0:0,0:0:0:0:
345,275,50110,2,0,B|365:226|365:226|341:175,1,100,2|0,0:0|1:0,0:0:0:0:
302,155,50646,1,10,0:0:0:0:
341,62,51003,2,0,P|390:52|427:101,1,100,0|8,1:0|0:0,0:0:0:0:
464,113,51539,2,0,L|445:220,1,100,2|2,0:0|1:2,0:0:0:0:
416,250,52074,2,0,L|425:299,1,50,10|2,0:0|1:2,0:0:0:0:
452,341,52432,70,0,P|418:319|357:331,1,100,2|8,1:2|0:0,0:0:0:0:
326,363,52967,1,2,0:0:0:0:
176,357,53503,1,10,0:0:0:0:
98,293,53860,2,0,L|85:172,1,100,0|8,1:0|0:0,0:0:0:0:
130,166,54396,1,2,0:0:0:0:
130,166,54574,2,0,L|136:103,1,50,2|0,1:2|1:0,0:0:0:0:
117,68,54932,1,10,0:0:0:0:
202,18,55289,6,0,P|252:21|284:76,1,100,0|8,1:0|0:0,0:0:0:0:
271,157,56003,2,0,L|203:136,1,50,0|0,1:0|1:0,0:0:0:0:
177,158,56360,1,8,0:0:0:0:
160,256,56717,2,0,L|267:235,1,100,2|8,1:2|0:0,0:0:0:0:
304,256,57253,2,0,L|366:265,1,50,2|0,0:0|1:0,0:0:0:0:
399,242,57610,1,2,1:2:0:0:
399,242,57789,1,8,0:0:0:0:
373,145,58146,70,0,L|276:123,1,100,0|8,1:0|0:0,0:0:0:0:
207,49,58860,2,0,L|89:72,1,100,0|10,1:0|0:0,0:0:0:0:
60,82,59396,2,0,B|31:122|31:122|46:180,1,100,6|0,1:2|1:0,0:0:0:0:
79,206,59932,1,8,0:0:0:0:
69,305,60289,2,0,L|133:290,1,50,0|8,1:0|0:0,0:0:0:0:
163,313,60646,1,8,0:0:0:0:
239,249,61003,6,0,L|257:142,1,100,6|8,1:2|0:0,0:0:0:0:
283,109,61539,2,0,P|321:94|379:128,1,100,2|0,0:0|1:0,0:0:0:0:
391,163,62074,1,10,0:0:0:0:
474,217,62432,2,0,L|495:99,1,100,0|8,1:0|0:0,0:0:0:0:
454,25,63146,2,0,L|403:43,1,50,2|2,1:2|1:2,0:0:0:0:
366,71,63503,2,0,L|318:54,1,50,10|2,0:0|0:0,0:0:0:0:
276,27,63860,70,0,P|223:23|174:57,1,100,2|8,1:2|0:0,0:0:0:0:
156,87,64396,2,0,L|161:194,1,100,2|0,0:0|1:0,0:0:0:0:
179,233,64932,1,10,0:0:0:0:
248,304,65289,2,0,P|296:322|350:299,1,100,0|8,1:0|0:0,0:0:0:0:
366,264,65824,1,2,0:0:0:0:
366,264,66003,2,0,L|433:248,1,50,2|0,1:2|1:0,0:0:0:0:
461,269,66360,1,10,0:0:0:0:
480,170,66717,6,0,P|451:132|385:139,1,100,6|8,1:2|0:0,0:0:0:0:
355,148,67253,2,0,P|326:185|260:178,1,100,6|0,1:2|1:0,0:0:0:0:
244,149,67789,1,10,0:0:0:0:
157,199,68146,2,0,L|174:301,1,100,6|10,1:2|0:0,0:0:0:0:
206,335,68682,2,0,P|255:312|321:321,1,100,6|2,1:2|1:2,0:0:0:0:
340,342,69217,1,10,0:0:0:0:
429,296,69574,70,0,L|431:176,1,100,6|8,1:2|0:0,0:0:0:0:
362,122,70289,2,0,L|306:107,1,50,0|2,1:0|0:0,0:0:0:0:
274,77,70646,1,10,0:0:0:0:
274,77,70824,2,0,L|170:97,1,100,6|0,1:2|1:0,0:0:0:0:
139,130,71360,1,8,0:0:0:0:
76,208,71717,2,0,P|41:165|53:103,1,100,2|8,1:2|0:0,0:0:0:0:
97,39,72432,70,0,L|160:52,1,50,4|0,1:0|0:0,0:0:0:0:
195,44,72789,1,10,0:0:0:0:
264,115,73146,1,10,0:0:0:0:
333,43,73503,1,10,0:0:0:0:
395,121,73860,2,0,L|376:179,1,50,8|0,0:0|1:0,0:0:0:0:
380,218,74217,1,8,0:0:0:0:
290,261,74574,2,0,L|309:319,1,50,8|0,0:0|1:0,0:0:0:0:
305,358,74931,1,8,0:0:0:0:
404,371,75289,70,0,L|418:309,1,50,8|0,0:0|1:0,0:0:0:0:
452,289,75646,1,10,0:0:0:0:
401,202,76003,1,10,0:0:0:0:
301,201,76360,1,10,0:0:0:0:
236,277,76717,2,0,L|171:266,1,50,8|0,0:0|1:0,0:0:0:0:
139,285,77074,1,8,0:0:0:0:
41,260,77432,1,10,0:0:0:0:
30,160,77789,1,10,0:0:0:0:
104,93,78146,6,0,L|155:111,1,50,12|0,0:0|1:0,0:0:0:0:
197,91,78503,1,10,0:0:0:0:
265,164,78860,1,10,0:0:0:0:
197,237,79217,1,10,0:0:0:0:
273,300,79574,2,0,L|332:281,1,50,8|0,0:0|1:0,0:0:0:0:
370,294,79932,1,8,0:0:0:0:
376,194,80289,2,0,L|435:213,1,50,8|0,0:0|1:0,0:0:0:0:
473,200,80647,1,8,0:0:0:0:
483,100,81003,70,0,L|428:112,1,50,8|0,0:0|1:0,0:0:0:0:
391,85,81360,1,10,0:0:0:0:
301,39,81717,1,10,0:0:0:0:
212,85,82074,1,10,0:0:0:0:
229,183,82432,2,0,L|230:239,1,50,8|0,0:0|1:0,0:0:0:0:
207,277,82789,1,8,0:0:0:0:
132,343,83146,1,10,0:0:0:0:
34,318,83503,1,2,1:2:0:0:
17,219,83860,37,6,1:2:0:0:
256,192,84039,12,2,88682,0:0:0:0:
