osu file format v14

[General]
AudioFilename: audio.mp3
AudioLeadIn: 0
PreviewTime: 236506
Countdown: 0
SampleSet: Normal
StackLeniency: 0.7
Mode: 0
LetterboxInBreaks: 0
WidescreenStoryboard: 0

[Editor]
Bookmarks: 1812,11261,14848,56587,67022,82674,87891,108761,129631,140065,160935,169413,176587,181804,200065,202674,210500,215718,231370,236587,247348,253544,257457,286478
DistanceSpacing: 1.4
BeatDivisor: 4
GridSize: 32
TimelineZoom: 1.100006

[Metadata]
Title:Rain
TitleUnicode:Rain
Artist:Hata Motohiro
ArtistUnicode:秦基博
Creator:Hari
Version:Garden of Words
Source:Kotonoha no Niwa
Tags:Anime Makoto Shinkai 新海 誠 Manquito Movie 言の葉の庭 ending
BeatmapID:1575363
BeatmapSetID:747670

[Difficulty]
HPDrainRate:4.5
CircleSize:3.8
OverallDifficulty:7
ApproachRate:9
SliderMultiplier:1.4
SliderTickRate:1

[Events]
//Background and Video events
Video,0,"video.mp4"
0,0,"background.jpg",0,0
//Break Periods
2,182004,199465
//Storyboard Layer 0 (Background)
//Storyboard Layer 1 (Fail)
//Storyboard Layer 2 (Pass)
//Storyboard Layer 3 (Foreground)
//Storyboard Sound Samples

[TimingPoints]
1805,326.086956521739,4,1,1,35,1,0
56587,-125,4,1,1,35,0,0
67022,-100,4,1,1,35,0,1
87891,-100,4,1,1,35,0,0
140065,-100,4,1,1,35,0,1
160935,-100,4,1,1,35,0,0
215718,-100,4,1,1,35,0,1
236587,-83.3333333333333,4,1,1,35,0,1
254848,-100,4,1,1,35,0,1
257457,-100,4,1,1,35,0,0

[Colours]
Combo1 : 18,124,255
Combo2 : 0,202,0

[HitObjects]
127,173,11261,5,0,0:0:0:0:
161,175,11343,1,0,0:0:0:0:
194,164,11424,1,0,0:0:0:0:
220,140,11506,1,0,0:0:0:0:
234,108,11587,1,0,0:0:0:0:
234,108,11913,1,0,0:0:0:0:
268,106,11995,1,0,0:0:0:0:
301,117,12076,1,0,0:0:0:0:
327,141,12158,1,0,0:0:0:0:
341,173,12239,5,0,0:0:0:0:
340,189,12565,1,0,0:0:0:0:
338,221,12891,1,0,0:0:0:0:
334,285,13218,1,0,0:0:0:0:
330,349,13544,5,0,0:0:0:0:
338,221,13870,2,0,L|347:139,1,70
248,111,14196,2,0,L|239:29,1,70
198,244,14522,1,0,0:0:0:0:
198,244,14848,5,0,0:0:0:0:
108,135,15174,1,0,0:0:0:0:
248,111,15337,1,0,0:0:0:0:
104,229,15500,1,0,0:0:0:0:
171,66,15663,1,0,0:0:0:0:
198,244,15826,2,0,P|202:282|194:321,1,70
296,345,16152,6,0,L|456:335,1,140
435,336,16805,1,0,0:0:0:0:
435,336,17131,2,0,P|429:301|433:266,1,70
443,162,17457,5,0,0:0:0:0:
268,45,17783,1,0,0:0:0:0:
394,52,17946,1,0,0:0:0:0:
211,157,18109,1,0,0:0:0:0:
337,151,18272,1,0,0:0:0:0:
142,51,18435,2,0,P|138:87|147:133,1,70
82,209,18761,6,0,L|253:194,1,140
412,284,19413,1,0,0:0:0:0:
412,284,19739,2,0,P|417:318|410:357,1,70
310,317,20065,5,0,0:0:0:0:
136,198,20391,2,0,P|130:163|135:129,1,70
238,162,20718,2,0,P|293:154|362:167,1,105
378,198,21044,1,0,0:0:0:0:
434,84,21207,1,0,0:0:0:0:
378,198,21370,6,0,P|373:230|383:362,1,140
134,268,22022,2,0,P|139:236|129:104,1,140
329,50,22674,5,0,0:0:0:0:
329,50,23000,2,0,L|421:43,1,70
458,131,23326,2,0,P|453:217|469:280,1,140
267,340,23978,5,0,0:0:0:0:
268,324,24305,1,0,0:0:0:0:
270,292,24631,1,0,0:0:0:0:
274,228,24957,2,0,P|278:192|266:141,1,70
171,196,25283,6,0,L|5:188,1,140
176,38,25935,1,0,0:0:0:0:
19,177,26261,1,0,0:0:0:0:
272,158,26587,6,0,L|263:305,1,140
433,173,27239,1,0,0:0:0:0:
272,89,27565,2,0,P|266:123|272:161,1,70
374,125,27891,5,0,0:0:0:0:
374,125,28218,1,0,0:0:0:0:
180,43,28544,2,0,L|27:36,1,140
55,140,29033,1,0,0:0:0:0:
40,244,29196,5,0,0:0:0:0:
378,226,29522,1,0,0:0:0:0:
206,192,29685,1,0,0:0:0:0:
345,334,29848,1,0,0:0:0:0:
298,152,30011,1,0,0:0:0:0:
164,284,30174,2,0,P|161:327|176:377,1,70
268,317,30500,6,0,L|421:305,1,140
477,123,31152,2,0,L|324:111,1,140
153,179,31805,5,0,0:0:0:0:
153,179,32131,1,0,0:0:0:0:
316,288,32457,1,0,0:0:0:0:
210,83,32620,1,0,0:0:0:0:
380,199,32783,1,0,0:0:0:0:
99,82,33109,5,0,0:0:0:0:
99,82,33435,2,0,B|110:126|110:126|86:222,2,140
99,82,34413,5,0,0:0:0:0:
210,83,34576,1,0,0:0:0:0:
87,217,34739,1,0,0:0:0:0:
87,217,35065,1,0,0:0:0:0:
232,348,35391,1,0,0:0:0:0:
416,282,35718,5,0,0:0:0:0:
408,86,36044,2,0,P|339:88|296:73,1,105
260,98,36370,2,0,L|266:173,1,70
161,231,36696,2,0,L|167:162,1,70
265,295,37022,6,0,L|433:283,1,140
476,102,37674,1,0,0:0:0:0:
476,102,38000,1,0,0:0:0:0:
431,292,38326,5,0,0:0:0:0:
287,156,38652,1,0,0:0:0:0:
395,182,38815,1,0,0:0:0:0:
255,262,38978,1,0,0:0:0:0:
364,76,39141,1,0,0:0:0:0:
363,292,39305,1,0,0:0:0:0:
97,95,39631,6,0,L|244:87,1,140
425,35,40283,1,0,0:0:0:0:
485,221,40609,1,0,0:0:0:0:
337,350,40935,6,0,L|190:342,1,140
70,192,41587,1,0,0:0:0:0:
122,301,41750,1,0,0:0:0:0:
190,143,41913,2,0,P|225:145|259:137,1,70
341,90,42239,6,0,P|353:138|325:206,1,105
296,217,42565,2,0,L|312:305,1,70
398,351,42891,2,0,L|410:282,1,70
474,207,43218,1,0,0:0:0:0:
242,48,43544,6,0,L|81:38,2,140
242,48,44522,1,0,0:0:0:0:
242,48,44848,6,0,P|247:155|231:198,1,140
90,314,45500,1,0,0:0:0:0:
90,314,45826,2,0,P|83:274|96:227,1,70
191,278,46152,6,0,L|348:267,1,140
441,106,46805,2,0,L|284:95,1,140
191,278,47457,5,0,0:0:0:0:
301,96,47783,1,0,0:0:0:0:
179,148,47946,1,0,0:0:0:0:
423,148,48109,1,0,0:0:0:0:
301,96,48272,1,0,0:0:0:0:
334,199,48435,2,0,P|338:231|325:278,1,70
230,227,48761,6,0,L|64:220,1,140
208,61,49413,1,0,0:0:0:0:
208,61,49739,2,0,P|204:93|217:140,1,70
312,88,50065,5,0,0:0:0:0:
94,152,50391,2,0,P|98:184|85:231,1,70
89,220,50718,1,0,0:0:0:0:
89,220,51044,1,0,0:0:0:0:
247,334,51370,6,0,P|351:334|407:314,1,140
421,131,52022,1,0,0:0:0:0:
421,131,52348,2,0,P|426:172|415:214,1,70
317,166,52674,6,0,L|155:158,1,140
31,289,53326,2,0,L|193:281,1,140
177,159,53978,5,0,0:0:0:0:
177,159,54305,1,0,0:0:0:0:
170,282,54631,1,0,0:0:0:0:
170,282,54957,1,0,0:0:0:0:
317,166,55283,5,0,0:0:0:0:
31,289,55609,1,0,0:0:0:0:
317,166,55935,1,0,0:0:0:0:
371,247,56098,1,0,0:0:0:0:
317,328,56261,1,0,0:0:0:0:
425,63,56587,5,0,0:0:0:0:
425,63,56913,2,0,L|304:55,1,112
174,127,57565,1,0,0:0:0:0:
173,126,57891,6,0,L|62:119,1,112
133,258,58544,2,0,L|244:251,1,112
382,175,59196,6,0,L|385:63,1,112
244,250,59848,2,0,L|247:361,1,112
385,63,60500,6,0,L|259:58,1,112
171,177,61152,1,0,0:0:0:0:
171,177,61478,2,0,P|166:211|175:245,1,56
386,208,61805,6,0,L|274:208,1,112
87,346,62457,2,0,L|199:346,1,112
386,208,63109,6,0,L|395:84,1,112
78,234,63761,2,0,L|86:345,1,112
256,192,64413,5,0,0:0:0:0:
255,208,64739,1,0,0:0:0:0:
253,240,65065,1,0,0:0:0:0:
249,304,65391,1,0,0:0:0:0:
255,208,65718,5,0,0:0:0:0:
256,192,66044,1,0,0:0:0:0:
258,160,66370,2,0,P|255:122|266:84,1,56
362,137,66696,2,0,P|365:164|362:192,1,56
154,137,67022,5,0,0:0:0:0:
154,137,67348,1,0,0:0:0:0:
361,192,67511,1,0,0:0:0:0:
49,276,67674,1,0,0:0:0:0:
361,192,67837,1,0,0:0:0:0:
49,276,68000,1,0,0:0:0:0:
259,276,68163,1,0,0:0:0:0:
65,164,68326,6,0,P|62:121|83:75,1,70
254,207,68652,2,0,P|262:240|258:275,1,70
320,62,68978,2,0,L|491:55,1,140
440,251,69631,5,0,0:0:0:0:
440,251,69957,1,0,0:0:0:0:
459,56,70120,1,0,0:0:0:0:
254,207,70283,1,0,0:0:0:0:
459,56,70446,1,0,0:0:0:0:
254,207,70609,1,0,0:0:0:0:
325,91,70772,1,0,0:0:0:0:
164,233,70935,6,0,P|160:198|169:165,1,70
329,22,71261,2,0,P|332:56|324:90,1,70
84,57,71587,2,0,L|224:50,1,140
354,251,72239,5,0,0:0:0:0:
354,251,72565,1,0,0:0:0:0:
167,309,72728,1,0,0:0:0:0:
222,118,72891,2,0,P|219:63|235:25,1,70
354,251,73218,2,0,P|360:285|354:319,1,70
97,312,73544,6,0,L|176:308,1,70
222,118,73870,2,0,L|60:108,1,140
82,109,74522,2,0,P|86:146|77:191,1,70
354,319,74848,6,0,L|504:332,2,140
354,319,75826,1,0,0:0:0:0:
384,157,75989,1,0,0:0:0:0:
283,83,76152,6,0,P|261:136|286:235,1,140
111,325,76805,1,0,0:0:0:0:
112,212,76968,1,0,0:0:0:0:
113,99,77131,1,0,0:0:0:0:
111,325,77457,5,0,0:0:0:0:
111,325,77783,1,0,0:0:0:0:
263,222,77946,1,0,0:0:0:0:
25,213,78109,1,0,0:0:0:0:
227,340,78272,1,0,0:0:0:0:
116,130,78435,2,0,P|121:92|106:39,1,70
263,153,78761,6,0,P|257:187|262:221,1,70
456,308,79087,2,0,P|461:273|455:239,1,70
329,65,79413,1,0,0:0:0:0:
329,65,79739,2,0,L|410:61,1,70
365,273,80065,5,0,0:0:0:0:
365,273,80391,1,0,0:0:0:0:
475,101,80555,1,0,0:0:0:0:
262,221,80718,1,0,0:0:0:0:
262,221,81044,2,0,P|267:255|262:289,1,70
41,347,81370,5,0,0:0:0:0:
171,256,81533,1,0,0:0:0:0:
41,347,81696,1,0,0:0:0:0:
41,347,82022,2,0,P|49:317|42:275,1,70
17,184,82348,1,0,0:0:0:0:
154,44,82674,5,0,0:0:0:0:
154,44,83000,1,0,0:0:0:0:
307,64,83163,1,0,0:0:0:0:
154,44,83326,2,0,L|160:130,1,70
307,64,83652,1,0,0:0:0:0:
307,64,83978,5,0,0:0:0:0:
460,44,84141,1,0,0:0:0:0:
307,64,84305,2,0,L|301:150,1,70
460,44,84631,2,0,L|449:209,1,140
295,342,85283,5,0,0:0:0:0:
295,342,85609,2,0,L|155:348,1,140
18,207,86261,1,0,0:0:0:0:
19,94,86424,1,0,0:0:0:0:
18,207,86587,6,0,L|157:213,1,140
295,342,87239,2,0,L|155:348,1,140
96,278,87728,1,0,0:0:0:0:
155,78,87891,6,0,P|221:117|232:186,1,140,0|0,0:0|0:0,0:0:0:0:
171,242,88381,1,0,0:0:0:0:
37,195,88544,1,0,0:0:0:0:
37,195,88870,2,0,L|27:289,1,70
157,381,89196,2,0,L|172:224,1,140
226,169,89685,1,0,0:0:0:0:
366,276,89848,6,0,L|353:122,1,140
437,22,90500,2,0,P|382:58|295:42,1,140
232,10,90989,1,0,0:0:0:0:
159,150,91152,2,0,L|154:80,1,70
272,163,91478,2,0,L|267:232,1,70
159,313,91805,6,0,L|6:303,1,140
36,122,92457,1,0,0:0:0:0:
110,173,92620,1,0,0:0:0:0:
181,116,92783,1,0,0:0:0:0:
297,284,93109,6,0,P|364:304|435:268,1,140
459,192,93598,1,0,0:0:0:0:
349,71,93761,2,0,L|358:217,1,140
443,102,94250,1,0,0:0:0:0:
349,71,94413,6,0,L|252:62,1,70
176,182,94739,2,0,L|273:173,1,70
82,15,95065,2,0,B|101:54|101:54|92:167,1,140
40,323,95718,6,0,L|194:318,1,140
254,265,96207,1,0,0:0:0:0:
379,365,96370,1,0,0:0:0:0:
463,203,96696,1,0,0:0:0:0:
425,120,96859,1,0,0:0:0:0:
468,40,97022,6,0,P|401:31|336:88,1,140
199,43,97511,1,0,0:0:0:0:
265,105,97674,2,0,P|288:138|298:177,1,70
276,254,98000,1,0,0:0:0:0:
39,350,98326,6,0,L|200:339,1,140
267,361,98815,1,0,0:0:0:0:
114,257,98978,2,0,L|106:174,1,70
94,63,99305,1,0,0:0:0:0:
9,159,99468,1,0,0:0:0:0:
94,63,99631,2,0,L|179:73,1,70
357,97,99957,1,0,0:0:0:0:
357,97,100283,6,0,L|340:246,1,140
368,322,100772,1,0,0:0:0:0:
257,253,100935,2,0,L|172:262,1,70
126,328,101261,2,0,L|56:320,1,70
126,207,101587,6,0,P|128:144|125:66,1,140
125,67,102076,1,0,0:0:0:0:
304,15,102239,2,0,P|301:84|303:154,1,140
367,218,102728,1,0,0:0:0:0:
460,112,102891,2,0,L|368:105,1,70
444,258,103218,2,0,P|453:220|435:170,1,70
307,290,103544,6,0,B|234:302|169:268|169:268|126:273|94:301,1,210
22,161,104196,2,0,P|54:175|114:175,1,70
214,18,104522,2,0,L|217:172,1,140
372,64,105174,2,0,P|362:97|357:141,1,70
461,285,105500,6,0,P|402:253|324:261,1,140
168,340,106152,1,0,0:0:0:0:
93,174,106478,5,0,0:0:0:0:
174,226,106805,2,0,P|220:222|281:187,1,105
311,171,107131,2,0,P|357:175|418:210,1,105
422,245,107457,5,0,0:0:0:0:
299,339,107620,1,0,0:0:0:0:
225,291,107783,1,0,0:0:0:0:
225,291,108109,5,0,0:0:0:0:
295,124,108272,1,0,0:0:0:0:
331,255,108435,2,0,L|421:248,1,70
270,32,108761,6,0,P|210:78|208:161,1,140
233,216,109250,1,0,0:0:0:0:
90,132,109413,1,0,0:0:0:0:
90,132,109739,1,0,0:0:0:0:
3,273,110065,6,0,L|164:266,1,140
292,344,110718,2,0,P|341:329|376:243,1,140
353,172,111207,1,0,0:0:0:0:
253,41,111370,6,0,P|255:106|266:205,1,140
295,257,111859,1,0,0:0:0:0:
371,106,112022,2,0,P|364:141|360:186,1,70
253,41,112348,2,0,P|260:76|264:121,1,70
164,220,112674,6,0,P|116:180|37:195,1,140
90,259,113163,1,0,0:0:0:0:
191,348,113326,2,0,L|288:338,1,70
294,264,113652,2,0,L|363:271,1,70
422,351,113978,6,0,L|411:183,1,140
441,131,114468,1,0,0:0:0:0:
287,100,114631,2,0,L|300:180,1,70
206,24,114957,2,0,L|193:104,1,70
64,76,115283,6,0,P|80:141|94:223,1,140
258,357,115935,2,0,P|270:288|286:220,1,140
348,162,116424,1,0,0:0:0:0:
465,253,116587,2,0,L|378:247,1,70
247,146,116913,1,0,0:0:0:0:
247,146,117239,6,0,P|199:111|115:128,1,140
51,323,117891,2,0,L|205:304,1,140
233,233,118381,1,0,0:0:0:0:
324,328,118544,2,0,L|395:316,1,70
233,233,118870,1,0,0:0:0:0:
340,141,119033,1,0,0:0:0:0:
192,45,119196,6,0,P|248:84|251:166,1,140
179,125,119685,1,0,0:0:0:0:
55,97,119848,2,0,P|66:61|65:21,1,70
109,178,120174,2,0,P|110:213|121:247,1,70
192,45,120500,2,0,L|342:54,1,140
367,129,120989,1,0,0:0:0:0:
442,11,121152,5,0,0:0:0:0:
367,129,121315,2,0,L|348:211,1,70
331,53,121641,1,0,0:0:0:0:
219,152,121805,2,0,L|240:318,1,140
67,223,122457,2,0,L|77:123,1,70
19,29,122783,2,0,P|52:38|118:39,1,70
173,161,123109,6,0,P|221:119|308:118,1,140
356,170,123598,1,0,0:0:0:0:
387,306,123761,2,0,L|299:293,1,70
179,370,124087,2,0,L|267:357,1,70
103,322,124413,6,0,P|70:271|91:179,1,140
176,47,125065,2,0,L|158:134,1,70
65,126,125391,2,0,L|83:213,1,70
176,47,125718,6,0,L|327:34,1,140
381,170,126207,1,0,0:0:0:0:
381,170,126370,2,0,L|359:258,1,70
290,112,126696,1,0,0:0:0:0:
223,242,126859,1,0,0:0:0:0:
79,151,127022,6,0,L|248:129,1,140
279,75,127511,1,0,0:0:0:0:
94,0,127674,2,0,L|107:88,1,70
207,237,128000,2,0,L|219:121,1,105
123,270,128326,1,0,0:0:0:0:
376,175,128652,1,0,0:0:0:0:
376,175,128978,5,0,0:0:0:0:
213,45,129141,1,0,0:0:0:0:
191,248,129305,1,0,0:0:0:0:
376,175,129631,6,0,B|339:157|339:157|221:167,1,140
82,355,130283,2,0,L|67:205,1,140
92,135,130772,1,0,0:0:0:0:
192,258,130935,2,0,P|225:264|286:253,1,70
319,347,131261,2,0,P|353:343|388:350,1,70
456,233,131587,6,0,L|446:78,1,140
206,29,132239,2,0,L|196:185,1,140
257,226,132728,1,0,0:0:0:0:
119,111,132891,2,0,L|25:118,1,70
278,144,133217,2,0,L|372:151,1,70
194,279,133543,6,0,P|131:305|68:278,1,140
123,153,134032,1,0,0:0:0:0:
123,153,134195,2,0,L|132:237,1,70
205,47,134521,1,0,0:0:0:0:
274,160,134684,1,0,0:0:0:0:
405,15,134847,6,0,P|360:54|362:153,1,140
387,206,135337,1,0,0:0:0:0:
300,311,135500,2,0,L|204:300,1,70
175,239,135826,1,0,0:0:0:0:
112,338,135989,1,0,0:0:0:0:
30,217,136152,6,0,L|110:187,1,70
101,108,136478,2,0,L|166:132,1,70
297,9,136804,2,0,L|277:153,1,140
256,315,137293,1,0,0:0:0:0:
424,135,137456,5,0,0:0:0:0:
417,104,137782,1,0,0:0:0:0:
412,82,138108,1,0,0:0:0:0:
316,196,138434,1,0,0:0:0:0:
318,213,138597,1,0,0:0:0:0:
321,255,138761,5,0,0:0:0:0:
385,309,138924,1,0,0:0:0:0:
235,220,139087,1,0,0:0:0:0:
235,220,139413,1,0,0:0:0:0:
172,153,139576,1,0,0:0:0:0:
81,145,139739,1,0,0:0:0:0:
169,123,139902,1,0,0:0:0:0:
254,20,140065,6,0,P|319:46|365:42,1,105,0|0,0:0|0:0,0:0:0:0:
375,29,140391,1,0,0:0:0:0:
385,272,140554,1,0,0:0:0:0:
375,29,140717,1,0,0:0:0:0:
329,195,140880,1,0,0:0:0:0:
454,68,141043,1,0,0:0:0:0:
329,195,141206,1,0,0:0:0:0:
475,155,141369,6,0,L|461:226,1,70
285,116,141695,2,0,L|299:187,1,70
152,38,142021,2,0,P|89:44|34:105,1,140
59,184,142511,1,0,0:0:0:0:
189,126,142674,2,0,P|175:171|167:258,1,105,0|0,0:0|0:0,0:0:0:0:
174,256,143000,5,0,0:0:0:0:
424,184,143163,1,0,0:0:0:0:
174,256,143326,1,0,0:0:0:0:
424,184,143489,1,0,0:0:0:0:
376,340,143652,1,0,0:0:0:0:
290,154,143815,1,0,0:0:0:0:
217,339,143978,6,0,L|136:331,1,70
49,225,144304,1,0,0:0:0:0:
60,351,144467,1,0,0:0:0:0:
176,175,144630,2,0,B|220:153|220:153|323:177,1,140
366,243,145119,1,0,0:0:0:0:
421,58,145282,2,0,L|313:65,1,105
299,48,145608,5,0,0:0:0:0:
243,263,145771,1,0,0:0:0:0:
299,48,145934,1,0,0:0:0:0:
243,263,146097,1,0,0:0:0:0:
217,104,146261,1,0,0:0:0:0:
377,189,146424,1,0,0:0:0:0:
152,250,146587,6,0,L|79:242,1,70
217,104,146913,2,0,L|147:111,1,70
301,284,147239,2,0,P|357:260|372:174,1,140
308,127,147728,1,0,0:0:0:0:
469,62,147891,2,0,L|453:147,1,70
257,48,148217,6,0,P|188:24|110:53,2,140
188,115,149032,1,0,0:0:0:0:
43,322,149195,1,0,0:0:0:0:
43,322,149358,1,0,0:0:0:0:
119,209,149521,1,0,0:0:0:0:
168,331,149684,1,0,0:0:0:0:
255,169,149847,6,0,P|317:159|415:182,1,140
428,255,150337,1,0,0:0:0:0:
303,364,150500,2,0,L|298:276,1,70
173,124,150826,1,0,0:0:0:0:
326,212,150989,1,0,0:0:0:0:
146,216,151152,2,0,P|108:209|57:222,1,70
289,131,151478,2,0,P|327:124|378:137,1,70
210,29,151804,5,0,0:0:0:0:
230,199,151967,1,0,0:0:0:0:
299,48,152130,1,0,0:0:0:0:
172,135,152293,1,0,0:0:0:0:
299,278,152456,2,0,L|382:271,1,70
230,199,152782,1,0,0:0:0:0:
165,329,152945,1,0,0:0:0:0:
55,166,153108,6,0,L|78:316,1,140
155,238,153597,1,0,0:0:0:0:
274,349,153761,1,0,0:0:0:0:
379,215,153924,1,0,0:0:0:0:
352,320,154087,1,0,0:0:0:0:
271,154,154250,1,0,0:0:0:0:
379,215,154413,6,0,L|392:119,1,70
239,71,154739,1,0,0:0:0:0:
239,230,154902,1,0,0:0:0:0:
341,75,155065,2,0,L|329:-20,1,70
422,153,155391,2,0,L|430:83,1,70
182,166,155717,6,0,P|109:156|18:151,1,140
169,253,156206,1,0,0:0:0:0:
26,322,156369,2,0,P|56:315|111:311,1,70
261,355,156695,1,0,0:0:0:0:
261,355,157021,2,0,P|260:320|265:271,1,70
334,169,157347,1,0,0:0:0:0:
394,279,157511,1,0,0:0:0:0:
490,104,157674,6,0,P|440:66|358:78,1,140
169,322,158326,2,0,L|162:222,1,70
288,217,158652,2,0,L|295:117,1,70
120,166,158978,2,0,L|113:66,1,70
321,13,159304,1,0,0:0:0:0:
218,106,159467,1,0,0:0:0:0:
385,260,159630,5,0,0:0:0:0:
254,369,159793,1,0,0:0:0:0:
282,174,159956,1,0,0:0:0:0:
282,174,160282,1,0,0:0:0:0:
370,370,160445,1,0,0:0:0:0:
432,137,160608,1,0,0:0:0:0:
294,283,160771,1,0,0:0:0:0:
201,59,160934,6,0,B|157:37|157:37|56:61,1,140,0|0,0:0|0:0,0:0:0:0:
306,271,161587,1,0,0:0:0:0:
306,271,161913,2,0,P|303:314|316:358,1,70
398,299,162239,6,0,P|404:264|400:229,1,70
393,132,162565,1,0,0:0:0:0:
393,132,162891,2,0,L|233:124,1,140
80,218,163543,6,0,L|219:211,1,140
219,39,164195,1,0,0:0:0:0:
219,39,164521,1,0,0:0:0:0:
219,211,164847,6,0,P|225:282|198:339,1,105
168,331,165174,2,0,P|133:334|99:325,1,70
240,195,165500,2,0,P|274:191|308:200,1,70
446,267,165826,2,0,P|411:270|378:262,1,70
418,159,166152,6,0,L|424:39,1,105
377,35,166478,2,0,P|343:43|308:40,1,70
218,78,166804,1,0,0:0:0:0:
218,78,167130,2,0,P|227:121|211:169,1,70
110,189,167456,6,0,P|106:154|115:121,1,70
222,232,167782,2,0,L|394:216,1,140
361,219,168434,1,0,0:0:0:0:
218,78,168761,6,0,L|46:62,1,140
95,258,169413,2,0,P|92:306|111:349,1,70
173,286,169739,2,0,P|181:252|177:218,1,70
257,258,170065,6,0,P|252:292|260:326,1,70
335,286,170391,2,0,P|342:251|338:217,1,70
253,189,170717,2,0,P|248:223|256:257,3,70
338,217,171369,6,0,P|345:182|341:148,1,70
249,120,171695,2,0,P|244:154|252:188,1,70
341,148,172021,1,0,0:0:0:0:
340,147,172347,2,0,P|348:113|344:79,1,70
254,38,172674,6,0,L|168:30,1,70
340,147,173000,2,0,L|426:139,3,70
453,227,173652,2,0,P|446:285|456:319,1,70
363,344,173978,6,0,L|281:336,1,70
215,277,174304,2,0,L|65:295,2,140
383,176,175282,6,0,L|243:159,1,140
62,86,175934,2,0,P|60:110|75:168,2,70
243,159,176587,5,0,0:0:0:0:
243,159,176913,2,0,P|250:208|226:314,1,140
68,190,177565,2,0,P|61:155|65:121,1,70
95,28,177891,5,0,0:0:0:0:
95,28,178217,2,0,L|249:37,1,140
422,91,178869,1,0,0:0:0:0:
422,91,179195,6,0,P|423:188|446:244,1,140
269,328,179847,2,0,P|288:261|284:191,1,140
122,81,180500,5,0,0:0:0:0:
122,81,180826,1,0,0:0:0:0:
92,174,180989,1,0,0:0:0:0:
122,267,181152,1,0,0:0:0:0:
122,267,181478,1,0,0:0:0:0:
256,32,181804,5,0,0:0:0:0:
256,64,200065,6,0,P|247:114|264:213,1,140
420,314,200717,2,0,P|427:279|423:245,1,70
407,148,201043,1,0,0:0:0:0:
234,54,201369,5,0,0:0:0:0:
234,54,201695,1,0,0:0:0:0:
234,54,202021,1,0,0:0:0:0:
269,145,202184,1,0,0:0:0:0:
234,236,202347,1,0,0:0:0:0:
94,60,202674,6,0,P|181:52|260:56,1,140
373,242,203326,2,0,P|303:242|233:235,1,140
379,102,203978,6,0,P|379:171|372:241,1,140
201,339,204630,1,0,0:0:0:0:
201,339,204956,1,0,0:0:0:0:
81,183,205282,6,0,P|73:92|88:43,1,140
291,114,205934,1,0,0:0:0:0:
291,114,206261,2,0,P|337:121|381:101,1,70
444,67,206587,6,0,L|454:233,2,140
444,67,207565,1,0,0:0:0:0:
257,127,207891,6,0,P|203:139|144:115,1,105
107,133,208217,2,0,L|111:203,1,70
77,294,208543,1,0,0:0:0:0:
257,127,208869,2,0,P|253:81|270:36,1,70
363,95,209195,6,0,P|417:100|484:71,1,105
510,101,209521,2,0,L|503:190,1,70
439,243,209847,2,0,L|275:235,1,140
138,90,210500,5,0,0:0:0:0:
138,90,210826,1,0,0:0:0:0:
45,262,211152,1,0,0:0:0:0:
45,262,211478,2,0,P|40:296|46:330,1,70
150,294,211804,6,0,L|306:283,2,140
150,294,212782,1,0,0:0:0:0:
181,100,213108,5,0,0:0:0:0:
256,37,213271,1,0,0:0:0:0:
181,100,213434,2,0,B|130:85|130:85|14:103,1,140
44,98,214250,5,0,0:0:0:0:
49,195,214413,1,0,0:0:0:0:
196,65,214739,1,0,0:0:0:0:
276,121,214902,1,0,0:0:0:0:
357,66,215065,2,0,B|386:59|386:59|455:72,1,70
256,128,215391,1,0,0:0:0:0:
285,322,215717,5,0,0:0:0:0:
285,322,216043,1,0,0:0:0:0:
133,196,216206,1,0,0:0:0:0:
461,167,216369,1,0,0:0:0:0:
133,196,216532,1,0,0:0:0:0:
461,167,216695,1,0,0:0:0:0:
305,94,216858,1,0,0:0:0:0:
135,265,217022,6,0,P|130:213|139:171,1,70
307,24,217348,2,0,P|309:58|304:93,1,70
200,54,217674,2,0,P|141:56|91:31,1,105
59,65,218000,2,0,L|54:145,1,70
227,223,218326,5,0,0:0:0:0:
227,223,218652,1,0,0:0:0:0:
379,97,218815,1,0,0:0:0:0:
60,40,218978,1,0,0:0:0:0:
379,97,219141,1,0,0:0:0:0:
60,40,219305,1,0,0:0:0:0:
270,40,219468,1,0,0:0:0:0:
143,174,219631,6,0,P|131:211|135:254,1,70
281,107,219957,2,0,P|281:72|269:39,1,70
227,223,220283,2,0,P|274:229|352:205,1,105
376,233,220609,2,0,L|370:320,1,70
471,116,220935,5,0,0:0:0:0:
471,116,221261,1,0,0:0:0:0:
298,44,221424,1,0,0:0:0:0:
470,115,221587,2,0,P|476:149|472:184,1,70
296,112,221913,2,0,P|290:78|298:44,1,70
227,223,222239,6,0,L|129:217,1,70
141,43,222565,2,0,L|297:34,1,140
280,34,223218,2,0,P|273:68|278:102,1,70
152,236,223544,6,0,L|12:253,2,140
152,236,224522,1,0,0:0:0:0:
122,74,224685,1,0,0:0:0:0:
151,235,224848,6,0,P|158:269|153:304,1,70
75,166,225174,1,0,0:0:0:0:
317,142,225500,2,0,P|310:176|315:210,1,70
466,106,225826,2,0,P|471:71|464:37,1,70
394,268,226152,5,0,0:0:0:0:
394,268,226478,1,0,0:0:0:0:
235,326,226641,1,0,0:0:0:0:
317,142,226804,1,0,0:0:0:0:
334,351,226968,1,0,0:0:0:0:
171,176,227131,2,0,P|166:141|173:107,1,70
352,64,227457,6,0,P|358:98|353:132,1,70
205,254,227783,2,0,P|199:219|206:185,1,70
252,98,228109,1,0,0:0:0:0:
252,98,228435,2,0,P|257:63|250:29,1,70
71,134,228761,5,0,0:0:0:0:
71,134,229087,1,0,0:0:0:0:
32,271,229250,1,0,0:0:0:0:
213,183,229413,1,0,0:0:0:0:
213,183,229739,2,0,P|206:217|212:252,1,70
282,320,230065,5,0,0:0:0:0:
407,251,230228,1,0,2:0:0:0:
212,252,230391,1,0,0:0:0:0:
212,252,230718,2,0,P|206:217|213:183,1,70
283,115,231044,1,0,2:0:0:0:
467,181,231370,5,0,0:0:0:0:
467,181,231696,1,0,0:0:0:0:
288,96,231859,1,0,0:0:0:0:
467,181,232022,2,0,L|461:281,1,70
288,96,232348,1,0,0:0:0:0:
288,96,232674,5,0,0:0:0:0:
109,181,232837,1,0,0:0:0:0:
288,96,233000,2,0,L|294:196,1,70
109,181,233326,2,0,L|102:320,1,140
288,96,233978,5,0,0:0:0:0:
288,96,234304,2,0,P|191:92|144:66,1,140
373,42,234957,1,0,0:0:0:0:
373,42,235283,5,0,0:0:0:0:
404,134,235446,1,0,0:0:0:0:
373,226,235609,1,0,0:0:0:0:
373,226,235935,1,0,0:0:0:0:
404,318,236098,1,0,0:0:0:0:
308,298,236261,2,0,B|281:292|281:292|238:302,1,70
86,276,236587,5,0,0:0:0:0:
86,276,236913,1,0,0:0:0:0:
86,77,237076,1,0,0:0:0:0:
224,288,237239,1,0,0:0:0:0:
86,77,237402,1,0,0:0:0:0:
224,288,237565,1,0,0:0:0:0:
226,136,237728,1,0,0:0:0:0:
64,288,237891,5,0,0:0:0:0:
303,208,238054,1,0,0:0:0:0:
86,169,238218,1,0,0:0:0:0:
247,306,238381,1,0,0:0:0:0:
182,53,238544,1,0,0:0:0:0:
182,53,238870,2,0,P|229:50|265:22,1,83.9999974365235
398,106,239196,5,0,0:0:0:0:
398,106,239522,1,0,0:0:0:0:
416,305,239685,1,0,0:0:0:0:
244,121,239848,1,0,0:0:0:0:
421,307,240011,1,0,0:0:0:0:
244,121,240174,1,0,0:0:0:0:
340,257,240337,1,0,0:0:0:0:
416,96,240500,5,0,0:0:0:0:
242,273,240663,1,0,0:0:0:0:
316,32,240826,1,0,0:0:0:0:
434,203,240989,1,0,0:0:0:0:
146,137,241152,1,0,0:0:0:0:
145,136,241478,2,0,P|153:177|146:219,1,83.9999974365235
63,53,241804,5,0,0:0:0:0:
63,53,242131,2,0,P|55:93|62:135,1,83.9999974365235
147,301,242457,2,0,P|154:259|146:218,1,83.9999974365235
234,88,242783,2,0,L|151:93,1,83.9999974365235
57,261,243109,5,0,0:0:0:0:
147,107,243272,1,0,0:0:0:0:
237,261,243435,2,0,B|286:250|286:250|404:268,1,167.999994873047
464,40,244087,2,0,P|471:80|464:122,1,83.9999974365235
362,82,244413,6,0,B|245:64|245:64|196:75,2,167.999994873047
362,82,245391,1,0,0:0:0:0:
314,189,245554,1,0,0:0:0:0:
464,122,245718,6,0,P|471:162|464:204,1,83.9999974365235
313,271,246044,2,0,P|306:229|314:189,1,83.9999974365235
464,203,246370,2,0,P|472:244|465:286,1,83.9999974365235
313,353,246696,2,0,P|305:311|313:270,1,83.9999974365235
463,121,247022,5,0,0:0:0:0:
463,121,247348,2,0,P|470:79|463:39,1,83.9999974365235
375,80,247674,1,0,0:0:0:0:
375,80,248000,1,0,0:0:0:0:
312,270,248163,1,0,0:0:0:0:
226,50,248326,5,0,0:0:0:0:
404,194,248489,1,0,0:0:0:0:
150,156,248652,2,0,P|145:202|158:261,1,83.9999974365235
403,277,248978,2,0,P|408:235|403:193,1,83.9999974365235
151,74,249304,2,0,P|145:115|151:157,1,83.9999974365235
237,238,249631,5,0,0:0:0:0:
237,238,249957,1,0,0:0:0:0:
226,50,250120,1,0,0:0:0:0:
151,157,250283,1,0,0:0:0:0:
357,62,250446,1,0,0:0:0:0:
95,38,250609,1,0,0:0:0:0:
282,169,250772,1,0,0:0:0:0:
58,209,250935,5,0,0:0:0:0:
58,209,251261,1,0,0:0:0:0:
162,367,251424,1,0,0:0:0:0:
151,157,251587,1,0,0:0:0:0:
69,315,251750,1,0,0:0:0:0:
298,182,251913,2,0,P|343:172|391:185,1,83.9999974365235
342,284,252239,5,0,0:0:0:0:
342,284,252565,1,0,0:0:0:0:
456,138,252728,1,0,0:0:0:0:
342,284,252891,2,0,L|337:380,1,83.9999974365235
456,138,253218,1,0,0:0:0:0:
171,215,253544,5,0,0:0:0:0:
456,138,253707,1,0,0:0:0:0:
171,215,253870,2,0,L|176:311,1,83.9999974365235
294,99,254196,1,0,0:0:0:0:
294,99,254522,2,0,B|263:104|263:104|188:86,1,83.9999974365235
84,52,254848,6,0,L|74:211,2,140
84,52,255826,2,0,P|125:56|164:39,1,70
209,126,256152,6,0,P|242:116|276:121,1,70
334,201,256478,1,0,0:0:0:0:
276,281,256641,1,0,0:0:0:0:
288,110,256804,2,0,B|298:80|298:80|286:11,1,70
264,292,257131,2,0,B|257:329|257:329|267:359,1,70
433,221,257457,5,6,0:0:0:0:
