osu file format v14

[General]
AudioFilename: audio.mp3
AudioLeadIn: 0
PreviewTime: -1
Countdown: 0
SampleSet: None
StackLeniency: 0.2
Mode: 0
LetterboxInBreaks: 0
WidescreenStoryboard: 1

[Editor]
DistanceSpacing: 1.2
BeatDivisor: 8
GridSize: 8
TimelineZoom: 1.5

[Metadata]
Title:kaze no you ni
TitleUnicode:kaze no you ni
Artist:Hashire sori yo
ArtistUnicode:Hashire sori yo
Creator:P4ndemonium
Version:tsukimihara wo Padoru Padoru(stream)
Source:dead meme
Tags:but still
BeatmapID:1846735
BeatmapSetID:883435

[Difficulty]
HPDrainRate:5
CircleSize:4.2
OverallDifficulty:10
ApproachRate:9.7
SliderMultiplier:2
SliderTickRate:1

[Events]
//Background and Video events
0,0,"padoru.jpg",0,0
//Break Periods
//Storyboard Layer 0 (Background)
//Storyboard Layer 1 (Fail)
//Storyboard Layer 2 (Pass)
//Storyboard Layer 3 (Foreground)
//Storyboard Sound Samples

[TimingPoints]
794,296.296296296296,4,1,0,100,1,0
1979,-1000,4,1,0,30,0,0
2201,-1000,4,1,0,5,0,0
2275,-100,4,1,0,60,0,0
4645,-100,4,1,0,70,0,0
7016,-100,4,1,0,80,0,0
8942,315.789473684211,4,1,0,100,1,0
8942,-100,4,1,0,100,0,1

[HitObjects]
432,93,1979,6,0,L|430:107,1,15,2|0,2:0|0:0,0:0:0:0:
344,189,2275,5,12,0:3:0:0:
316,147,2349,1,0,0:3:0:0:
273,123,2423,1,0,0:3:0:0:
224,121,2497,1,0,0:3:0:0:
179,142,2571,1,8,0:3:0:0:
134,163,2646,1,0,0:3:0:0:
85,161,2720,1,0,0:3:0:0:
42,137,2794,1,0,0:3:0:0:
14,95,2868,5,8,0:3:0:0:
47,57,2942,1,0,0:3:0:0:
91,35,3016,1,0,0:3:0:0:
141,31,3090,1,0,0:3:0:0:
188,46,3164,1,8,0:3:0:0:
227,77,3238,1,0,0:3:0:0:
252,120,3312,1,0,0:3:0:0:
258,169,3386,1,0,0:3:0:0:
246,217,3460,5,10,0:3:0:0:
252,266,3534,1,0,0:3:0:0:
277,309,3608,1,0,0:3:0:0:
316,339,3682,1,0,0:3:0:0:
364,352,3756,1,10,0:3:0:0:
413,346,3830,1,0,0:3:0:0:
456,321,3904,1,0,0:3:0:0:
487,282,3978,1,0,0:3:0:0:
500,234,4052,1,10,0:3:0:0:
493,185,4126,1,0,0:3:0:0:
469,142,4200,1,0,0:3:0:0:
429,111,4274,1,0,0:3:0:0:
380,97,4349,6,0,P|356:91|337:76,3,50,8|0|0|0,0:3|0:3|0:3|0:3,0:3:0:0:
285,15,4645,5,12,0:3:0:0:
226,34,4719,1,0,0:3:0:0:
185,80,4793,1,0,0:3:0:0:
174,141,4867,1,0,0:3:0:0:
196,199,4941,1,8,0:3:0:0:
217,256,5016,1,0,0:3:0:0:
206,317,5090,1,0,0:3:0:0:
166,363,5164,1,0,0:3:0:0:
107,383,5238,5,8,0:3:0:0:
65,336,5312,1,0,0:3:0:0:
47,277,5386,1,0,0:3:0:0:
55,215,5460,1,0,0:3:0:0:
88,163,5534,1,8,0:3:0:0:
140,129,5608,1,0,0:3:0:0:
202,120,5682,1,0,0:3:0:0:
261,137,5756,1,0,0:3:0:0:
308,178,5831,5,10,0:3:0:0:
297,239,5905,1,0,0:3:0:0:
263,291,5979,1,0,0:3:0:0:
211,325,6053,1,0,0:3:0:0:
150,334,6127,1,10,0:3:0:0:
90,318,6201,1,0,0:3:0:0:
41,280,6275,1,0,0:3:0:0:
12,225,6349,1,0,0:3:0:0:
8,163,6423,1,10,0:3:0:0:
29,104,6497,1,0,0:3:0:0:
72,60,6571,1,0,0:3:0:0:
129,36,6645,1,0,0:3:0:0:
191,37,6719,6,0,P|215:39|239:31,3,50,8|0|0|0,0:3|0:3|0:3|0:3,0:3:0:0:
310,0,7016,5,12,0:3:0:0:
382,13,7090,1,0,0:3:0:0:
425,71,7164,1,0,0:3:0:0:
417,144,7238,1,0,0:3:0:0:
361,192,7312,1,8,0:3:0:0:
306,239,7386,1,0,0:3:0:0:
297,312,7460,1,0,0:3:0:0:
341,370,7534,1,0,0:3:0:0:
413,384,7609,5,8,0:3:0:0:
452,306,7683,1,0,0:3:0:0:
460,219,7757,1,0,0:3:0:0:
435,136,7831,1,0,0:3:0:0:
381,68,7905,1,8,0:3:0:0:
305,25,7979,1,0,0:3:0:0:
219,13,8053,1,0,0:3:0:0:
135,34,8127,1,0,0:3:0:0:
64,85,8201,5,10,0:3:0:0:
10,166,8275,1,8,0:3:0:0:
32,261,8349,1,10,0:3:0:0:
116,310,8423,1,8,0:3:0:0:
210,282,8497,1,10,0:3:0:0:
254,196,8571,1,8,0:3:0:0:
299,110,8646,1,10,0:3:0:0:
392,83,8720,1,10,0:3:0:0:
476,132,8794,1,10,0:3:0:0:
498,227,8868,1,10,0:3:0:0:
445,308,8942,6,8,P|434:314|424:322,6,25,12|8|8|8|8|8|8,0:3|0:3|0:3|0:3|0:3|0:3|0:3,0:3:0:0:
354,290,9257,2,8,P|349:301|347:314,6,25,12|8|8|8|8|8|8,0:3|0:3|0:3|0:3|0:3|0:3|0:3,0:3:0:0:
272,334,9573,2,8,P|276:345|282:356,6,25,12|8|8|8|8|8|8,0:3|0:3|0:3|0:3|0:3|0:3|0:3,0:3:0:0:
225,269,9889,6,8,P|214:262|204:254,6,25,12|8|8|8|8|8|8,0:3|0:3|0:3|0:3|0:3|0:3|0:3,0:3:0:0:
134,287,10204,2,8,P|129:275|127:262,6,25,12|8|8|8|8|8|8,0:3|0:3|0:3|0:3|0:3|0:3|0:3,0:3:0:0:
78,201,10520,6,8,L|54:196,16,25,12|8|8|8|8|8|8|8|8|8|8|8|8|8|8|8|8,0:3|0:3|0:3|0:3|0:3|0:3|0:3|0:3|0:3|0:3|0:3|0:3|0:3|0:3|0:3|0:3|0:3,0:3:0:0:
