osu file format v14

[General]
AudioFilename: audio.mp3
AudioLeadIn: 0
PreviewTime: -1
Countdown: 0
SampleSet: None
StackLeniency: 0.2
Mode: 0
LetterboxInBreaks: 0
WidescreenStoryboard: 1

[Editor]
DistanceSpacing: 1.2
BeatDivisor: 4
GridSize: 8
TimelineZoom: 1

[Metadata]
Title:kaze no you ni
TitleUnicode:kaze no you ni
Artist:Hashire sori yo
ArtistUnicode:Hashire sori yo
Creator:P4ndemonium
Version:tsukimihara wo Padoru Padoru(1-2jumps)
Source:dead meme
Tags:but still
BeatmapID:1846732
BeatmapSetID:883435

[Difficulty]
HPDrainRate:5
CircleSize:3.8
OverallDifficulty:9
ApproachRate:9.4
SliderMultiplier:2.5
SliderTickRate:1

[Events]
//Background and Video events
0,0,"padoru.jpg",0,0
//Break Periods
//Storyboard Layer 0 (Background)
//Storyboard Layer 1 (Fail)
//Storyboard Layer 2 (Pass)
//Storyboard Layer 3 (Foreground)
//Storyboard Sound Samples

[TimingPoints]
794,296.296296296296,4,1,0,100,1,0
1979,-1000,4,1,0,100,0,0
2275,-100,4,1,0,100,0,0
8942,315.789473684211,4,1,0,100,1,0
8942,-100,4,1,0,100,0,1

[HitObjects]
69,102,1979,6,0,P|66:110|64:120,1,18.75
49,140,2275,5,0,0:0:0:0:
228,265,2423,1,0,0:0:0:0:
13,219,2571,5,0,0:0:0:0:
243,95,2719,1,0,0:0:0:0:
281,335,2868,5,0,0:0:0:0:
179,153,3016,1,0,0:0:0:0:
207,379,3164,5,0,0:0:0:0:
335,161,3312,1,0,0:0:0:0:
434,334,3460,5,0,0:0:0:0:
212,180,3608,1,0,0:0:0:0:
470,130,3756,5,0,0:0:0:0:
179,260,3905,1,0,0:0:0:0:
289,32,4053,5,0,0:0:0:0:
382,262,4201,1,0,0:0:0:0:
369,0,4349,5,0,0:0:0:0:
258,293,4497,1,0,0:0:0:0:
112,45,4645,5,0,0:0:0:0:
361,146,4793,1,0,0:0:0:0:
117,183,4942,5,0,0:0:0:0:
411,76,5090,1,0,0:0:0:0:
104,166,5238,5,0,0:0:0:0:
407,293,5386,1,0,0:0:0:0:
112,346,5534,5,0,0:0:0:0:
423,207,5682,1,0,0:0:0:0:
82,82,5831,5,0,0:0:0:0:
233,384,5979,1,0,0:0:0:0:
279,64,6127,5,0,0:0:0:0:
92,357,6275,1,0,0:0:0:0:
200,30,6423,5,0,0:0:0:0:
364,366,6571,1,0,0:0:0:0:
421,0,6719,5,0,0:0:0:0:
213,380,6868,1,0,0:0:0:0:
78,0,7016,5,0,0:0:0:0:
464,75,7164,1,0,0:0:0:0:
33,102,7312,5,0,0:0:0:0:
479,160,7460,1,0,0:0:0:0:
21,228,7608,5,0,0:0:0:0:
494,245,7756,1,0,0:0:0:0:
28,371,7905,5,0,0:0:0:0:
509,330,8053,1,0,0:0:0:0:
56,108,8201,5,0,0:0:0:0:
393,384,8349,1,0,0:0:0:0:
33,102,8497,5,0,0:0:0:0:
476,247,8645,1,0,0:0:0:0:
10,96,8793,5,0,0:0:0:0:
489,41,8942,6,0,P|423:105|410:196,1,187.5
368,260,9257,6,0,B|244:232|307:315|181:324,1,187.5
137,280,9573,6,0,P|112:164|75:87,1,187.5
151,65,9889,6,0,P|114:151|97:243,1,187.5
154,291,10205,6,0,B|257:257|242:368|341:355,1,187.5
386,323,10520,6,0,P|357:355|394:389,8,62.5
