osu file format v14

[General]
AudioFilename: audio.mp3
AudioLeadIn: 0
PreviewTime: 33759
Countdown: 0
SampleSet: Soft
StackLeniency: 0.7
Mode: 2
LetterboxInBreaks: 0
WidescreenStoryboard: 1

[Editor]
DistanceSpacing: 1.3
BeatDivisor: 4
GridSize: 4
TimelineZoom: 1

[Metadata]
Title:Lost my pieces
TitleUnicode:Lost my pieces
Artist:Hashimoto Yukari
ArtistUnicode:橋本 由香利
Creator:Kirby
Version:Salad
Source:Toradora!
Tags:とらドラ! Toradora! Original Soundtrack Anime Emotional Piano Violin Instrumental Taiga Aisaka Ryuuji Takasu JBHyperion
BeatmapID:1175281
BeatmapSetID:555288

[Difficulty]
HPDrainRate:4
CircleSize:3
OverallDifficulty:6
ApproachRate:6
SliderMultiplier:2
SliderTickRate:1

[Events]
//Background and Video events
0,0,"bg.jpg",0,0
//Break Periods
//Storyboard Layer 0 (Background)
//Storyboard Layer 1 (Fail)
//Storyboard Layer 2 (Pass)
//Storyboard Layer 3 (Foreground)
//Storyboard Sound Samples

[TimingPoints]
271,697.674418604651,4,2,0,35,1,0
30270,-100,4,2,0,5,0,0
30968,-100,4,2,0,35,0,0
33759,-100,4,2,0,45,0,1
36550,-100,4,2,1,45,0,1
36898,-100,4,2,0,45,0,1
42131,-100,4,2,1,45,0,1
42480,-100,4,2,0,45,0,1
55387,-100,4,2,0,35,0,1
56084,-100,4,2,0,25,0,1
56782,-100,4,2,0,15,0,1
57480,-100,4,2,1,35,0,0
57829,-100,4,2,0,35,0,0
81201,-100,4,2,0,45,0,1
83991,-100,4,2,1,45,0,1
84340,-100,4,2,0,45,0,1
89573,-100,4,2,1,45,0,1
89922,-100,4,2,0,45,0,1
101782,-100,4,2,1,45,0,0
102131,-100,4,2,0,35,0,0
109108,-100,4,2,1,35,0,0
109457,-100,4,2,1,30,0,0
110503,-100,4,2,1,20,0,0
111898,-100,4,2,1,10,0,0
113294,-100,4,2,1,5,0,0

[Colours]
Combo1 : 101,146,220
Combo2 : 95,102,197

[HitObjects]
152,192,271,6,0,L|256:192,1,100,0|0,0:0|0:0,0:0:0:0:
416,192,968,1,0,0:0:0:0:
252,192,1317,1,2,0:0:0:0:
416,192,1666,1,0,0:0:0:0:
148,192,2364,1,2,0:0:0:0:
416,192,3061,6,0,L|112:192,1,300,0|0,0:0|0:0,0:0:0:0:
24,192,4457,2,0,L|328:192,1,300,0|0,0:0|0:0,0:0:0:0:
160,192,5852,6,0,L|48:192,1,100,2|0,0:0|0:0,0:0:0:0:
208,192,6550,2,0,L|320:192,1,100,0|0,0:0|0:0,0:0:0:0:
432,192,7247,1,2,0:0:0:0:
288,192,7596,1,0,0:0:0:0:
144,192,7945,1,0,0:0:0:0:
288,192,8294,1,2,0:0:0:0:
104,192,8643,1,0,0:0:0:0:
240,112,10038,6,0,L|56:192,2,200,0|2|2,0:0|0:0|0:0,0:0:0:0:
456,192,12829,6,0,L|272:112,2,200,2|0|2,0:0|0:0|0:0,0:0:0:0:
128,192,15619,5,2,0:0:0:0:
512,96,17015,6,0,P|256:352|0:96,1,800,2|2,0:0|0:0,0:0:0:0:
192,192,21201,5,0,0:0:0:0:
472,192,22596,5,2,0:0:0:0:
192,192,23294,1,0,0:0:0:0:
452,192,23991,2,0,L|228:192,1,200,0|0,0:0|0:0,0:0:0:0:
40,192,25387,5,2,0:0:0:0:
340,192,26085,1,0,0:0:0:0:
60,188,26782,2,0,L|284:188,1,200,0|0,0:0|0:0,0:0:0:0:
256,192,28177,12,0,30270,0:0:0:0:
256,192,30968,12,0,33061,0:0:0:0:
112,104,33759,6,0,L|161:191,1,100,2|0,0:0|0:0,0:0:0:0:
352,192,34457,2,0,L|252:192,1,100,0|0,0:0|0:0,0:0:0:0:
392,192,35154,2,0,L|442:103,1,100,2|2,0:0|0:0,0:0:0:0:
240,192,35852,1,0,0:0:0:0:
370,192,36201,1,2,0:0:0:0:
120,192,36550,6,0,P|16:120|128:48,1,300,2|0,0:0|0:0,0:0:0:0:
224,192,37945,1,2,0:0:0:0:
432,192,38643,1,0,0:0:0:0:
152,192,39340,6,0,L|56:160,2,100,2|0|0,0:0|0:0|0:0,0:0:0:0:
304,192,40387,1,0,0:0:0:0:
456,192,40736,2,0,L|360:144,1,100,2|2,0:0|0:0,0:0:0:0:
202,192,41433,2,0,L|294:148,1,100,0|0,0:0|0:0,0:0:0:0:
41,127,42131,6,0,P|185:95|70:192,1,400,2|0,0:0|0:0,0:0:0:0:
416,192,44224,1,0,0:0:0:0:
136,224,44922,6,0,P|40:152|152:64,1,300,2|0,0:0|0:0,0:0:0:0:
344,192,46317,2,0,L|244:192,1,100,2|2,0:0|0:0,0:0:0:0:
444,192,47015,2,0,L|460:88,1,100,0|2,0:0|0:0,0:0:0:0:
256,192,47712,6,0,L|496:192,1,200,2|2,0:0|0:0,0:0:0:0:
264,192,48759,1,0,0:0:0:0:
400,192,49108,2,0,L|440:88,1,100,2|0,0:0|0:0,0:0:0:0:
257,181,49805,2,0,L|169:133,1,100,2|0,0:0|0:0,0:0:0:0:
440,192,50503,6,0,L|200:192,1,200,2|0,0:0|0:0,0:0:0:0:
100,192,51550,1,0,0:0:0:0:
300,192,51898,6,0,L|52:192,1,200,2|0,0:0|0:0,0:0:0:0:
240,192,52945,1,0,0:0:0:0:
40,192,53294,6,0,L|168:192,2,100,2|0|0,0:0|0:0|0:0,0:0:0:0:
224,192,54340,1,2,0:0:0:0:
408,192,54689,6,0,L|200:192,3,200,2|0|0|0,0:0|0:0|0:0|0:0,0:0:0:0:
440,192,57480,1,2,0:0:0:0:
260,192,58875,6,0,L|156:160,1,100,2|0,0:0|0:0,0:0:0:0:
368,192,59573,2,0,L|406:99,1,100,0|2,0:0|0:0,0:0:0:0:
72,192,60968,1,2,0:0:0:0:
432,192,61666,6,0,P|318:116|479:106,1,400,2|0,0:0|0:0,0:0:0:0:
104,192,64457,6,0,L|208:192,1,100,2|0,0:0|0:0,0:0:0:0:
372,192,65155,2,0,L|268:192,1,100,0|0,0:0|0:0,0:0:0:0:
104,192,65852,2,0,L|80:64,1,100,2|0,0:0|0:0,0:0:0:0:
320,192,66550,2,0,L|416:144,2,100,0|0|2,0:0|0:0|0:0,0:0:0:0:
56,192,68643,6,0,L|240:112,2,200,0|0|2,0:0|0:0|0:0,0:0:0:0:
456,192,71433,6,0,L|272:112,2,200,0|0|2,0:0|0:0|0:0,0:0:0:0:
64,192,74224,5,0,0:0:0:0:
256,192,75619,12,0,79805,0:0:0:0:
127,191,80503,5,0,0:0:0:0:
27,189,80852,1,0,0:0:0:0:
297,192,81201,6,0,L|197:137,1,100,2|0,0:0|0:0,0:0:0:0:
359,192,81898,2,0,L|459:192,1,100,0|0,0:0|0:0,0:0:0:0:
256,191,82596,2,0,L|168:143,2,100,2|2|0,0:0|0:0|0:0,0:0:0:0:
377,192,83643,1,2,0:0:0:0:
128,191,83991,6,0,L|432:191,1,300,2|0,0:0|0:0,0:0:0:0:
305,253,85387,2,0,P|440:255|442:120,1,300,2|0,0:0|0:0,0:0:0:0:
193,192,86782,6,0,L|297:192,1,100,2|0,0:0|0:0,0:0:0:0:
449,192,87480,2,0,L|345:192,1,100,0|0,0:0|0:0,0:0:0:0:
226,192,88177,1,2,0:0:0:0:
396,192,88526,1,0,0:0:0:0:
193,192,88875,2,0,L|81:192,1,100,0|0,0:0|0:0,0:0:0:0:
344,192,89573,6,0,P|445:213|344:89,1,400,2|2,0:0|0:0,0:0:0:0:
147,192,92364,5,2,0:0:0:0:
297,191,92712,1,0,0:0:0:0:
147,163,93061,2,0,L|267:163,1,100,0|0,0:0|0:0,0:0:0:0:
398,191,93759,1,2,0:0:0:0:
248,191,94107,1,2,0:0:0:0:
98,163,94456,2,0,L|198:163,1,100,0|2,0:0|0:0,0:0:0:0:
409,191,95154,6,0,L|452:96,1,100,2|0,0:0|0:0,0:0:0:0:
290,189,95852,2,0,L|210:122,1,100,2|0,0:0|0:0,0:0:0:0:
429,193,96550,1,2,0:0:0:0:
303,192,96898,2,0,L|203:192,2,100,0|2|0,0:0|0:0|0:0,0:0:0:0:
32,192,97945,6,0,L|360:192,1,300,2|0,0:0|0:0,0:0:0:0:
480,192,99340,2,0,L|152:192,1,300,2|0,0:0|0:0,0:0:0:0:
344,192,100736,6,0,L|480:192,2,100,2|0|0,0:0|0:0|0:0,0:0:0:0:
444,192,101782,1,2,0:0:0:0:
120,192,103526,5,2,0:0:0:0:
240,192,103875,1,0,0:0:0:0:
80,192,104224,1,0,0:0:0:0:
320,192,104573,1,0,0:0:0:0:
40,192,105619,6,0,L|272:192,1,200,2|2,0:0|0:0,0:0:0:0:
440,192,107712,5,2,0:0:0:0:
304,192,109108,5,2,0:0:0:0:
256,192,109457,12,0,114689,0:0:0:0:
