osu file format v14

[General]
AudioFilename: audio.mp3
AudioLeadIn: 0
PreviewTime: 33759
Countdown: 0
SampleSet: Soft
StackLeniency: 0.7
Mode: 2
LetterboxInBreaks: 0
WidescreenStoryboard: 1

[Editor]
DistanceSpacing: 2.3
BeatDivisor: 4
GridSize: 8
TimelineZoom: 1

[Metadata]
Title:Lost my pieces
TitleUnicode:Lost my pieces
Artist:Hashimoto Yukari
ArtistUnicode:橋本 由香利
Creator:Kirby
Version:Cup
Source:Toradora!
Tags:とらドラ! Toradora! Original Soundtrack Anime Emotional Piano Violin Instrumental Taiga Aisaka Ryuuji Takasu JBHyperion
BeatmapID:1175280
BeatmapSetID:555288

[Difficulty]
HPDrainRate:3
CircleSize:3
OverallDifficulty:5
ApproachRate:5
SliderMultiplier:1.3
SliderTickRate:1

[Events]
//Background and Video events
0,0,"bg.jpg",0,0
//Break Periods
//Storyboard Layer 0 (Background)
//Storyboard Layer 1 (Fail)
//Storyboard Layer 2 (Pass)
//Storyboard Layer 3 (Foreground)
//Storyboard Sound Samples

[TimingPoints]
271,697.674418604651,4,2,0,35,1,0
30270,-100,4,2,0,5,0,0
30968,-100,4,2,0,35,0,0
33759,-100,4,2,0,45,0,1
36550,-100,4,2,1,45,0,1
36898,-100,4,2,0,45,0,1
42131,-100,4,2,1,45,0,1
42480,-100,4,2,0,45,0,1
57131,-100,4,2,0,15,0,1
57480,-100,4,2,1,45,0,0
57829,-100,4,2,0,35,0,0
81201,-100,4,2,0,45,0,1
83991,-100,4,2,1,45,0,1
84340,-100,4,2,0,45,0,1
89573,-100,4,2,1,45,0,1
89922,-100,4,2,0,45,0,1
101782,-100,4,2,1,45,0,1
102131,-100,4,2,0,35,0,0
109108,-100,4,2,1,35,0,0
109457,-100,4,2,1,30,0,0
110503,-100,4,2,1,25,0,0
111898,-100,4,2,1,20,0,0
113294,-100,4,2,1,15,0,0
114689,-100,4,2,1,10,0,0

[Colours]
Combo1 : 101,146,220
Combo2 : 95,102,197

[HitObjects]
192,192,271,5,0,0:0:0:0:
368,192,968,1,0,0:0:0:0:
208,192,1666,2,0,L|352:192,1,130,0|2,0:0|0:0,0:0:0:0:
160,192,3061,2,0,B|48:208|48:48|160:64,1,195,0|0,0:0|0:0,0:0:0:0:
208,192,4457,1,0,0:0:0:0:
400,192,5852,6,0,L|512:96,1,130,2|0,0:0|0:0,0:0:0:0:
256,192,7247,1,2,0:0:0:0:
80,192,7945,1,0,0:0:0:0:
256,192,8643,1,0,0:0:0:0:
494,223,10038,6,0,L|368:192,2,130,0|2|2,0:0|0:0|0:0,0:0:0:0:
144,192,12829,6,0,L|16:224,2,130,2|0|2,0:0|0:0|0:0,0:0:0:0:
368,192,15619,5,2,0:0:0:0:
60,184,17015,6,0,P|256:332|444:184,1,520,2|2,0:0|0:0,0:0:0:0:
60,184,21201,5,0,0:0:0:0:
288,192,22596,6,0,L|416:160,1,130,2|0,0:0|0:0,0:0:0:0:
262,192,23991,1,0,0:0:0:0:
441,192,24689,1,0,0:0:0:0:
224,192,25387,6,0,L|96:160,1,130,2|0,0:0|0:0,0:0:0:0:
272,192,26782,1,0,0:0:0:0:
48,192,27480,1,0,0:0:0:0:
256,192,28177,12,0,30270,0:0:0:0:
256,192,30968,8,0,33061,0:0:0:0:
184,192,33759,6,0,L|360:192,1,130,2|0,0:0|0:0,0:0:0:0:
209,192,34805,1,0,0:0:0:0:
104,192,35154,2,0,L|16:192,2,65,2|2|0,0:0|0:0|0:0,0:0:0:0:
209,192,36201,1,2,0:0:0:0:
313,192,36550,6,0,P|385:208|337:128,1,195,2|0,0:0|0:0,0:0:0:0:
257,192,37945,1,2,0:0:0:0:
439,192,38643,1,0,0:0:0:0:
144,192,39340,6,0,L|80:192,1,65,2|0,0:0|0:0,0:0:0:0:
208,192,40038,2,0,L|272:192,1,65,0|0,0:0|0:0,0:0:0:0:
400,192,40736,2,0,L|335:192,2,65,2|2|0,0:0|0:0|0:0,0:0:0:0:
272,192,41782,1,0,0:0:0:0:
144,192,42131,6,0,P|80:224|128:128,1,260,2|0,0:0|0:0,0:0:0:0:
352,192,44224,1,0,0:0:0:0:
104,192,44922,6,0,P|40:136|112:80,1,195,2|0,0:0|0:0,0:0:0:0:
200,192,46317,6,0,L|264:192,1,65,2|2,0:0|0:0,0:0:0:0:
400,192,47015,2,0,L|336:193,1,65,0|2,0:0|0:0,0:0:0:0:
144,192,47712,1,2,0:0:0:0:
368,192,48410,5,2,0:0:0:0:
112,192,49108,1,2,0:0:0:0:
400,192,49805,1,2,0:0:0:0:
80,192,50503,6,0,L|275:178,1,195,2|0,0:0|0:0,0:0:0:0:
164,76,51898,6,0,L|358:90,1,195,2|0,0:0|0:0,0:0:0:0:
470,217,53294,6,0,L|275:231,1,195,2|0,0:0|0:0,0:0:0:0:
165,102,54689,6,0,P|338:112|206:0,1,455,2|0,0:0|0:0,0:0:0:0:
76,73,57480,1,2,0:0:0:0:
352,192,58875,6,0,L|400:144,2,65,2|0|0,0:0|0:0|0:0,0:0:0:0:
464,192,59922,1,2,0:0:0:0:
48,192,60968,1,2,0:0:0:0:
256,192,61666,6,0,P|320:136|248:80,1,195,2|0,0:0|0:0,0:0:0:0:
112,80,63061,1,0,0:0:0:0:
368,192,64457,6,0,L|432:192,1,65,2|0,0:0|0:0,0:0:0:0:
304,192,65155,2,0,L|240:192,1,65,0|0,0:0|0:0,0:0:0:0:
112,192,65853,2,0,L|177:192,2,65,0|0|0,0:0|0:0|0:0,0:0:0:0:
208,192,66899,1,0,0:0:0:0:
368,192,67247,1,2,0:0:0:0:
126,192,68643,6,0,L|256:192,1,130,0|0,0:0|0:0,0:0:0:0:
96,192,70037,1,2,0:0:0:0:
386,192,71433,6,0,L|256:192,1,130,0|0,0:0|0:0,0:0:0:0:
416,192,72828,1,2,0:0:0:0:
56,192,74224,1,0,0:0:0:0:
456,192,75619,6,0,L|176:192,2,260,2|2|2,0:0|0:0|0:0,0:0:0:0:
144,192,80503,6,0,L|208:192,1,65,0|0,0:0|0:0,0:0:0:0:
304,192,81201,2,0,L|376:192,2,65,2|0|0,0:0|0:0|0:0,0:0:0:0:
192,192,82247,1,0,0:0:0:0:
80,240,82596,6,0,P|40:136|160:112,1,260,2|2,0:0|0:0,0:0:0:0:
424,192,85387,6,0,L|272:192,1,130,2|0,0:0|0:0,0:0:0:0:
128,192,86782,5,2,0:0:0:0:
64,192,87131,1,0,0:0:0:0:
192,192,87480,2,0,L|256:192,1,65,0|0,0:0|0:0,0:0:0:0:
384,192,88177,2,0,L|319:192,1,65,2|2,0:0|0:0,0:0:0:0:
160,192,88875,1,0,0:0:0:0:
272,192,89224,1,0,0:0:0:0:
384,192,89573,2,0,P|448:208|384:120,1,260,2|2,0:0|0:0,0:0:0:0:
80,192,92364,6,0,L|144:192,1,65,2|0,0:0|0:0,0:0:0:0:
272,192,93061,2,0,L|208:192,1,65,0|0,0:0|0:0,0:0:0:0:
360,192,93759,6,0,P|424:136|352:80,1,195,2|2,0:0|0:0,0:0:0:0:
168,192,95154,1,2,0:0:0:0:
360,192,95852,5,2,0:0:0:0:
128,192,96550,1,2,0:0:0:0:
400,192,97247,1,2,0:0:0:0:
168,112,97945,6,0,L|376:96,1,195,2|0,0:0|0:0,0:0:0:0:
216,232,99340,6,0,L|8:216,1,195,2|0,0:0|0:0,0:0:0:0:
168,112,100736,2,0,L|233:112,2,65,2|0|0,0:0|0:0|0:0,0:0:0:0:
320,112,101782,1,2,0:0:0:0:
128,192,103526,6,0,L|80:144,2,65,2|0|0,0:0|0:0|0:0,0:0:0:0:
16,192,104572,1,0,0:0:0:0:
400,192,105619,5,2,0:0:0:0:
208,192,106317,1,2,0:0:0:0:
480,192,107712,1,2,0:0:0:0:
128,192,109108,1,2,0:0:0:0:
256,192,109457,12,0,114689,0:0:0:0:
