osu file format v14

[General]
AudioFilename: audio.mp3
AudioLeadIn: 0
PreviewTime: 33774
Countdown: 0
SampleSet: Soft
StackLeniency: 0.7
Mode: 2
LetterboxInBreaks: 0
WidescreenStoryboard: 0

[Editor]
DistanceSpacing: 1.3
BeatDivisor: 4
GridSize: 4
TimelineZoom: 1

[Metadata]
Title:Lost my pieces
TitleUnicode:Lost my pieces
Artist:Hashimoto Yukari
ArtistUnicode:橋本 由香利
Creator:JBHyperion
Version:Salad
Source:とらドラ!
Tags:Toradora! ost original sound track anime emotional piano violin instrumental Taiga Aisaka Ryuuji Takasu
BeatmapID:1618672
BeatmapSetID:769843

[Difficulty]
HPDrainRate:4
CircleSize:2.5
OverallDifficulty:5.5
ApproachRate:5.5
SliderMultiplier:2.4
SliderTickRate:1

[Events]
//Background and Video events
0,0,"bg.jpg",0,0
//Break Periods
//Storyboard Layer 0 (Background)
//Storyboard Layer 1 (Fail)
//Storyboard Layer 2 (Pass)
//Storyboard Layer 3 (Foreground)
//Storyboard Sound Samples

[TimingPoints]
281,697.674418604651,4,2,1,35,1,0
1676,-100,4,2,1,20,0,0
2374,-100,4,2,1,35,0,0
3769,-100,4,2,1,20,0,0
4457,-100,4,2,1,35,0,0
5164,-100,4,2,1,35,0,0
5862,-100,4,2,1,35,0,0
12141,-100,4,2,1,20,0,0
12490,-100,4,2,1,35,0,0
16327,-100,4,2,1,20,0,0
17025,-100,4,2,1,35,0,0
17722,-100,4,2,1,35,0,0
17723,-100,4,2,1,20,0,0
18420,-100,4,2,1,35,0,0
19118,-100,4,2,1,20,0,0
19815,-100,4,2,1,35,0,0
20513,-100,4,2,1,20,0,0
21211,-100,4,2,1,35,0,0
28536,-100,4,2,1,25,0,0
29234,-100,4,2,1,20,0,0
29932,-100,4,2,1,15,0,0
30280,-100,4,2,1,15,0,0
30978,731.707317073171,4,2,1,35,1,0
32441,666.666666666667,4,2,1,20,1,0
33107,-100,4,2,1,30,0,0
33774,697.674418604651,4,2,1,45,1,1
36564,-100,4,2,1,45,0,1
36913,-100,4,2,1,45,0,1
42146,-100,4,2,1,45,0,1
42494,-100,4,2,1,45,0,1
47727,701.754385964912,4,2,1,45,1,1
50534,697.674418604651,4,2,1,45,1,1
53324,710.059171597633,4,2,1,45,1,1
54744,689.655172413793,4,2,1,45,1,1
55433,-100,4,2,1,25,0,1
56123,-100,4,2,1,20,0,1
56812,-100,4,2,1,15,0,1
57502,697.674418604651,4,2,1,25,1,0
58897,697.674418604651,4,2,1,25,1,0
59245,-100,4,2,1,35,0,0
62385,-100,4,2,1,20,0,0
63083,-100,4,2,1,35,0,0
72850,693.64161849711,4,2,1,35,1,0
75624,701.754385964912,4,2,1,35,1,0
75624,-80,4,2,1,35,0,0
76325,-80,4,2,1,20,0,0
77027,681.818181818182,4,2,1,35,1,0
77027,-80,4,2,1,35,0,0
77708,-80,4,2,1,20,0,0
78390,697.674418604651,4,2,1,35,1,0
78390,-80,4,2,1,35,0,0
80483,731.707317073171,4,2,1,35,1,0
81214,697.674418604651,4,2,1,45,1,1
84004,-100,4,2,1,45,0,1
84353,-100,4,2,1,45,0,1
89586,-100,4,2,1,45,0,1
89934,-100,4,2,1,45,0,1
95167,701.754385964912,4,2,1,45,1,1
97974,697.674418604651,4,2,1,45,1,1
99369,701.754385964912,4,2,1,45,1,1
100772,722.89156626506,4,2,1,45,1,1
101494,666.666666666667,4,2,1,45,1,1
101827,685.714285714286,4,2,1,45,1,0
102169,-100,4,2,1,35,0,0
102512,-100,4,2,1,10,0,0
102855,-100,4,2,1,35,0,0
103541,697.674418604651,4,2,1,35,1,0
109122,-100,4,2,1,35,0,0
109471,-100,4,2,1,16,0,0
109819,-100,4,2,1,18,0,0
110168,-100,4,2,1,20,0,0
110517,-100,4,2,1,22,0,0
110866,-100,4,2,1,24,0,0
111215,-100,4,2,1,26,0,0
111564,-100,4,2,1,28,0,0
111912,-100,4,2,1,30,0,0
112261,-100,4,2,1,28,0,0
112610,-100,4,2,1,25,0,0
112959,-100,4,2,1,22,0,0
113308,-100,4,2,1,20,0,0
113657,-100,4,2,1,18,0,0
114005,-100,4,2,1,15,0,0
114354,-100,4,2,1,12,0,0
114703,-100,4,2,1,10,0,0

[Colours]
Combo1 : 180,240,255
Combo2 : 90,100,200
Combo3 : 90,140,220
Combo4 : 145,175,255

[HitObjects]
112,244,281,6,0,L|232:244,1,120,2|0,0:0|0:0,0:0:0:0:
376,244,978,1,0,0:0:0:0:
208,244,1327,2,0,L|196:120,1,120,2|0,0:0|0:0,0:0:0:0:
436,124,2374,1,2,0:0:0:0:
172,312,3071,6,0,L|412:312,1,240,2|0,0:0|0:0,0:0:0:0:
173,124,4467,2,0,P|109:224|173:312,1,240,8|0,0:0|0:0,0:0:0:0:
449,192,5862,5,2,0:0:0:0:
353,152,6210,1,0,0:0:0:0:
353,52,6559,1,0,0:0:0:0:
446,12,6908,1,0,0:0:0:0:
320,52,7257,2,0,L|196:52,2,120,2|0|0,0:0|0:0|0:0,0:0:0:0:
415,52,8304,1,0,0:0:0:0:
248,152,8653,6,0,P|136:216|104:320,1,240,2|0,0:0|0:0,0:0:0:0:
224,316,9699,1,0,0:0:0:0:
368,192,10048,1,2,0:0:0:0:
128,192,10746,1,8,0:0:0:0:
428,192,11443,6,0,P|392:88|276:44,1,240,2|0,0:0|0:0,0:0:0:0:
168,44,12490,1,0,0:0:0:0:
312,44,12839,1,2,0:0:0:0:
72,44,13536,1,2,0:0:0:0:
396,148,14234,6,0,P|368:248|256:316,1,240,8|0,0:0|0:0,0:0:0:0:
376,316,15280,1,0,0:0:0:0:
496,315,15629,2,0,L|252:315,1,240,2|0,0:0|0:0,0:0:0:0:
64,316,17025,6,0,P|84:196|184:152,1,240,2|0,0:0|0:0,0:0:0:0:
424,152,18420,2,0,L|184:152,1,240,2|0,0:0|0:0,0:0:0:0:
472,192,19815,6,0,P|328:32|184:192,1,480,2|8,0:0|0:0,0:0:0:0:
392,168,22606,6,0,P|348:64|232:32,1,240,2|0,0:0|0:0,0:0:0:0:
16,168,24001,2,0,L|260:168,1,240,2|0,0:0|0:0,0:0:0:0:
40,168,25397,5,2,0:0:0:0:
232,168,26094,1,0,0:0:0:0:
448,168,26792,1,2,0:0:0:0:
208,168,27490,1,2,0:0:0:0:
472,248,28187,6,0,B|512:184|512:72|472:20|472:20|232:20|232:20|232:144|312:144|312:144|392:144,1,720,8|0,0:0|0:0,0:0:0:0:
120,144,30978,1,2,0:0:0:0:
352,352,32441,6,0,P|460:304|476:192,1,240,2|0,0:0|0:0,0:0:0:0:
48,192,33774,6,0,L|40:64,1,120,4|0,0:0|0:0,0:0:0:0:
172,60,34471,2,0,L|296:60,1,120
112,60,35169,2,0,L|8:120,2,120,2|2|0,0:0|0:0|0:0,0:0:0:0:
232,60,36215,1,2,0:0:0:0:
504,244,36564,6,0,P|468:136|356:88,1,240,2|0,0:0|0:0,0:0:0:0:
220,88,37611,1,0,0:0:0:0:
76,192,37960,2,0,L|204:192,1,120,2|0,0:0|0:0,0:0:0:0:
55,311,38657,2,0,L|47:183,1,120
216,192,39355,6,0,L|319:252,1,120,4|0,0:0|0:0,0:0:0:0:
164,312,40053,2,0,L|284:312,1,120
416,312,40750,1,2,0:0:0:0:
392,192,41099,1,2,0:0:0:0:
272,172,41448,1,0,0:0:0:0:
416,176,41797,1,0,0:0:0:0:
248,172,42146,6,0,B|116:172,1,120,2|0,0:0|0:0,0:0:0:0:
272,172,42844,2,0,L|280:48,1,120,0|0,0:0|0:0,0:0:0:0:
136,52,43541,2,0,L|260:52,1,120,2|0,0:0|0:0,0:0:0:0:
399,52,44239,2,0,L|275:52,1,120,0|0,0:0|0:0,0:0:0:0:
112,224,44936,6,0,L|100:352,1,120,4|0,0:0|0:0,0:0:0:0:
244,344,45634,2,0,L|108:344,1,120
292,344,46332,2,0,L|395:284,2,120,2|2|0,0:0|0:0|0:0,0:0:0:0:
172,344,47378,1,2,0:0:0:0:
316,344,47727,5,2,0:0:0:0:
76,344,48428,1,2,0:0:0:0:
352,344,49130,1,2,0:0:0:0:
28,344,49832,1,2,0:0:0:0:
484,340,50534,6,0,P|504:260|380:192,1,240,4|0,0:0|0:0,0:0:0:0:
228,192,51580,1,0,0:0:0:0:
72,192,51929,2,0,P|100:88|220:44,1,240,4|0,0:0|0:0,0:0:0:0:
360,44,52975,1,0,0:0:0:0:
192,44,53324,6,0,B|85:106,2,120,4|0|0,0:0|0:0|0:0,0:0:0:0:
49,45,54389,1,2,0:0:0:0:
337,45,54744,2,0,P|333:289|296:48,1,720,4|0,0:0|0:0,0:0:0:0:
144,52,57502,1,8,0:0:0:0:
456,192,58897,6,0,L|320:192,2,120,2|0|0,0:0|0:0|0:0,0:0:0:0:
300,192,59943,2,0,P|196:100|348:48,1,360,2|2,0:0|0:0,0:0:0:0:
56,28,61687,6,0,P|28:136|60:280,1,240,4|0,0:0|0:0,0:0:0:0:
291,260,63083,1,0,0:0:0:0:
156,256,64478,6,0,L|260:192,1,120,2|0,0:0|0:0,0:0:0:0:
108,192,65176,2,0,L|4:128,1,120
156,104,65873,2,0,L|52:40,2,120,2|0|2,0:0|0:0|0:0,0:0:0:0:
284,104,66920,1,0,0:0:0:0:
116,104,67269,6,0,P|44:192|112:280,1,240,2|0,0:0|0:0,0:0:0:0:
328,280,68664,1,2,0:0:0:0:
136,280,69362,1,2,0:0:0:0:
400,280,70059,6,0,P|456:196|384:96,1,240,2|0,0:0|0:0,0:0:0:0:
168,96,71455,1,2,0:0:0:0:
408,96,72152,1,0,0:0:0:0:
120,96,72850,6,0,P|108:200|216:252,1,240,8|0,0:0|0:0,0:0:0:0:
336,252,73890,1,0,0:0:0:0:
168,252,74237,1,2,0:0:0:0:
452,248,75624,6,0,P|472:120|332:84,1,300,2|0,0:0|0:0,0:0:0:0:
50,186,77027,2,0,L|331:83,1,300,2|0,0:0|0:0,0:0:0:0:
32,84,78390,6,0,P|196:292|332:84,1,600,2|0,0:0|0:0,0:0:0:0:
140,84,80483,2,0,L|132:204,1,120
432,84,81214,6,0,L|448:208,1,120,4|0,0:0|0:0,0:0:0:0:
292,204,81911,2,0,L|424:204,1,120
244,204,82609,2,0,L|108:204,2,120,2|2|0,0:0|0:0|0:0,0:0:0:0:
376,204,83655,1,2,0:0:0:0:
76,204,84004,6,0,P|4:116|84:52,1,240,2|0,0:0|0:0,0:0:0:0:
216,52,85051,1,0,0:0:0:0:
348,152,85400,2,0,L|228:152,1,120,2|0,0:0|0:0,0:0:0:0:
360,52,86097,2,0,L|480:52,1,120
312,160,86795,6,0,L|432:160,1,120,4|0,0:0|0:0,0:0:0:0:
288,52,87493,2,0,L|168:52,1,120
336,56,88190,1,2,0:0:0:0:
436,92,88539,1,0,0:0:0:0:
436,192,88888,1,0,0:0:0:0:
341,237,89237,1,0,0:0:0:0:
160,232,89586,6,0,P|80:152|156:84,1,240,2|0,0:0|0:0,0:0:0:0:
288,84,90632,1,0,0:0:0:0:
132,84,90981,2,0,L|124:208,1,120,2|0,0:0|0:0,0:0:0:0:
280,204,91679,1,2,0:0:0:0:
148,204,92027,1,0,0:0:0:0:
448,204,92376,6,0,L|456:84,1,120,4|0,0:0|0:0,0:0:0:0:
300,84,93074,2,0,L|424:84,1,120
252,88,93772,2,0,L|356:148,2,120,2|2|0,0:0|0:0|0:0,0:0:0:0:
124,88,94818,1,2,0:0:0:0:
428,88,95167,5,2,0:0:0:0:
200,88,95868,1,2,0:0:0:0:
508,88,96570,2,0,L|384:88,1,120,2|0,0:0|0:0,0:0:0:0:
268,192,97272,2,0,L|388:192,1,120,2|0,0:0|0:0,0:0:0:0:
88,192,97974,6,0,L|0:104,2,120,4|0|0,0:0|0:0|0:0,0:0:0:0:
220,192,99020,1,0,0:0:0:0:
64,300,99369,2,0,L|196:300,2,120,4|0|0,0:0|0:0|0:0,0:0:0:0:
220,300,100421,1,0,0:0:0:0:
388,300,100772,5,4,0:0:0:0:
244,300,101133,2,0,L|240:172,1,120
388,300,101827,2,0,P|492:188|380:52,1,360,2|0,0:0|0:0,0:0:0:0:
140,56,103541,6,0,L|264:56,1,120,8|0,0:0|0:0,0:0:0:0:
116,56,104238,1,0,0:0:0:0:
284,56,104587,1,2,0:0:0:0:
68,192,105634,1,2,0:0:0:0:
356,192,106331,5,8,0:0:0:0:
20,192,107727,1,8,0:0:0:0:
452,192,109122,5,12,0:0:0:0:
256,192,109471,12,0,114703,0:0:0:0:
