osu file format v14

[General]
AudioFilename: audio.mp3
AudioLeadIn: 0
PreviewTime: 33774
Countdown: 0
SampleSet: Soft
StackLeniency: 0.7
Mode: 2
LetterboxInBreaks: 0
WidescreenStoryboard: 1

[Editor]
DistanceSpacing: 1.3
BeatDivisor: 4
GridSize: 4
TimelineZoom: 1

[Metadata]
Title:Lost my pieces
TitleUnicode:Lost my pieces
Artist:Hashimoto Yukari
ArtistUnicode:橋本 由香利
Creator:JBHyperion
Version:Cup
Source:とらドラ!
Tags:Toradora! ost original sound track anime emotional piano violin instrumental Taiga Aisaka Ryuuji Takasu
BeatmapID:1618669
BeatmapSetID:769843

[Difficulty]
HPDrainRate:3
CircleSize:2
OverallDifficulty:4.5
ApproachRate:4.5
SliderMultiplier:2
SliderTickRate:1

[Events]
//Background and Video events
0,0,"bg.jpg",0,0
//Break Periods
//Storyboard Layer 0 (Background)
//Storyboard Layer 1 (Fail)
//Storyboard Layer 2 (Pass)
//Storyboard Layer 3 (Foreground)
//Storyboard Sound Samples

[TimingPoints]
281,697.674418604651,4,2,1,35,1,0
3769,-100,4,2,1,20,0,0
4467,-100,4,2,1,35,0,0
5862,-100,4,2,1,35,0,0
12141,-100,4,2,1,20,0,0
12839,-100,4,2,1,35,0,0
17723,-100,4,2,1,20,0,0
18420,-100,4,2,1,35,0,0
19118,-100,4,2,1,20,0,0
19815,-100,4,2,1,35,0,0
20513,-100,4,2,1,20,0,0
21211,-100,4,2,1,35,0,0
28536,-100,4,2,1,25,0,0
29234,-100,4,2,1,20,0,0
29932,-100,4,2,1,15,0,0
30280,-100,4,2,1,15,0,0
30978,731.707317073171,4,2,1,35,1,0
32441,666.666666666667,4,2,1,20,1,0
33107,-100,4,2,1,30,0,0
33774,697.674418604651,4,2,1,45,1,1
36564,-100,4,2,1,45,0,1
36913,-100,4,2,1,45,0,1
37262,-100,4,2,1,45,0,1
37611,-100,4,2,1,45,0,1
42146,-100,4,2,1,45,0,1
42494,-100,4,2,1,45,0,1
47727,701.754385964912,4,2,1,45,1,1
50534,697.674418604651,4,2,1,45,1,1
53324,710.059171597633,4,2,1,45,1,1
54744,689.655172413793,4,2,1,45,1,1
55433,-100,4,2,1,25,0,1
56123,-100,4,2,1,20,0,1
56812,-100,4,2,1,15,0,1
57502,697.674418604651,4,2,1,25,1,0
58897,697.674418604651,4,2,1,25,1,0
59245,-100,4,2,1,35,0,0
62385,-100,4,2,1,20,0,0
63083,-100,4,2,1,35,0,0
63780,-100,4,2,1,35,0,0
72850,693.64161849711,4,2,1,35,1,0
75624,701.754385964912,4,2,1,35,1,0
75624,-80,4,2,1,35,0,0
76325,-80,4,2,1,20,0,0
77027,681.818181818182,4,2,1,35,1,0
77027,-80,4,2,1,35,0,0
77708,-80,4,2,1,20,0,0
78390,697.674418604651,4,2,1,35,1,0
78390,-80,4,2,1,35,0,0
79087,-100,4,2,1,35,0,0
80483,731.707317073171,4,2,1,35,1,0
81214,697.674418604651,4,2,1,45,1,1
84004,-100,4,2,1,45,0,1
84353,-100,4,2,1,45,0,1
89586,-100,4,2,1,45,0,1
89934,-100,4,2,1,45,0,1
95167,701.754385964912,4,2,1,45,1,1
97974,697.674418604651,4,2,1,45,1,1
99369,701.754385964912,4,2,1,45,1,1
100772,722.89156626506,4,2,1,45,1,1
101494,666.666666666667,4,2,1,45,1,1
101827,685.714285714286,4,2,1,45,1,0
102169,-100,4,2,1,35,0,0
102512,-100,4,2,1,10,0,0
102855,-100,4,2,1,35,0,0
103541,697.674418604651,4,2,1,35,1,0
109122,-100,4,2,1,35,0,0
109471,-100,4,2,1,16,0,0
109819,-100,4,2,1,18,0,0
110168,-100,4,2,1,20,0,0
110517,-100,4,2,1,22,0,0
110866,-100,4,2,1,24,0,0
111215,-100,4,2,1,26,0,0
111564,-100,4,2,1,28,0,0
111912,-100,4,2,1,30,0,0
112261,-100,4,2,1,28,0,0
112610,-100,4,2,1,25,0,0
112959,-100,4,2,1,22,0,0
113308,-100,4,2,1,20,0,0
113657,-100,4,2,1,18,0,0
114005,-100,4,2,1,15,0,0
114354,-100,4,2,1,12,0,0
114703,-100,4,2,1,10,0,0

[Colours]
Combo1 : 180,240,255
Combo2 : 90,100,200
Combo3 : 90,140,220
Combo4 : 145,175,255

[HitObjects]
400,244,281,6,0,L|408:140,1,100,2|0,0:0|0:0,0:0:0:0:
288,140,978,1,0,0:0:0:0:
136,140,1327,1,2,0:0:0:0:
392,140,2374,1,2,0:0:0:0:
172,316,3071,6,0,P|132:228|172:128,1,200,2|0,0:0|0:0,0:0:0:0:
404,136,4467,1,8,0:0:0:0:
164,296,5862,6,0,L|77:246,2,100,2|0|0,0:0|0:0|0:0,0:0:0:0:
264,296,6908,1,0,0:0:0:0:
364,296,7257,2,0,L|451:246,2,100,2|0|0,0:0|0:0|0:0,0:0:0:0:
264,296,8304,1,0,0:0:0:0:
364,296,8653,6,0,P|464:204|364:116,1,300,2|0,0:0|0:0,0:0:0:0:
268,116,10048,1,2,0:0:0:0:
488,116,10746,1,8,0:0:0:0:
240,116,11443,6,0,P|144:156|112:248,1,200,2|0,0:0|0:0,0:0:0:0:
312,240,12839,1,2,0:0:0:0:
84,240,13536,1,2,0:0:0:0:
344,240,14234,6,0,P|312:120|160:48,1,300,8|0,0:0|0:0,0:0:0:0:
64,48,15629,1,2,0:0:0:0:
324,28,17025,6,0,P|352:128|324:220,1,200,2|0,0:0|0:0,0:0:0:0:
104,216,18420,2,0,L|312:216,1,200,2|0,0:0|0:0,0:0:0:0:
56,196,19815,2,0,P|108:100|304:220,1,400,2|8,0:0|0:0,0:0:0:0:
64,300,22606,6,0,L|216:168,1,200,2|0,0:0|0:0,0:0:0:0:
436,168,24001,2,0,L|236:168,1,200,2|0,0:0|0:0,0:0:0:0:
456,168,25397,5,2,0:0:0:0:
276,168,26094,1,0,0:0:0:0:
64,168,26792,1,2,0:0:0:0:
304,168,27490,1,2,0:0:0:0:
40,168,28187,6,0,P|60:72|48:188,1,600,8|0,0:0|0:0,0:0:0:0:
332,220,30978,1,2,0:0:0:0:
76,288,32441,2,0,P|88:216|196:164,1,200,2|0,0:0|0:0,0:0:0:0:
440,164,33774,6,0,L|448:56,1,100,4|0,0:0|0:0,0:0:0:0:
328,60,34471,2,0,L|208:60,1,100
348,60,35169,1,2,0:0:0:0:
440,136,35518,1,2,0:0:0:0:
440,256,35867,1,0,0:0:0:0:
320,256,36215,1,2,0:0:0:0:
180,256,36564,6,0,P|84:168|184:76,1,300,2|0,0:0|0:0,0:0:0:0:
304,76,37960,2,0,L|504:76,1,200,2|0,0:0|0:0,0:0:0:0:
304,192,39355,6,0,L|196:192,1,100,4|0,0:0|0:0,0:0:0:0:
324,192,40053,2,0,L|424:192,1,100
304,192,40750,1,2,0:0:0:0:
218,151,41099,1,2,0:0:0:0:
215,56,41448,1,0,0:0:0:0:
299,11,41797,1,0,0:0:0:0:
420,12,42146,6,0,B|220:12|220:12|204:120,1,300,2|0,0:0|0:0,0:0:0:0:
320,112,43541,2,0,P|380:176|356:284,1,200,2|0,0:0|0:0,0:0:0:0:
120,248,44936,6,0,L|112:140,1,100,4|0,0:0|0:0,0:0:0:0:
232,144,45634,2,0,L|352:144,1,100
212,144,46332,1,2,0:0:0:0:
120,220,46680,1,2,0:0:0:0:
120,340,47029,1,0,0:0:0:0:
240,340,47378,1,2,0:0:0:0:
360,340,47727,5,2,0:0:0:0:
180,340,48428,1,2,0:0:0:0:
392,340,49130,1,2,0:0:0:0:
152,340,49832,1,2,0:0:0:0:
420,340,50534,6,0,P|424:256|336:192,1,200,4|0,0:0|0:0,0:0:0:0:
88,192,51929,2,0,P|7:140|5:44,1,200,4|0,0:0|0:0,0:0:0:0:
115,48,52975,1,0,0:0:0:0:
224,44,53324,6,0,B|224:144|224:144|136:192,1,200,4|0,0:0|0:0,0:0:0:0:
36,192,54389,1,2,0:0:0:0:
156,192,54744,2,0,P|356:220|152:220,1,600,4|0,0:0|0:0,0:0:0:0:
254,220,57502,1,8,0:0:0:0:
140,192,58897,6,0,L|32:192,2,100,2|0|0,0:0|0:0|0:0,0:0:0:0:
240,192,59943,1,2,0:0:0:0:
448,92,60990,1,2,0:0:0:0:
228,272,61687,6,0,P|268:168|344:136,1,200,4|0,0:0|0:0,0:0:0:0:
156,120,63083,1,0,0:0:0:0:
348,296,64478,6,0,L|435:246,1,100,2|0,0:0|0:0,0:0:0:0:
324,244,65176,2,0,L|237:194,1,100
348,136,65873,2,0,L|435:86,2,100,2|0|2,0:0|0:0|0:0,0:0:0:0:
248,136,66920,1,0,0:0:0:0:
128,136,67269,6,0,P|44:228|60:300,1,200,2|0,0:0|0:0,0:0:0:0:
236,316,68664,1,2,0:0:0:0:
48,316,69362,1,2,0:0:0:0:
280,244,70059,6,0,P|376:204|408:112,1,200,2|0,0:0|0:0,0:0:0:0:
208,120,71455,1,2,0:0:0:0:
436,120,72152,1,0,0:0:0:0:
188,120,72850,6,0,P|40:192|20:316,1,300,8|0,0:0|0:0,0:0:0:0:
128,312,74237,1,2,0:0:0:0:
428,312,75624,6,0,P|296:236|280:148,1,250,2|0,0:0|0:0,0:0:0:0:
32,312,77027,2,0,P|164:236|180:148,1,250,2|0,0:0|0:0,0:0:0:0:
432,152,78390,6,0,P|304:324|181:148,1,500,2|0,0:0|0:0,0:0:0:0:
20,148,80483,2,0,L|124:148,1,100
248,248,81214,6,0,L|240:140,1,100,4|0,0:0|0:0,0:0:0:0:
120,148,81911,2,0,L|0:148,1,100
140,148,82609,2,0,L|232:192,2,100,2|2|0,0:0|0:0|0:0,0:0:0:0:
260,148,83655,1,2,0:0:0:0:
380,148,84004,6,0,P|476:236|376:328,1,300,2|0,0:0|0:0,0:0:0:0:
256,328,85400,2,0,L|480:328,1,200,2|0,0:0|0:0,0:0:0:0:
236,240,86795,6,0,L|128:240,1,100,4|0,0:0|0:0,0:0:0:0:
16,240,87493,2,0,L|116:240,1,100
216,240,88190,1,2,0:0:0:0:
130,199,88539,1,0,0:0:0:0:
127,104,88888,1,0,0:0:0:0:
211,59,89237,1,0,0:0:0:0:
332,60,89586,6,0,P|432:152|328:236,1,300,2|0,0:0|0:0,0:0:0:0:
224,236,90981,2,0,L|216:344,1,100,2|0,0:0|0:0,0:0:0:0:
336,336,91679,1,2,0:0:0:0:
216,336,92027,1,0,0:0:0:0:
96,336,92376,6,0,L|200:336,1,100,4|0,0:0|0:0,0:0:0:0:
316,232,93074,2,0,L|436:232,1,100
304,232,93772,1,2,0:0:0:0:
204,156,94120,1,2,0:0:0:0:
192,36,94469,1,0,0:0:0:0:
312,36,94818,1,2,0:0:0:0:
432,36,95167,5,2,0:0:0:0:
252,36,95868,1,2,0:0:0:0:
448,192,96570,1,2,0:0:0:0:
208,192,97272,1,2,0:0:0:0:
468,192,97974,6,0,L|500:292,2,100,4|0|0,0:0|0:0|0:0,0:0:0:0:
356,192,99020,1,0,0:0:0:0:
244,192,99369,2,0,L|214:96,2,100,4|0|0,0:0|0:0|0:0,0:0:0:0:
356,192,100421,1,0,0:0:0:0:
244,192,100772,5,4,0:0:0:0:
124,280,101133,2,0,L|232:280,1,100
336,280,101827,2,0,P|432:184|336:80,1,300,2|0,0:0|0:0,0:0:0:0:
160,80,103541,6,0,L|56:80,1,100,8|0,0:0|0:0,0:0:0:0:
172,80,104238,1,0,0:0:0:0:
304,80,104587,1,2,0:0:0:0:
452,192,105634,1,2,0:0:0:0:
272,192,106331,5,8,0:0:0:0:
72,192,107727,1,8,0:0:0:0:
256,192,109122,5,12,0:0:0:0:
256,192,109471,12,0,114703,0:0:0:0:
