osu file format v14

[General]
AudioFilename: audio.mp3
AudioLeadIn: 0
PreviewTime: 48690
Countdown: 0
SampleSet: Soft
StackLeniency: 0.7
Mode: 3
LetterboxInBreaks: 0
SpecialStyle: 0
WidescreenStoryboard: 0

[Editor]
DistanceSpacing: 1.1
BeatDivisor: 8
GridSize: 8
TimelineZoom: 0.6999999

[Metadata]
Title:Hakanaki Yume
TitleUnicode:儚き夢
Artist:Hashimoto Yukari
ArtistUnicode:橋本由香利
Creator:Lyawi
Version:Relaxing
Source:まよチキ!
Tags:Mayo Chiki! OST Piano violin Feerum
BeatmapID:1065675
BeatmapSetID:488056

[Difficulty]
HPDrainRate:6
CircleSize:4
OverallDifficulty:6
ApproachRate:2
SliderMultiplier:1.4
SliderTickRate:1

[Events]
//Background and Video events
0,0,"BG.jpg",0,0
//Break Periods
//Storyboard Layer 0 (Background)
//Storyboard Layer 1 (Fail)
//Storyboard Layer 2 (Pass)
//Storyboard Layer 3 (Foreground)
//Storyboard Sound Samples

[TimingPoints]
683,800,4,2,1,40,1,0
683,-100,4,2,1,40,0,0
51883,-100,4,2,1,40,0,1
72683,800,4,2,1,40,1,0
72683,-100,4,2,1,40,0,0
85083,864.939670457986,4,2,1,40,1,0
85083,-92.5925925925926,4,2,1,40,0,0
85515,800,4,2,1,40,1,0
85515,-100,4,2,1,40,0,0
87133,845.070422535211,4,2,1,40,1,0
87133,-94.6666666666667,4,2,1,40,0,0
87978,960,4,2,1,40,1,0
87978,-83.3333333333333,4,2,1,40,0,0
88458,1100.91743119266,4,2,1,40,1,0
88458,-72.6666666666667,4,2,1,40,0,0
88733,1411.76470588235,4,2,1,40,1,0
88733,-56.6666666666668,4,2,1,40,0,0
89085,1318.68131868132,4,2,1,40,1,0
89085,-60.6666666666666,4,2,1,40,0,0
89249,705.882352941176,4,2,1,40,1,0
89249,-113.333333333333,4,2,1,40,0,0
89601,789.473684210526,4,2,1,40,1,0
89601,-101.333333333333,4,2,1,40,0,0
89864,1090.90909090909,4,2,1,40,1,0
89864,-73.3333333333334,4,2,1,40,0,0
90045,991.735537190083,4,2,1,40,1,0
90045,-80.6666666666666,4,2,1,40,0,0
90292,926.640926640927,4,2,1,40,1,0
90292,-86.3333333333333,4,2,1,40,0,0
90523,937.5,4,2,1,40,1,0
90523,-85.3333333333333,4,2,1,40,0,0
90757,991.735537190083,4,2,1,40,1,0
90757,-80.6666666666666,4,2,1,40,0,0
91004,1212.12121212121,4,2,1,40,1,0
91004,-66.0000000000001,4,2,1,40,0,0
91307,903.954802259887,4,2,1,40,1,0
91307,-88.5,4,2,1,40,0,0
91984,842.105263157895,4,2,1,40,1,0
91984,-95,4,2,1,40,0,0
92089,979.591836734694,4,2,1,40,1,0
92089,-81.6666666666666,4,2,1,40,0,0
92211,1132.07547169811,4,2,1,40,1,0
92211,-70.4225352112676,4,2,1,40,0,0

[Colours]
Combo1 : 146,184,226
Combo2 : 129,142,80
Combo3 : 204,79,92
Combo4 : 226,179,85
SliderTrackOverride : 192,170,183

[HitObjects]
448,192,283,128,0,683:0:0:0:0:
64,192,683,128,2,1483:0:0:0:0:
192,192,1483,1,2,0:0:0:0:
320,192,1883,1,0,0:0:0:0:
448,192,2283,128,2,3483:0:0:0:0:
320,192,3483,1,2,0:0:0:0:
192,192,3883,1,2,0:0:0:0:
64,192,4283,1,0,0:0:0:0:
320,192,4683,1,0,0:0:0:0:
192,192,5083,1,2,0:0:0:0:
320,192,5483,128,2,6283:0:0:0:0:
64,192,6283,128,2,7083:0:0:0:0:
192,192,7083,128,2,10283:0:0:0:0:
320,192,10283,128,2,11883:0:0:0:0:
448,192,11883,128,2,12683:0:0:0:0:
64,192,12683,128,2,13483:0:0:0:0:
192,192,13483,128,2,14283:0:0:0:0:
320,192,14283,1,0,0:0:0:0:
192,192,14683,1,0,0:0:0:0:
64,192,15083,128,2,16283:0:0:0:0:
448,192,16283,1,2,0:0:0:0:
320,192,16683,1,2,0:0:0:0:
448,192,17083,1,0,0:0:0:0:
192,192,17483,1,0,0:0:0:0:
64,192,17883,1,2,0:0:0:0:
448,192,18283,1,2,0:0:0:0:
192,192,19083,1,2,0:0:0:0:
64,192,19883,1,2,0:0:0:0:
448,192,21083,1,2,0:0:0:0:
192,192,21483,1,2,0:0:0:0:
64,192,22683,1,2,0:0:0:0:
320,192,23083,1,2,0:0:0:0:
448,192,24283,1,2,0:0:0:0:
192,192,24683,1,2,0:0:0:0:
320,192,25083,1,0,0:0:0:0:
64,192,25483,1,2,0:0:0:0:
448,192,25883,1,0,0:0:0:0:
64,192,26283,128,2,27883:0:0:0:0:
192,192,27883,1,0,0:0:0:0:
320,192,28283,1,0,0:0:0:0:
448,192,28683,1,0,0:0:0:0:
64,192,29083,1,0,0:0:0:0:
320,192,29483,128,2,31083:0:0:0:0:
192,192,31083,1,2,0:0:0:0:
448,192,31483,1,0,0:0:0:0:
64,192,31883,1,0,0:0:0:0:
320,192,32283,1,0,0:0:0:0:
192,192,32683,1,2,0:0:0:0:
64,192,33083,1,0,0:0:0:0:
320,192,33483,1,0,0:0:0:0:
448,192,33883,1,0,0:0:0:0:
192,192,34283,128,2,35083:0:0:0:0:
320,192,35083,128,0,35883:0:0:0:0:
64,192,35883,128,2,36683:0:0:0:0:
448,192,36683,128,2,37483:0:0:0:0:
192,192,37483,128,2,39083:0:0:0:0:
64,192,39083,1,2,0:0:0:0:
320,192,39483,1,0,0:0:0:0:
192,192,39883,1,2,0:0:0:0:
64,192,40283,1,0,0:0:0:0:
448,192,40683,1,2,0:0:0:0:
320,192,41083,1,0,0:0:0:0:
192,192,41483,1,2,0:0:0:0:
448,192,41883,1,0,0:0:0:0:
64,192,42283,128,2,43083:0:0:0:0:
192,192,43083,1,2,0:0:0:0:
320,192,43483,1,0,0:0:0:0:
448,192,43883,1,2,0:0:0:0:
320,192,44283,1,0,0:0:0:0:
192,192,44683,1,2,0:0:0:0:
64,192,45083,1,0,0:0:0:0:
192,192,45483,128,2,46283:0:0:0:0:
320,192,46283,1,2,0:0:0:0:
448,192,46683,1,0,0:0:0:0:
64,192,47083,1,2,0:0:0:0:
192,192,47483,1,0,0:0:0:0:
320,192,47883,1,2,0:0:0:0:
448,192,48283,1,0,0:0:0:0:
192,192,48683,1,2,0:0:0:0:
64,192,49083,1,2,0:0:0:0:
320,192,49483,1,2,0:0:0:0:
448,192,49883,1,2,0:0:0:0:
64,192,50283,1,2,0:0:0:0:
192,192,50683,1,2,0:0:0:0:
448,192,51083,1,2,0:0:0:0:
320,192,51483,1,2,0:0:0:0:
192,192,51883,128,6,52683:0:0:0:0:
320,192,52683,1,0,0:0:0:0:
64,192,53083,1,0,0:0:0:0:
448,192,53483,128,2,54683:0:0:0:0:
320,192,54683,1,0,0:0:0:0:
64,192,55083,1,2,0:0:0:0:
192,192,55483,1,0,0:0:0:0:
448,192,55883,1,2,0:0:0:0:
320,192,56283,1,0,0:0:0:0:
64,192,56683,128,2,57483:0:0:0:0:
448,192,57483,128,2,58283:0:0:0:0:
192,192,58283,128,2,60283:0:0:0:0:
320,192,60283,1,2,0:0:0:0:
448,192,60683,1,2,0:0:0:0:
192,192,61083,1,2,0:0:0:0:
64,192,61483,128,2,63083:0:0:0:0:
192,192,63083,128,2,63883:0:0:0:0:
320,192,63883,128,2,64683:0:0:0:0:
64,192,64683,128,6,65483:0:0:0:0:
448,192,65483,1,0,0:0:0:0:
192,192,65883,1,0,0:0:0:0:
320,192,66283,128,2,67483:0:0:0:0:
192,192,67483,1,0,0:0:0:0:
64,192,67883,1,2,0:0:0:0:
448,192,68283,1,0,0:0:0:0:
192,192,68683,1,2,0:0:0:0:
448,192,69083,1,0,0:0:0:0:
64,192,69483,128,2,72683:0:0:0:0:
320,192,72683,128,2,73883:0:0:0:0:
192,192,73883,1,2,0:0:0:0:
448,192,74283,128,2,75483:0:0:0:0:
64,192,75483,1,2,0:0:0:0:
192,192,75883,128,2,77083:0:0:0:0:
320,192,77083,1,2,0:0:0:0:
448,192,77483,1,2,0:0:0:0:
64,192,77883,1,0,0:0:0:0:
320,192,78283,1,0,0:0:0:0:
192,192,78683,1,2,0:0:0:0:
448,192,79083,128,2,80283:0:0:0:0:
320,192,80283,1,2,0:0:0:0:
64,192,80683,128,2,81483:0:0:0:0:
448,192,81483,1,0,0:0:0:0:
320,192,81883,1,2,0:0:0:0:
448,192,82283,1,2,0:0:0:0:
64,192,83083,1,0,0:0:0:0:
320,192,83483,1,2,0:0:0:0:
192,192,83883,1,2,0:0:0:0:
448,192,84283,1,0,0:0:0:0:
64,192,84683,1,0,0:0:0:0:
320,192,85083,1,2,0:0:0:0:
192,192,85515,128,2,92211:0:0:0:0:
320,192,92211,1,2,0:0:0:0:
