osu file format v14

[General]
AudioFilename: audio.mp3
AudioLeadIn: 0
PreviewTime: 48690
Countdown: 0
SampleSet: Soft
StackLeniency: 0.7
Mode: 3
LetterboxInBreaks: 0
SpecialStyle: 0
WidescreenStoryboard: 1

[Editor]
Bookmarks: 92190
DistanceSpacing: 1.1
BeatDivisor: 8
GridSize: 8
TimelineZoom: 1

[Metadata]
Title:Hakanaki Yume
TitleUnicode:儚き夢
Artist:Hashimoto Yukari
ArtistUnicode:橋本由香利
Creator:Lyawi
Version:Feru's Challenging
Source:まよチキ!
Tags:Mayo Chiki! OST Piano violin Feerum
BeatmapID:1108653
BeatmapSetID:488056

[Difficulty]
HPDrainRate:7
CircleSize:4
OverallDifficulty:7
ApproachRate:2
SliderMultiplier:1.4
SliderTickRate:1

[Events]
//Background and Video events
0,0,"BG.jpg",0,0
//Break Periods
//Storyboard Layer 0 (Background)
//Storyboard Layer 1 (Fail)
//Storyboard Layer 2 (Pass)
//Storyboard Layer 3 (Foreground)
//Storyboard Sound Samples

[TimingPoints]
683,800,4,2,1,40,1,0
683,-100,4,2,1,40,0,0
51883,-100,4,2,1,40,0,1
72683,800,4,2,1,40,1,0
72683,-100,4,2,1,40,0,0
85083,864.939670457986,4,2,1,40,1,0
85083,-92.5925925925926,4,2,1,40,0,0
85515,800,4,2,1,40,1,0
85515,-100,4,2,1,40,0,0
87133,845.070422535211,4,2,1,40,1,0
87133,-94.6666666666667,4,2,1,40,0,0
87978,960,4,2,1,40,1,0
87978,-83.3333333333333,4,2,1,40,0,0
88458,1100.91743119266,4,2,1,40,1,0
88458,-72.6666666666667,4,2,1,40,0,0
88733,1411.76470588235,4,2,1,40,1,0
88733,-56.6666666666668,4,2,1,40,0,0
89085,1318.68131868132,4,2,1,40,1,0
89085,-60.6666666666666,4,2,1,40,0,0
89249,705.882352941176,4,2,1,40,1,0
89249,-113.333333333333,4,2,1,40,0,0
89601,789.473684210526,4,2,1,40,1,0
89601,-101.333333333333,4,2,1,40,0,0
89864,1090.90909090909,4,2,1,40,1,0
89864,-73.3333333333334,4,2,1,40,0,0
90045,991.735537190083,4,2,1,40,1,0
90045,-80.6666666666666,4,2,1,40,0,0
90292,926.640926640927,4,2,1,40,1,0
90292,-86.3333333333333,4,2,1,40,0,0
90523,937.5,4,2,1,40,1,0
90523,-85.3333333333333,4,2,1,40,0,0
90757,991.735537190083,4,2,1,40,1,0
90757,-80.6666666666666,4,2,1,40,0,0
91004,1212.12121212121,4,2,1,40,1,0
91004,-66.0000000000001,4,2,1,40,0,0
91307,903.954802259887,4,2,1,40,1,0
91307,-88.5,4,2,1,40,0,0
91984,842.105263157895,4,2,1,40,1,0
91984,-95,4,2,1,40,0,0
92089,979.591836734694,4,2,1,40,1,0
92089,-81.6666666666666,4,2,1,40,0,0
92211,1132.07547169811,4,2,1,40,1,0
92211,-70.4225352112676,4,2,1,40,0,0

[Colours]
Combo1 : 146,184,226
Combo2 : 129,142,80
Combo3 : 204,79,92
Combo4 : 226,179,85
SliderTrackOverride : 192,170,183

[HitObjects]
320,192,283,5,0,0:0:0:0:
448,192,683,1,2,0:0:0:0:
64,192,683,1,4,0:0:0:0:
192,192,1083,1,0,0:0:0:0:
320,192,1483,1,2,0:0:0:0:
64,192,1483,1,0,0:0:0:0:
448,192,1883,1,0,0:0:0:0:
64,192,2283,1,2,0:0:0:0:
320,192,2283,1,0,0:0:0:0:
192,192,2683,1,0,0:0:0:0:
448,192,3083,1,0,0:0:0:0:
320,192,3483,1,2,0:0:0:0:
192,192,3883,1,4,0:0:0:0:
64,192,3883,1,2,0:0:0:0:
320,192,4283,1,0,0:0:0:0:
192,192,4683,1,0,0:0:0:0:
448,192,5083,1,2,0:0:0:0:
64,192,5483,1,2,0:0:0:0:
320,192,5483,128,0,6083:0:0:0:0:
448,192,6283,1,2,0:0:0:0:
192,192,6283,128,0,6883:0:0:0:0:
448,192,7083,1,4,0:0:0:0:
64,192,7083,128,2,10283:0:0:0:0:
192,192,7483,1,0,0:0:0:0:
320,192,7883,1,0,0:0:0:0:
192,192,8283,1,0,0:0:0:0:
448,192,8683,1,2,0:0:0:0:
320,192,9083,1,0,0:0:0:0:
448,192,9483,1,0,0:0:0:0:
192,192,9883,1,0,0:0:0:0:
320,192,10283,128,2,11883:0:0:0:0:
448,192,10283,1,0,0:0:0:0:
192,192,10683,1,0,0:0:0:0:
64,192,11083,1,0,0:0:0:0:
448,192,11483,1,0,0:0:0:0:
192,192,11883,128,0,12483:0:0:0:0:
64,192,11883,1,2,0:0:0:0:
64,192,12683,128,0,13283:0:0:0:0:
320,192,12683,1,2,0:0:0:0:
64,192,13483,1,2,0:0:0:0:
448,192,13483,128,4,14283:0:0:0:0:
320,192,13883,1,0,0:0:0:0:
192,192,14283,1,0,0:0:0:0:
64,192,14683,1,0,0:0:0:0:
320,192,15083,1,0,0:0:0:0:
448,192,15083,1,2,0:0:0:0:
192,192,15483,1,0,0:0:0:0:
320,192,15883,1,0,0:0:0:0:
448,192,16283,1,2,0:0:0:0:
320,192,16683,1,4,0:0:0:0:
64,192,16683,1,2,0:0:0:0:
192,192,17083,1,0,0:0:0:0:
320,192,17483,1,0,0:0:0:0:
448,192,17883,1,2,0:0:0:0:
192,192,17883,1,0,0:0:0:0:
64,192,18283,1,0,0:0:0:0:
320,192,18283,128,2,18883:0:0:0:0:
64,192,19083,1,2,0:0:0:0:
192,192,19083,128,0,19683:0:0:0:0:
448,192,19883,1,2,0:0:0:0:
64,192,19883,1,4,0:0:0:0:
192,192,20283,1,0,0:0:0:0:
64,192,20683,1,0,0:0:0:0:
448,192,21083,1,2,0:0:0:0:
320,192,21483,1,2,0:0:0:0:
192,192,21883,1,0,0:0:0:0:
64,192,22283,1,0,0:0:0:0:
448,192,22683,1,2,0:0:0:0:
64,192,23083,1,2,0:0:0:0:
320,192,23083,1,4,0:0:0:0:
192,192,23483,1,0,0:0:0:0:
64,192,23883,1,0,0:0:0:0:
448,192,24283,1,2,0:0:0:0:
320,192,24683,1,2,0:0:0:0:
64,192,25083,1,0,0:0:0:0:
448,192,25483,1,2,0:0:0:0:
192,192,25883,1,0,0:0:0:0:
64,192,26283,128,4,29483:0:0:0:0:
320,192,26283,1,2,0:0:0:0:
192,192,26683,1,0,0:0:0:0:
448,192,27083,1,0,0:0:0:0:
320,192,27483,1,0,0:0:0:0:
192,192,27883,1,0,0:0:0:0:
448,192,28283,1,0,0:0:0:0:
320,192,28683,1,0,0:0:0:0:
192,192,29083,1,0,0:0:0:0:
448,192,29483,128,2,31083:0:0:0:0:
320,192,29483,1,4,0:0:0:0:
192,192,29883,1,0,0:0:0:0:
320,192,30283,1,0,0:0:0:0:
64,192,30683,1,0,0:0:0:0:
320,192,31083,1,2,0:0:0:0:
192,192,31483,1,0,0:0:0:0:
64,192,31883,1,0,0:0:0:0:
448,192,32283,1,0,0:0:0:0:
192,192,32683,128,4,34283:0:0:0:0:
64,192,32683,1,2,0:0:0:0:
320,192,33083,1,0,0:0:0:0:
64,192,33483,1,0,0:0:0:0:
448,192,33883,1,0,0:0:0:0:
320,192,34283,128,2,35883:0:0:0:0:
64,192,34283,1,0,0:0:0:0:
192,192,35083,1,0,0:0:0:0:
64,192,35883,128,0,37483:0:0:0:0:
448,192,35883,1,2,0:0:0:0:
192,192,35883,1,4,0:0:0:0:
320,192,36683,1,2,0:0:0:0:
192,192,36683,1,0,0:0:0:0:
448,192,37483,1,2,0:0:0:0:
320,192,37483,1,0,0:0:0:0:
192,192,39083,1,4,0:0:0:0:
448,192,39083,1,2,0:0:0:0:
64,192,39483,1,0,0:0:0:0:
448,192,39883,1,0,0:0:0:0:
320,192,39883,1,2,0:0:0:0:
192,192,40283,1,0,0:0:0:0:
320,192,40683,1,2,0:0:0:0:
64,192,40683,1,0,0:0:0:0:
192,192,41083,1,0,0:0:0:0:
448,192,41483,1,2,0:0:0:0:
64,192,41883,1,0,0:0:0:0:
320,192,42283,1,2,0:0:0:0:
192,192,42283,1,4,0:0:0:0:
448,192,42683,1,0,0:0:0:0:
64,192,43083,1,0,0:0:0:0:
320,192,43083,1,2,0:0:0:0:
192,192,43483,1,0,0:0:0:0:
448,192,43883,1,2,0:0:0:0:
320,192,43883,1,0,0:0:0:0:
192,192,44283,1,0,0:0:0:0:
64,192,44683,1,2,0:0:0:0:
448,192,44683,1,0,0:0:0:0:
320,192,45083,1,0,0:0:0:0:
192,192,45483,1,2,0:0:0:0:
448,192,45483,1,4,0:0:0:0:
64,192,45883,1,0,0:0:0:0:
320,192,46283,1,0,0:0:0:0:
448,192,46283,1,2,0:0:0:0:
192,192,46683,1,0,0:0:0:0:
320,192,47083,1,0,0:0:0:0:
64,192,47083,1,2,0:0:0:0:
448,192,47483,1,0,0:0:0:0:
64,192,47883,1,2,0:0:0:0:
192,192,48283,1,0,0:0:0:0:
320,192,48683,1,2,0:0:0:0:
448,192,48683,128,0,49083:0:0:0:0:
192,192,49083,128,0,49483:0:0:0:0:
64,192,49083,1,2,0:0:0:0:
320,192,49483,128,0,49883:0:0:0:0:
448,192,49483,1,2,0:0:0:0:
448,192,49883,128,0,50283:0:0:0:0:
64,192,49883,1,2,0:0:0:0:
64,192,50283,128,0,50683:0:0:0:0:
320,192,50283,1,2,0:0:0:0:
192,192,50683,128,0,51083:0:0:0:0:
448,192,50683,1,2,0:0:0:0:
320,192,51083,128,0,51883:0:0:0:0:
64,192,51083,1,2,0:0:0:0:
448,192,51483,1,0,0:0:0:0:
192,192,51883,128,12,52683:0:0:0:0:
64,192,51883,1,2,0:0:0:0:
320,192,52283,1,0,0:0:0:0:
448,192,52683,128,0,53083:0:0:0:0:
64,192,52683,1,2,0:0:0:0:
64,192,53083,128,2,53483:0:0:0:0:
320,192,53083,1,0,0:0:0:0:
320,192,53483,128,2,54683:0:0:0:0:
192,192,53483,1,0,0:0:0:0:
64,192,53883,1,0,0:0:0:0:
448,192,54283,1,0,0:0:0:0:
192,192,54683,128,2,55083:0:0:0:0:
64,192,54683,1,0,0:0:0:0:
64,192,55083,128,2,55483:0:0:0:0:
448,192,55083,1,0,0:0:0:0:
192,192,55483,128,2,55883:0:0:0:0:
320,192,55483,1,0,0:0:0:0:
320,192,55883,128,2,56283:0:0:0:0:
64,192,55883,1,0,0:0:0:0:
448,192,56283,128,2,56683:0:0:0:0:
192,192,56283,1,0,0:0:0:0:
192,192,56683,128,6,57283:0:0:0:0:
320,192,56683,1,0,0:0:0:0:
448,192,57083,1,0,0:0:0:0:
64,192,57483,128,2,58083:0:0:0:0:
320,192,57483,1,0,0:0:0:0:
448,192,57883,1,0,0:0:0:0:
320,192,58283,128,6,60283:0:0:0:0:
192,192,58283,1,0,0:0:0:0:
64,192,58683,1,0,0:0:0:0:
448,192,59083,1,0,0:0:0:0:
64,192,59483,1,0,0:0:0:0:
192,192,59883,1,0,0:0:0:0:
192,192,60283,128,2,60683:0:0:0:0:
448,192,60283,1,0,0:0:0:0:
320,192,60683,128,2,61083:0:0:0:0:
64,192,60683,1,0,0:0:0:0:
448,192,61083,128,2,61483:0:0:0:0:
192,192,61083,1,0,0:0:0:0:
64,192,61483,128,6,63083:0:0:0:0:
320,192,61483,1,0,0:0:0:0:
192,192,61883,1,0,0:0:0:0:
448,192,62283,1,0,0:0:0:0:
192,192,62683,1,0,0:0:0:0:
320,192,63083,128,6,63683:0:0:0:0:
448,192,63083,1,0,0:0:0:0:
64,192,63483,1,0,0:0:0:0:
192,192,63883,128,2,64483:0:0:0:0:
320,192,63883,1,0,0:0:0:0:
64,192,64283,1,0,0:0:0:0:
448,192,64683,128,6,65483:0:0:0:0:
192,192,64683,1,0,0:0:0:0:
320,192,65083,1,0,0:0:0:0:
64,192,65483,128,2,65883:0:0:0:0:
192,192,65483,1,0,0:0:0:0:
320,192,65883,128,2,66283:0:0:0:0:
448,192,65883,1,0,0:0:0:0:
192,192,66283,128,2,67483:0:0:0:0:
64,192,66283,1,0,0:0:0:0:
320,192,66683,1,0,0:0:0:0:
64,192,67083,1,0,0:0:0:0:
448,192,67483,128,2,67883:0:0:0:0:
320,192,67483,1,0,0:0:0:0:
64,192,67883,128,2,68283:0:0:0:0:
192,192,67883,1,0,0:0:0:0:
320,192,68283,128,2,68683:0:0:0:0:
192,192,68683,128,2,69083:0:0:0:0:
448,192,68683,1,0,0:0:0:0:
448,192,69083,128,2,69483:0:0:0:0:
64,192,69483,128,6,72683:0:0:0:0:
320,192,69483,1,0,0:0:0:0:
192,192,69883,1,0,0:0:0:0:
320,192,70283,128,0,72683:0:0:0:0:
448,192,70283,1,0,0:0:0:0:
192,192,70683,1,0,0:0:0:0:
448,192,71083,1,0,0:0:0:0:
192,192,71883,1,0,0:0:0:0:
448,192,72683,128,2,73083:0:0:0:0:
192,192,72683,1,4,0:0:0:0:
192,192,73083,128,0,73483:0:0:0:0:
64,192,73083,1,0,0:0:0:0:
320,192,73483,128,0,73883:0:0:0:0:
448,192,73483,1,0,0:0:0:0:
64,192,73883,128,0,74283:0:0:0:0:
192,192,73883,1,2,0:0:0:0:
448,192,74283,128,2,74683:0:0:0:0:
320,192,74283,1,0,0:0:0:0:
320,192,74683,128,0,75083:0:0:0:0:
192,192,74683,1,0,0:0:0:0:
64,192,75083,128,0,75483:0:0:0:0:
448,192,75083,1,0,0:0:0:0:
192,192,75483,128,0,75883:0:0:0:0:
320,192,75483,1,2,0:0:0:0:
448,192,75883,128,6,77883:0:0:0:0:
64,192,75883,1,0,0:0:0:0:
320,192,76283,1,0,0:0:0:0:
192,192,76683,1,0,0:0:0:0:
64,192,77083,1,2,0:0:0:0:
192,192,77483,1,2,0:0:0:0:
320,192,77883,1,0,0:0:0:0:
192,192,78283,1,0,0:0:0:0:
448,192,78683,1,2,0:0:0:0:
64,192,79083,1,6,0:0:0:0:
320,192,79083,1,0,0:0:0:0:
192,192,79483,1,0,0:0:0:0:
448,192,79883,1,0,0:0:0:0:
64,192,80283,1,2,0:0:0:0:
320,192,80683,1,2,0:0:0:0:
64,192,81083,1,0,0:0:0:0:
192,192,81483,1,0,0:0:0:0:
320,192,81883,1,2,0:0:0:0:
448,192,82283,1,6,0:0:0:0:
192,192,82283,1,0,0:0:0:0:
64,192,82683,1,0,0:0:0:0:
320,192,83083,1,0,0:0:0:0:
192,192,83483,1,2,0:0:0:0:
448,192,83883,128,0,85515:0:0:0:0:
64,192,83883,1,2,0:0:0:0:
320,192,84283,1,0,0:0:0:0:
192,192,84683,1,0,0:0:0:0:
64,192,85083,1,2,0:0:0:0:
64,192,85515,128,6,96739:0:0:0:0:
192,192,85515,1,0,0:0:0:0:
320,192,85915,1,0,0:0:0:0:
448,192,86315,1,0,0:0:0:0:
320,192,86715,1,0,0:0:0:0:
448,192,87115,1,0,0:0:0:0:
192,192,87555,1,0,0:0:0:0:
320,192,87978,1,0,0:0:0:0:
448,192,88458,1,0,0:0:0:0:
192,192,88733,1,0,0:0:0:0:
320,192,89085,1,0,0:0:0:0:
448,192,89249,1,0,0:0:0:0:
192,192,89601,1,0,0:0:0:0:
320,192,89864,1,0,0:0:0:0:
448,192,90045,1,0,0:0:0:0:
192,192,90292,1,0,0:0:0:0:
320,192,90523,1,0,0:0:0:0:
448,192,90757,1,0,0:0:0:0:
192,192,91004,1,0,0:0:0:0:
320,192,91307,1,0,0:0:0:0:
448,192,91984,1,0,0:0:0:0:
320,192,92089,1,0,0:0:0:0:
192,192,92211,1,0,0:0:0:0:
