osu file format v14

[General]
AudioFilename: audio.mp3
AudioLeadIn: 0
PreviewTime: 48690
Countdown: 0
SampleSet: Soft
StackLeniency: 0.7
Mode: 0
LetterboxInBreaks: 0
WidescreenStoryboard: 1

[Editor]
DistanceSpacing: 1.1
BeatDivisor: 8
GridSize: 8
TimelineZoom: 1

[Metadata]
Title:Hakanaki Yume
TitleUnicode:儚き夢
Artist:Hashimoto Yukari
ArtistUnicode:橋本由香利
Creator:Lyawi
Version:Easy
Source:まよチキ!
Tags:Mayo Chiki! OST Piano violin Feerum
BeatmapID:1040649
BeatmapSetID:488056

[Difficulty]
HPDrainRate:1
CircleSize:3
OverallDifficulty:1
ApproachRate:2
SliderMultiplier:1.5
SliderTickRate:2

[Events]
//Background and Video events
0,0,"BG.jpg",0,0
//Break Periods
//Storyboard Layer 0 (Background)
//Storyboard Layer 1 (Fail)
//Storyboard Layer 2 (Pass)
//Storyboard Layer 3 (Foreground)
//Storyboard Sound Samples

[TimingPoints]
683,800,4,2,1,40,1,0
683,-100,4,2,1,40,0,0
51883,-100,4,2,1,40,0,1
72683,800,4,2,1,40,1,0
72683,-100,4,2,1,40,0,0
85083,864.939670457986,4,2,1,40,1,0
85083,-92.5925925925926,4,2,1,40,0,0
85515,800,4,2,1,40,1,0
85515,-100,4,2,1,40,0,0
87133,845.070422535211,4,2,1,40,1,0
87133,-94.6666666666667,4,2,1,40,0,0
87978,960,4,2,1,40,1,0
87978,-83.3333333333333,4,2,1,40,0,0
88458,1100.91743119266,4,2,1,40,1,0
88458,-72.6666666666667,4,2,1,40,0,0
88733,1411.76470588235,4,2,1,40,1,0
88733,-56.6666666666668,4,2,1,40,0,0
89085,1318.68131868132,4,2,1,40,1,0
89085,-60.6666666666666,4,2,1,40,0,0
89249,705.882352941176,4,2,1,40,1,0
89249,-113.333333333333,4,2,1,40,0,0
89601,789.473684210526,4,2,1,40,1,0
89601,-101.333333333333,4,2,1,40,0,0
89864,1090.90909090909,4,2,1,40,1,0
89864,-73.3333333333334,4,2,1,40,0,0
90045,991.735537190083,4,2,1,40,1,0
90045,-80.6666666666666,4,2,1,40,0,0
90292,926.640926640927,4,2,1,40,1,0
90292,-86.3333333333333,4,2,1,40,0,0
90523,937.5,4,2,1,40,1,0
90523,-85.3333333333333,4,2,1,40,0,0
90757,991.735537190083,4,2,1,40,1,0
90757,-80.6666666666666,4,2,1,40,0,0
91004,1212.12121212121,4,2,1,40,1,0
91004,-66.0000000000001,4,2,1,40,0,0
91307,903.954802259887,4,2,1,40,1,0
91307,-88.5,4,2,1,40,0,0
91984,842.105263157895,4,2,1,40,1,0
91984,-95,4,2,1,40,0,0
92089,979.591836734694,4,2,1,40,1,0
92089,-81.6666666666666,4,2,1,40,0,0
92211,1132.07547169811,4,2,1,40,1,0
92211,-70.4225352112676,4,2,1,40,0,0

[Colours]
Combo1 : 146,184,226
Combo2 : 129,142,80
Combo3 : 204,79,92
Combo4 : 226,179,85
SliderTrackOverride : 192,170,183

[HitObjects]
141,294,683,6,0,P|103:249|123:164,1,150,2|2,0:0|0:0,0:0:0:0:
200,142,1883,1,2,0:0:0:0:
180,222,2283,2,0,L|332:228,1,150,2|0,0:0|0:0,0:0:0:0:
411,214,3483,1,2,0:0:0:0:
472,269,3883,6,0,P|479:307|471:343,2,75,2|2|2,0:0|0:0|0:0,0:0:0:0:
489,188,5083,1,2,0:0:0:0:
411,214,5483,2,0,P|367:196|330:107,1,150,2|0,0:0|0:0,0:0:0:0:
177,43,7083,6,0,L|102:37,1,75,2|0,0:0|0:0,0:0:0:0:
92,118,7883,2,0,P|128:134|163:135,1,75
244,152,8683,2,0,L|238:227,1,75,2|0,0:0|0:0,0:0:0:0:
296,285,9483,2,0,L|302:360,1,75
220,346,10283,6,0,P|163:322|119:246,1,150,2|0,0:0|0:0,0:0:0:0:
161,177,11483,1,0,0:0:0:0:
78,173,11883,2,0,L|60:18,1,150,2|2,0:0|0:0,0:0:0:0:
203,107,13483,6,0,P|262:134|341:113,1,150,2|2,0:0|0:0,0:0:0:0:
406,61,14683,1,2,0:0:0:0:
423,141,15083,2,0,L|436:291,1,150,2|0,0:0|0:0,0:0:0:0:
372,343,16283,1,2,0:0:0:0:
299,302,16683,6,0,P|257:288|226:290,1,75,2|2,0:0|0:0,0:0:0:0:
158,335,17483,1,2,0:0:0:0:
85,296,17883,1,2,0:0:0:0:
154,250,18283,2,0,L|160:101,1,150,2|0,0:0|0:0,0:0:0:0:
315,45,19883,6,0,P|339:98|425:125,1,150,2|0,0:0|0:0,0:0:0:0:
503,113,21083,1,2,0:0:0:0:
505,195,21483,2,0,P|510:234|499:268,2,75,2|0|0,0:0|0:0|0:0,0:0:0:0:
428,225,22683,1,2,0:0:0:0:
348,245,23083,6,0,L|196:249,1,150,2|0,0:0|0:0,0:0:0:0:
128,203,24283,1,2,0:0:0:0:
72,264,24683,2,0,P|35:269|-1:259,2,75,2|2|2,0:0|0:0|0:0,0:0:0:0:
141,308,25883,1,0,0:0:0:0:
213,268,26283,6,0,B|343:206|391:348|512:258,1,300,2|2,0:0|0:0,0:0:0:0:
511,184,28283,1,2,0:0:0:0:
428,180,28683,2,0,P|416:134|422:106,1,75,2|2,0:0|0:0,0:0:0:0:
454,32,29483,6,0,P|300:109|190:55,1,300,2|2,0:0|0:0,0:0:0:0:
134,3,31483,1,2,0:0:0:0:
109,81,31883,2,0,L|102:156,1,75,2|2,0:0|0:0,0:0:0:0:
145,226,32683,6,0,P|152:265|144:298,2,75,2|2|2,0:0|0:0|0:0,0:0:0:0:
186,154,33883,1,2,0:0:0:0:
267,166,34283,2,0,L|419:184,1,150,2|2,0:0|0:0,0:0:0:0:
466,340,35883,6,0,P|428:306|332:312,2,150,2|2|2,0:0|0:0|0:0,0:0:0:0:
150,243,39083,6,0,L|144:168,1,75,2|0,0:0|0:0,0:0:0:0:
224,151,39883,2,0,L|230:226,1,75,2|2,0:0|0:0,0:0:0:0:
254,304,40683,2,0,P|279:323|321:332,1,75,2|2,0:0|0:0,0:0:0:0:
398,303,41483,1,2,0:0:0:0:
453,242,41883,1,2,0:0:0:0:
466,161,42283,6,0,P|390:195|330:174,1,150,2|2,0:0|0:0,0:0:0:0:
273,113,43483,1,0,0:0:0:0:
197,79,43883,2,0,P|156:71|122:80,2,75,2|2|2,0:0|0:0|0:0,0:0:0:0:
161,153,45083,1,0,0:0:0:0:
78,149,45483,6,0,L|88:298,1,150,2|0,0:0|0:0,0:0:0:0:
148,354,46683,1,2,0:0:0:0:
227,332,47083,2,0,L|305:343,1,75,2|2,0:0|0:0,0:0:0:0:
375,307,47883,2,0,L|453:296,1,75,2|2,0:0|0:0,0:0:0:0:
500,231,48683,6,0,P|513:195|509:157,2,75,2|2|2,0:0|0:0|0:0,0:0:0:0:
431,185,49883,1,2,0:0:0:0:
355,152,50283,2,0,L|281:148,1,75,2|0,0:0|0:0,0:0:0:0:
205,184,51083,1,2,0:0:0:0:
131,147,51483,1,0,0:0:0:0:
93,73,51883,6,0,P|153:99|233:77,1,150,4|2,0:0|0:0,0:0:0:0:
299,30,53083,1,2,0:0:0:0:
367,76,53483,2,0,L|373:226,1,150,2|0,0:0|0:0,0:0:0:0:
418,294,54683,1,2,0:0:0:0:
354,346,55083,6,0,P|323:358|282:355,2,75,2|2|2,0:0|0:0|0:0,0:0:0:0:
308,276,56283,1,2,0:0:0:0:
227,294,56683,2,0,L|77:277,1,150,2|2,0:0|0:0,0:0:0:0:
156,131,58283,6,0,P|121:115|85:113,2,75,2|0|0,0:0|0:0|0:0,0:0:0:0:
217,186,59483,1,0,0:0:0:0:
297,166,59883,2,0,L|371:161,2,75,2|0|0,0:0|0:0|0:0,0:0:0:0:
274,245,61083,1,2,0:0:0:0:
346,285,61483,6,0,P|432:272|498:160,1,225,2|0,0:0|0:0,0:0:0:0:
434,106,63083,2,0,L|285:93,1,150,2|2,0:0|0:0,0:0:0:0:
176,217,64683,6,0,P|120:240|44:203,1,150,4|2,0:0|0:0,0:0:0:0:
42,120,65883,1,2,0:0:0:0:
120,145,66283,2,0,L|264:185,1,150,2|0,0:0|0:0,0:0:0:0:
347,175,67483,1,2,0:0:0:0:
424,147,67883,6,0,P|435:112|432:73,2,75,2|2|2,0:0|0:0|0:0,0:0:0:0:
412,228,69083,1,2,0:0:0:0:
387,306,69483,2,0,P|272:318|339:99,1,450,2|0,0:0|0:0,0:0:0:0:
176,47,72683,6,0,P|136:51|100:43,1,75,2|0,0:0|0:0,0:0:0:0:
22,20,73483,1,0,0:0:0:0:
17,102,73883,1,2,0:0:0:0:
59,172,74283,2,0,L|46:246,1,75,2|0,0:0|0:0,0:0:0:0:
95,312,75083,1,0,0:0:0:0:
173,285,75483,1,2,0:0:0:0:
219,353,75883,6,0,P|257:362|294:353,2,75,2|0|0,0:0|0:0|0:0,0:0:0:0:
256,279,77083,1,2,0:0:0:0:
313,219,77483,2,0,L|321:143,2,75,2|0|0,0:0|0:0|0:0,0:0:0:0:
347,294,78683,1,2,0:0:0:0:
420,256,79083,6,0,P|439:217|426:115,1,150,2|0,0:0|0:0,0:0:0:0:
356,70,80283,1,2,0:0:0:0:
273,78,80683,2,0,L|198:89,1,75,2|0,0:0|0:0,0:0:0:0:
137,144,81483,2,0,L|62:133,1,75,2|2,0:0|0:0,0:0:0:0:
0,78,82283,6,0,P|34:133|15:217,1,150,2|2,0:0|0:0,0:0:0:0:
1,294,83483,1,2,0:0:0:0:
59,352,83883,2,0,P|93:364|133:361,2,75,2|0|2,0:0|0:0|0:0,0:0:0:0:
1,294,85083,1,2,0:0:0:0:
256,192,85515,12,0,92211,0:0:0:0:
