osu file format v14

[General]
AudioFilename: audio.mp3
AudioLeadIn: 0
PreviewTime: 48690
Countdown: 0
SampleSet: Soft
StackLeniency: 0.7
Mode: 0
LetterboxInBreaks: 0
WidescreenStoryboard: 1

[Editor]
DistanceSpacing: 1.2
BeatDivisor: 8
GridSize: 8
TimelineZoom: 1

[Metadata]
Title:Hakanaki Yume
TitleUnicode:儚き夢
Artist:Hashimoto Yukari
ArtistUnicode:橋本由香利
Creator:Lyawi
Version:Normal
Source:まよチキ!
Tags:Mayo Chiki! OST Piano violin Feerum
BeatmapID:1040629
BeatmapSetID:488056

[Difficulty]
HPDrainRate:2
CircleSize:4.3
OverallDifficulty:2
ApproachRate:3
SliderMultiplier:1.5
SliderTickRate:2

[Events]
//Background and Video events
0,0,"BG.jpg",0,0
//Break Periods
//Storyboard Layer 0 (Background)
//Storyboard Layer 1 (Fail)
//Storyboard Layer 2 (Pass)
//Storyboard Layer 3 (Foreground)
//Storyboard Sound Samples

[TimingPoints]
683,800,4,2,1,40,1,0
683,-100,4,2,1,40,0,0
51883,-100,4,2,1,40,0,1
72683,800,4,2,1,40,1,0
72683,-100,4,2,1,40,0,0
85083,864.939670457986,4,2,1,40,1,0
85083,-92.5925925925926,4,2,1,40,0,0
85515,800,4,2,1,40,1,0
85515,-100,4,2,1,40,0,0
87133,845.070422535211,4,2,1,40,1,0
87133,-94.6666666666667,4,2,1,40,0,0
87978,960,4,2,1,40,1,0
87978,-83.3333333333333,4,2,1,40,0,0
88458,1100.91743119266,4,2,1,40,1,0
88458,-72.6666666666667,4,2,1,40,0,0
88733,1411.76470588235,4,2,1,40,1,0
88733,-56.6666666666668,4,2,1,40,0,0
89085,1318.68131868132,4,2,1,40,1,0
89085,-60.6666666666666,4,2,1,40,0,0
89249,705.882352941176,4,2,1,40,1,0
89249,-113.333333333333,4,2,1,40,0,0
89601,789.473684210526,4,2,1,40,1,0
89601,-101.333333333333,4,2,1,40,0,0
89864,1090.90909090909,4,2,1,40,1,0
89864,-73.3333333333334,4,2,1,40,0,0
90045,991.735537190083,4,2,1,40,1,0
90045,-80.6666666666666,4,2,1,40,0,0
90292,926.640926640927,4,2,1,40,1,0
90292,-86.3333333333333,4,2,1,40,0,0
90523,937.5,4,2,1,40,1,0
90523,-85.3333333333333,4,2,1,40,0,0
90757,991.735537190083,4,2,1,40,1,0
90757,-80.6666666666666,4,2,1,40,0,0
91004,1212.12121212121,4,2,1,40,1,0
91004,-66.0000000000001,4,2,1,40,0,0
91307,903.954802259887,4,2,1,40,1,0
91307,-88.5,4,2,1,40,0,0
91984,842.105263157895,4,2,1,40,1,0
91984,-95,4,2,1,40,0,0
92089,979.591836734694,4,2,1,40,1,0
92089,-81.6666666666666,4,2,1,40,0,0
92211,1132.07547169811,4,2,1,40,1,0
92211,-70.4225352112676,4,2,1,40,0,0

[Colours]
Combo1 : 146,184,226
Combo2 : 129,142,80
Combo3 : 204,79,92
Combo4 : 226,179,85
SliderTrackOverride : 192,170,183

[HitObjects]
256,192,683,6,0,P|188:158|118:172,1,150,2|2,0:0|0:0,0:0:0:0:
87,256,1883,1,2,0:0:0:0:
174,277,2283,2,0,L|330:290,1,150,2|0,0:0|0:0,0:0:0:0:
401,245,3483,1,2,0:0:0:0:
460,177,3883,6,0,P|472:140|468:104,2,75,2|2|2,0:0|0:0|0:0,0:0:0:0:
382,131,5083,1,2,0:0:0:0:
308,78,5483,2,0,L|159:68,1,150,2|0,0:0|0:0,0:0:0:0:
36,200,7083,6,0,L|27:275,2,75,2|0|0,0:0|0:0|0:0,0:0:0:0:
95,132,8283,1,0,0:0:0:0:
162,191,8683,2,0,P|199:203|235:199,2,75,2|0|0,0:0|0:0|0:0,0:0:0:0:
206,112,9883,1,0,0:0:0:0:
285,69,10283,6,0,P|331:71|357:84,1,75,2|0,0:0|0:0,0:0:0:0:
409,154,11083,1,0,0:0:0:0:
406,243,11483,1,0,0:0:0:0:
328,289,11883,2,0,P|299:235|307:149,1,150,2|2,0:0|0:0,0:0:0:0:
315,136,13483,6,0,L|166:130,1,150,2|2,0:0|0:0,0:0:0:0:
96,187,14683,1,2,0:0:0:0:
38,256,15083,2,0,P|79:240|172:280,1,150,2|0,0:0|0:0,0:0:0:0:
231,347,16283,1,2,0:0:0:0:
311,308,16683,6,0,L|323:234,2,75,2|2|2,0:0|0:0|0:0,0:0:0:0:
393,343,17883,1,2,0:0:0:0:
457,280,18283,2,0,P|466:229|433:138,1,150,2|0,0:0|0:0,0:0:0:0:
422,128,19883,6,0,L|348:137,1,75,2|0,0:0|0:0,0:0:0:0:
263,103,20683,2,0,L|189:94,1,75,0|2,0:0|0:0,0:0:0:0:
98,101,21483,1,2,0:0:0:0:
55,177,21883,1,0,0:0:0:0:
73,263,22283,1,0,0:0:0:0:
144,315,22683,1,2,0:0:0:0:
232,307,23083,6,0,L|306:317,1,75,2|0,0:0|0:0,0:0:0:0:
395,332,23883,1,0,0:0:0:0:
459,270,24283,1,2,0:0:0:0:
496,188,24683,2,0,P|503:151|495:113,2,75,2|2|2,0:0|0:0|0:0,0:0:0:0:
413,152,25883,1,2,0:0:0:0:
323,165,26283,6,0,P|283:163|251:146,1,75
177,98,27083,1,0,0:0:0:0:
91,124,27483,1,0,0:0:0:0:
7,157,27883,2,0,L|0:231,1,75,2|0,0:0|0:0,0:0:0:0:
74,281,28683,2,0,L|81:355,1,75,2|2,0:0|0:0,0:0:0:0:
171,356,29483,6,0,P|190:324|197:288,1,75,2|0,0:0|0:0,0:0:0:0:
191,197,30283,1,0,0:0:0:0:
115,149,30683,1,0,0:0:0:0:
188,97,31083,2,0,L|263:94,1,75,2|2,0:0|0:0,0:0:0:0:
327,157,31883,2,0,L|402:160,1,75,2|2,0:0|0:0,0:0:0:0:
468,221,32683,6,0,P|469:263|458:292,2,75,2|2|2,0:0|0:0|0:0,0:0:0:0:
401,159,33883,1,2,0:0:0:0:
370,243,34283,2,0,L|221:235,1,150,2|2,0:0|0:0,0:0:0:0:
205,233,35883,6,0,P|185:178|220:96,2,150,2|2|2,0:0|0:0|0:0,0:0:0:0:
205,233,39083,6,0,L|128:245,1,75,2|0,0:0|0:0,0:0:0:0:
42,226,39883,1,2,0:0:0:0:
2,145,40283,1,2,0:0:0:0:
80,100,40683,2,0,L|91:25,1,75,2|2,0:0|0:0,0:0:0:0:
178,3,41483,2,0,L|189:78,1,75,2|2,0:0|0:0,0:0:0:0:
221,161,42283,5,2,0:0:0:0:
299,199,42683,1,0,0:0:0:0:
379,165,43083,1,2,0:0:0:0:
405,82,43483,1,2,0:0:0:0:
466,148,43883,2,0,L|474:223,1,75,2|0,0:0|0:0,0:0:0:0:
390,256,44683,2,0,L|382:331,1,75,2|0,0:0|0:0,0:0:0:0:
299,367,45483,5,2,0:0:0:0:
264,283,45883,1,0,0:0:0:0:
183,241,46283,2,0,L|110:254,2,75,0|2|2,0:0|0:0|0:0,0:0:0:0:
264,283,47483,1,2,0:0:0:0:
336,229,47883,2,0,P|346:198|343:157,1,75,2|0,0:0|0:0,0:0:0:0:
309,72,48683,5,2,0:0:0:0:
247,9,49083,1,2,0:0:0:0:
159,10,49483,1,2,0:0:0:0:
99,74,49883,1,2,0:0:0:0:
86,163,50283,2,0,L|78:240,1,75,2|0,0:0|0:0,0:0:0:0:
150,292,51083,2,0,L|158:368,1,75,2|0,0:0|0:0,0:0:0:0:
245,341,51883,6,0,L|242:191,1,150,4|2,0:0|0:0,0:0:0:0:
184,122,53083,1,2,0:0:0:0:
251,62,53483,2,0,P|290:45|385:86,1,150,2|0,0:0|0:0,0:0:0:0:
433,158,54683,1,2,0:0:0:0:
396,240,55083,6,0,P|389:282|398:316,2,75,2|2|2,0:0|0:0|0:0,0:0:0:0:
344,166,56283,1,2,0:0:0:0:
255,148,56683,2,0,L|106:159,1,150,2|2,0:0|0:0,0:0:0:0:
90,160,58283,6,0,L|81:234,1,75,2|0,0:0|0:0,0:0:0:0:
120,315,59083,1,0,0:0:0:0:
200,275,59483,1,0,0:0:0:0:
268,333,59883,2,0,L|342:329,1,75,2|0,0:0|0:0,0:0:0:0:
432,333,60683,1,0,0:0:0:0:
502,276,61083,1,2,0:0:0:0:
494,186,61483,6,0,P|445:157|356:167,1,150,2|0,0:0|0:0,0:0:0:0:
324,251,62683,1,0,0:0:0:0:
261,186,63083,2,0,P|206:168|154:96,1,150,2|2,0:0|0:0,0:0:0:0:
151,80,64683,6,0,L|156:233,1,150,4|2,0:0|0:0,0:0:0:0:
163,319,65883,1,2,0:0:0:0:
244,357,66283,2,0,P|316:358|365:301,1,150,2|0,0:0|0:0,0:0:0:0:
386,215,67483,1,2,0:0:0:0:
307,171,67883,6,0,L|233:166,2,75,2|2|2,0:0|0:0|0:0,0:0:0:0:
379,116,69083,1,2,0:0:0:0:
451,62,69483,2,0,B|252:178|207:-70|1:51,1,450,2|0,0:0|0:0,0:0:0:0:
111,195,72683,6,0,L|103:272,2,75,2|0|0,0:0|0:0|0:0,0:0:0:0:
138,105,73883,1,2,0:0:0:0:
192,33,74283,2,0,P|229:39|264:61,1,75,2|0,0:0|0:0,0:0:0:0:
293,143,75083,1,0,0:0:0:0:
382,138,75483,1,2,0:0:0:0:
434,211,75883,6,0,L|440:285,1,75,2|0,0:0|0:0,0:0:0:0:
374,347,76683,1,0,0:0:0:0:
306,287,77083,1,2,0:0:0:0:
216,276,77483,2,0,P|179:289|142:288,2,75,2|0|0,0:0|0:0|0:0,0:0:0:0:
249,192,78683,1,2,0:0:0:0:
338,201,79083,6,0,L|414:209,1,75,2|0,0:0|0:0,0:0:0:0:
498,182,79883,1,0,0:0:0:0:
491,87,80283,1,2,0:0:0:0:
409,48,80683,2,0,P|400:87|406:120,1,75,2|0,0:0|0:0,0:0:0:0:
379,206,81483,2,0,L|303:210,1,75,2|2,0:0|0:0,0:0:0:0:
228,258,82283,6,0,P|273:205|269:129,1,150,2|2,0:0|0:0,0:0:0:0:
231,46,83483,1,2,0:0:0:0:
150,85,83883,2,0,L|76:80,1,75,2|0,0:0|0:0,0:0:0:0:
107,165,84683,2,0,L|181:170,1,75,2|2,0:0|0:0,0:0:0:0:
256,192,85515,12,0,92211,0:0:0:0:
