osu file format v14

[General]
AudioFilename: audio.mp3
AudioLeadIn: 0
PreviewTime: 64767
Countdown: 0
SampleSet: Soft
StackLeniency: 0.7
Mode: 0
LetterboxInBreaks: 0
WidescreenStoryboard: 0

[Editor]
DistanceSpacing: 1.7
BeatDivisor: 4
GridSize: 4
TimelineZoom: 1.5

[Metadata]
Title:Flower
TitleUnicode:Flower
Artist:Hashimoto Yukari
ArtistUnicode:橋本由香利
Creator:Garden
Version:Reliance
Source:まよチキ!
Tags:Mayo Chiki! ost bgm
BeatmapID:1031554
BeatmapSetID:483487

[Difficulty]
HPDrainRate:5
CircleSize:4
OverallDifficulty:5
ApproachRate:7
SliderMultiplier:1.6
SliderTickRate:1

[Events]
//Background and Video events
0,0,"bg.jpg",0,0
//Break Periods
//Storyboard Layer 0 (Background)
//Storyboard Layer 1 (Fail)
//Storyboard Layer 2 (Pass)
//Storyboard Layer 3 (Foreground)
//Storyboard Sound Samples

[TimingPoints]
-977,638.297872340426,4,2,1,30,1,0
8437,-100,4,2,1,5,0,0
8597,-100,4,2,1,30,0,0
16097,-100,4,2,1,5,0,0
16257,-100,4,2,1,30,0,0
19448,-133.333333333333,4,2,1,40,0,0
20725,-100,4,2,1,40,0,0
65405,-83.3333333333333,4,2,1,50,0,1
76895,-100,4,2,1,50,0,1
77533,-83.3333333333333,4,2,1,50,0,1
78810,-83.3333333333333,4,2,1,35,0,1
79129,-83.3333333333333,4,2,1,50,0,1
85831,-100,4,2,1,50,0,1
86469,681.818181818182,4,2,1,50,1,1
87832,666.666666666667,4,2,1,50,1,1
88498,-100,4,2,1,40,0,0
94498,-100,4,2,1,5,0,0

[Colours]
Combo1 : 134,255,255
Combo2 : 255,159,255
Combo3 : 194,194,194
Combo4 : 255,170,130

[HitObjects]
70,302,1257,6,0,P|70:322|74:341,1,40
99,221,1576,6,0,P|61:212|21:207,1,80,2|0,0:0|0:0,0:0:0:0:
204,203,2214,1,0,0:0:0:0:
134,121,2533,1,0,0:0:0:0:
169,298,2852,2,0,B|246:324|254:263|333:297,1,160,2|0,0:0|0:0,0:0:0:0:
204,203,3810,2,0,P|199:174|199:152,1,40
279,63,4129,6,0,P|235:75|191:84,1,80,2|0,0:0|0:0,0:0:0:0:
50,80,4767,1,0,0:0:0:0:
198,163,5086,1,0,0:0:0:0:
65,157,5405,2,0,P|52:125|51:71,1,80,2|0,0:0|0:0,0:0:0:0:
198,163,6044,2,0,P|193:206|176:253,1,80
109,341,6682,5,2,0:0:0:0:
249,297,7001,1,0,0:0:0:0:
98,208,7320,2,0,P|59:197|8:197,1,80
198,163,7959,2,0,B|208:126|208:126|208:43,1,120,2|0,0:0|0:0,0:0:0:0:
208,12,8597,2,0,P|251:25|302:30,1,80,2|0,0:0|0:0,0:0:0:0:
393,1,9235,5,2,0:0:0:0:
279,141,9554,1,0,0:0:0:0:
384,181,9874,1,0,0:0:0:0:
454,94,10193,1,0,0:0:0:0:
285,29,10512,2,0,B|211:5|196:65|106:24,1,160,2|0,0:0|0:0,0:0:0:0:
237,158,11469,2,0,P|246:138|250:121,1,40
138,153,11788,6,0,P|139:199|146:241,1,80,2|0,0:0|0:0,0:0:0:0:
307,246,12427,1,0,0:0:0:0:
237,158,12746,1,0,0:0:0:0:
190,320,13065,2,0,B|136:345|86:313|86:313|55:317|38:333,1,160,2|0,0:0|0:0,0:0:0:0:
144,232,14023,2,0,P|147:210|147:187,1,40
69,92,14342,6,0,P|106:104|145:113,1,80,2|0,0:0|0:0,0:0:0:0:
34,13,14980,1,0,0:0:0:0:
8,156,15299,1,0,0:0:0:0:
157,35,15618,2,0,P|221:19|283:27,1,120,2|0,0:0|0:0,0:0:0:0:
300,44,16257,2,0,P|286:84|278:132,1,80,2|0,0:0|0:0,0:0:0:0:
268,263,16895,5,2,0:0:0:0:
268,263,17214,2,0,P|315:257|356:257,2,80
418,327,18171,2,0,P|446:254|415:182,1,160,2|0,0:0|0:0,0:0:0:0:
279,120,19129,1,0,0:0:0:0:
168,248,19448,6,0,B|220:258|220:258|352:256,1,180.000006866455,2|4,0:0|0:3,0:0:0:0:
476,121,20725,2,0,P|499:149|513:193,1,80,4|0,0:3|0:0,0:0:0:0:
454,279,21363,1,8,0:0:0:0:
328,137,21682,1,0,0:0:0:0:
476,121,22001,6,0,B|459:170|459:170|454:278,1,160,2|8,0:0|0:0,0:0:0:0:
393,368,22959,1,4,0:3:0:0:
261,230,23278,1,8,0:3:0:0:
210,336,23597,2,0,P|250:347|289:344,1,80,2|0,0:1|3:0,0:0:0:0:
261,230,24235,1,0,0:0:0:0:
93,312,24554,5,4,0:0:0:0:
139,140,24874,2,0,P|147:187|143:226,1,80,0|8,0:0|0:0,0:0:0:0:
18,186,25512,1,0,0:0:0:0:
84,66,25831,2,0,P|157:50|221:99,1,160,2|8,0:1|0:0,0:0:0:0:
292,201,26788,1,0,0:0:0:0:
286,25,27108,5,2,0:3:0:0:
139,140,27427,1,0,0:0:0:0:
354,107,27746,2,0,P|400:109|451:126,1,80,8|0,0:0|0:0,0:0:0:0:
299,280,28384,2,0,B|290:242|290:242|293:188,1,80,2|0,0:1|0:0,0:0:0:0:
476,213,29023,1,8,0:0:0:0:
406,294,29342,1,0,0:0:0:0:
354,107,29661,5,4,0:3:0:0:
250,260,29980,2,0,P|282:240|326:227,1,80,0|8,0:0|0:0,0:0:0:0:
406,294,30618,1,0,0:0:0:0:
194,347,30937,2,0,B|166:318|166:318|144:261,1,80,2|0,0:1|0:0,0:0:0:0:
266,166,31576,1,8,0:0:0:0:
318,320,31895,1,0,0:0:0:0:
449,221,32214,6,0,P|406:223|363:234,1,80,2|0,0:3|0:0,0:0:0:0:
351,51,32852,1,8,0:0:0:0:
453,117,33171,1,0,0:0:0:0:
261,168,33491,2,0,P|219:173|175:174,1,80,2|0,0:1|0:0,0:0:0:0:
371,232,34129,2,0,P|381:266|388:311,1,80,8|0,0:0|0:0,0:0:0:0:
263,269,34767,5,4,0:3:0:0:
350,136,35086,2,0,P|347:99|331:55,1,80,0|8,0:0|0:0,0:0:0:0:
178,137,35725,1,0,0:0:0:0:
263,269,36044,2,0,P|268:232|264:178,1,80,2|0,0:1|0:0,0:0:0:0:
332,58,36682,1,8,0:0:0:0:
178,137,37001,1,0,0:0:0:0:
368,223,37320,6,0,B|408:230|408:230|461:225,1,80,2|0,0:3|0:0,0:0:0:0:
267,189,37959,1,8,0:0:0:0:
402,125,38278,1,0,0:0:0:0:
272,31,38597,1,2,0:1:0:0:
149,140,38916,2,0,P|140:182|145:232,1,80,0|8,0:0|0:0,0:0:0:0:
267,189,39554,1,0,0:0:0:0:
181,32,39874,6,0,L|87:38,1,80,6|0,0:3|0:0,0:0:0:0:
33,120,40512,1,8,0:0:0:0:
244,116,40831,1,0,0:0:0:0:
142,218,41150,2,0,B|132:178|132:178|134:129,1,80,2|0,0:1|0:0,0:0:0:0:
246,236,41788,1,8,0:0:0:0:
318,53,42108,1,0,0:0:0:0:
372,168,42427,6,0,P|411:162|453:160,2,80,2|0|8,0:3|0:0|0:0,0:0:0:0:
348,274,43384,2,0,P|367:310|379:355,1,80,0|2,0:0|0:1,0:0:0:0:
246,236,44023,1,8,0:0:0:0:
372,168,44342,2,0,P|389:130|394:75,1,80,8|0,0:0|0:0,0:0:0:0:
348,274,44980,6,0,P|429:252|510:252,1,160,4|8,0:0|0:0,0:0:0:0:
398,351,45937,1,0,0:0:0:0:
278,200,46257,2,0,B|254:243|254:243|240:360,1,160,2|8,0:1|0:0,0:0:0:0:
180,170,47214,1,0,0:0:0:0:
348,274,47533,5,4,0:3:0:0:
125,302,47852,2,0,P|73:297|35:283,1,80,0|8,0:0|0:0,0:0:0:0:
230,270,48491,1,4,0:3:0:0:
180,170,48810,2,0,P|171:126|170:69,1,80,4|0,0:3|0:0,0:0:0:0:
54,168,49448,1,8,0:0:0:0:
115,20,49767,1,0,0:0:0:0:
259,92,50086,6,0,P|301:92|344:80,1,80,2|0,0:3|0:0,0:0:0:0:
480,38,50725,2,0,L|475:126,1,80,8|0,0:0|0:0,0:0:0:0:
380,259,51363,2,0,L|386:167,1,80,2|0,0:1|0:0,0:0:0:0:
472,313,52001,1,8,0:0:0:0:
335,351,52320,2,0,P|308:345|283:335,1,40
222,232,52640,6,0,P|264:226|307:225,1,80,2|0,0:3|0:0,0:0:0:0:
158,317,53278,2,0,P|110:315|70:310,1,80,8|0,0:0|0:0,0:0:0:0:
222,232,53916,1,2,0:1:0:0:
94,101,54235,1,8,0:0:0:0:
94,101,54554,1,8,0:0:0:0:
57,210,54874,1,0,0:0:0:0:
220,117,55193,6,0,B|254:105|254:105|283:111|283:111|377:106,1,160,4|8,0:0|0:0,0:0:0:0:
493,184,56150,1,0,0:0:0:0:
386,284,56469,2,0,P|386:247|394:197,1,80,2|0,0:1|0:0,0:0:0:0:
460,17,57108,2,0,P|472:56|478:109,1,80,8|0,0:0|0:0,0:0:0:0:
299,35,57746,6,0,P|206:36|160:103,1,160,2|8,0:3|0:0,0:0:0:0:
253,220,58703,1,0,0:0:0:0:
342,129,59023,2,0,P|388:123|434:122,1,80,2|0,0:1|0:0,0:0:0:0:
457,282,59661,1,8,0:0:0:0:
347,221,59980,1,0,0:0:0:0:
284,362,60299,6,0,P|244:357|197:355,1,80,2|0,0:3|0:0,0:0:0:0:
382,318,60937,1,8,0:0:0:0:
249,239,61257,1,0,0:0:0:0:
413,164,61576,2,0,B|397:203|397:203|410:262|379:323,1,160,2|8,0:1|0:0,0:0:0:0:
494,218,62533,1,0,0:0:0:0:
313,153,62852,6,0,B|272:142|272:142|234:141,1,80,4|0,0:3|0:0,0:0:0:0:
453,133,63491,2,0,P|457:94|449:36,1,80,8|0,0:0|0:0,0:0:0:0:
389,227,64129,1,4,0:3:0:0:
234,141,64448,1,8,0:3:0:0:
347,2,64767,6,0,P|350:23|351:41,1,40,8|0,0:0|0:0,0:0:0:0:
400,123,65086,2,0,L|426:111,2,26.6666666666667,4|0|0,0:3|0:0|0:0,0:0:0:0:
327,162,65405,6,0,P|278:147|219:140,1,95.9999970703126,4|0,0:0|0:0,0:0:0:0:
105,179,66044,1,8,0:0:0:0:
173,48,66363,1,0,0:0:0:0:
209,271,66682,2,0,B|163:254|113:276|113:276|69:261|17:284,1,191.999994140625,2|8,0:1|0:0,0:0:0:0:
168,369,67640,1,0,0:0:0:0:
245,344,67799,1,0,0:0:0:0:
209,271,67959,6,0,L|216:171,1,95.9999970703126,2|0,0:3|0:0,0:0:0:0:
228,41,68597,1,8,0:0:0:0:
118,100,68916,1,0,0:0:0:0:
333,115,69235,2,0,B|367:117|395:107|395:107|427:118,1,95.9999970703126,2|0,0:1|0:0,0:0:0:0:
457,312,69874,1,8,0:0:0:0:
508,178,70193,1,0,0:0:0:0:
307,262,70512,5,4,0:3:0:0:
427,118,70831,2,0,P|435:76|429:18,1,95.9999970703126,0|8,0:0|0:0,0:0:0:0:
306,69,71469,1,0,0:0:0:0:
483,201,71788,2,0,B|448:220|448:220|414:223|414:223|363:271|288:259,1,191.999994140625,2|8,0:1|0:0,0:0:0:0:
457,312,72746,1,0,0:0:0:0:
329,160,73065,6,0,P|312:122|306:62,1,95.9999970703126,2|0,0:3|0:0,0:0:0:0:
199,220,73703,2,0,B|149:219|149:219|101:232,1,95.9999970703126,8|0,0:0|0:0,0:0:0:0:
307,262,74342,1,4,0:3:0:0:
187,125,74661,1,8,0:0:0:0:
160,322,74980,1,8,0:0:0:0:
313,181,75299,1,0,0:0:0:0:
307,262,75459,1,0,0:0:0:0:
370,313,75618,6,0,P|426:315|477:302,1,95.9999970703126,4|0,0:0|0:0,0:0:0:0:
417,112,76257,2,0,P|405:158|398:206,1,95.9999970703126
283,309,76895,2,0,B|227:323|164:300|164:300|185:321|193:344,1,160,4|2,0:0|0:0,0:0:0:0:
439,362,77852,1,0,0:0:0:0:
362,336,78012,1,0,0:0:0:0:
408,269,78171,6,0,B|411:206|411:206|402:166,1,95.9999970703126,4|0,0:0|0:0,0:0:0:0:
213,220,78810,2,0,P|264:231|314:225,1,95.9999970703126,0|0,3:0|0:0,0:0:0:0:
115,162,79448,2,0,B|102:215|102:215|118:359,1,191.999994140625,2|8,0:1|0:0,0:0:0:0:
213,220,80405,1,0,0:0:0:0:
3,208,80725,5,4,0:3:0:0:
96,68,81044,2,0,B|112:115|112:115|115:180,1,95.9999970703126,0|8,0:0|0:0,0:0:0:0:
113,354,81682,1,0,0:0:0:0:
282,240,82001,2,0,B|239:229|195:247|195:247|170:242|170:242|131:263|75:255,1,191.999994140625,2|8,0:1|0:0,0:0:0:0:
188,148,82959,1,0,0:0:0:0:
250,332,83278,6,0,P|295:339|345:341,1,95.9999970703126,2|0,0:3|0:0,0:0:0:0:
479,212,83916,2,0,P|503:257|508:318,1,95.9999970703126,8|0,0:0|0:0,0:0:0:0:
296,227,84554,1,0,0:0:0:0:
401,139,84874,1,0,0:0:0:0:
345,342,85193,2,0,P|297:335|249:333,1,95.9999970703126,8|0,0:0|0:0,0:0:0:0:
120,215,85831,6,0,B|127:256|127:256|119:332|119:332|126:373,1,160,4|0,0:0|0:0,0:0:0:0:
260,255,86809,1,0,0:0:0:0:
148,119,87150,2,0,L|58:106,1,80,4|0,0:3|0:0,0:0:0:0:
294,58,87832,2,0,P|275:96|265:143,1,80
260,255,88498,5,4,0:0:0:0:
256,192,88665,12,0,94498,0:0:0:0:
