osu file format v14

[General]
AudioFilename: audio.mp3
AudioLeadIn: 0
PreviewTime: 64767
Countdown: 0
SampleSet: Soft
StackLeniency: 0.7
Mode: 0
LetterboxInBreaks: 0
WidescreenStoryboard: 0

[Editor]
DistanceSpacing: 1.2
BeatDivisor: 4
GridSize: 4
TimelineZoom: 1.5

[Metadata]
Title:Flower
TitleUnicode:Flower
Artist:Hashimoto Yukari
ArtistUnicode:橋本由香利
Creator:Garden
Version:Normal
Source:まよチキ!
Tags:Mayo Chiki! ost bgm
BeatmapID:1031553
BeatmapSetID:483487

[Difficulty]
HPDrainRate:3
CircleSize:3.3
OverallDifficulty:3
ApproachRate:4
SliderMultiplier:1.4
SliderTickRate:1

[Events]
//Background and Video events
0,0,"bg.jpg",0,0
//Break Periods
//Storyboard Layer 0 (Background)
//Storyboard Layer 1 (Fail)
//Storyboard Layer 2 (Pass)
//Storyboard Layer 3 (Foreground)
//Storyboard Sound Samples

[TimingPoints]
-977,638.297872340426,4,2,1,30,1,0
19448,-100,4,2,1,40,0,0
65405,-90.9090909090909,4,2,1,50,0,1
75618,-100,4,2,1,50,0,1
77533,-90.9090909090909,4,2,1,50,0,1
78810,-90.9090909090909,4,2,1,35,0,1
79129,-90.9090909090909,4,2,1,50,0,1
86469,681.818181818182,4,2,1,50,1,1
87832,666.666666666667,4,2,1,50,1,1
88498,-100,4,2,1,40,0,0
94498,-100,4,2,1,5,0,0

[Colours]
Combo1 : 134,255,255
Combo2 : 255,159,255
Combo3 : 194,194,194
Combo4 : 255,170,130

[HitObjects]
369,83,1257,5,0,0:0:0:0:
297,126,1576,2,0,P|256:136|207:129,1,70,2|0,0:0|0:0,0:0:0:0:
154,97,2214,2,0,L|169:26,1,70,0|0,0:0|0:0,0:0:0:0:
251,43,2852,2,0,L|268:202,1,140,2|0,0:0|0:0,0:0:0:0:
275,265,3810,1,0,0:0:0:0:
356,244,4129,6,0,P|397:239|438:244,1,70,2|0,0:0|0:0,0:0:0:0:
480,177,4767,1,0,0:0:0:0:
433,106,5086,1,0,0:0:0:0:
352,129,5405,2,0,B|302:139|302:139|193:140,1,140,2|0,0:0|0:0,0:0:0:0:
69,226,6682,6,0,P|144:235|193:303,1,140,2|0,0:0|0:0,0:0:0:0:
223,355,7640,1,0,0:0:0:0:
303,330,7959,2,0,B|359:311|405:326|405:326|433:324|452:310,1,140,2|2,0:0|0:0,0:0:0:0:
502,161,9235,6,0,P|492:125|459:78,1,70,2|0,0:0|0:0,0:0:0:0:
392,96,9874,2,0,P|374:126|365:160,1,70,0|0,0:0|0:0,0:0:0:0:
371,244,10512,2,0,L|214:247,1,140,2|0,0:0|0:0,0:0:0:0:
147,248,11469,1,0,0:0:0:0:
161,165,11788,6,0,P|163:128|150:89,1,70,2|0,0:0|0:0,0:0:0:0:
109,25,12427,1,0,0:0:0:0:
35,66,12746,1,0,0:0:0:0:
77,138,13065,2,0,L|228:124,1,140,2|0,0:0|0:0,0:0:0:0:
300,130,14023,1,0,0:0:0:0:
279,211,14342,6,0,P|274:256|275:286,1,70,2|0,0:0|0:0,0:0:0:0:
309,357,14980,2,0,P|348:354|393:348,1,70
460,329,15618,1,2,0:0:0:0:
466,160,16257,1,2,0:0:0:0:
312,228,16895,5,2,0:0:0:0:
282,149,17214,2,0,P|241:138|199:139,1,70
132,158,17852,1,0,0:0:0:0:
96,234,18171,2,0,P|149:281|232:290,1,140,2|0,0:0|0:0,0:0:0:0:
295,266,19129,1,0,0:0:0:0:
298,182,19448,5,2,0:0:0:0:
256,192,19608,12,2,22001,0:0:0:0:
222,106,23278,5,8,0:3:0:0:
222,106,23597,2,0,L|291:105,2,70,2|0|0,0:1|3:0|0:0,0:0:0:0:
138,117,24554,5,4,0:0:0:0:
71,168,24874,2,0,P|59:208|60:250,1,70,0|8,0:0|0:0,0:0:0:0:
87,315,25512,1,0,0:0:0:0:
169,298,25831,2,0,P|242:290|311:287,1,140,2|8,0:1|0:0,0:0:0:0:
379,241,26788,1,0,0:0:0:0:
345,163,27108,6,0,P|347:129|354:83,1,70,2|0,0:3|0:0,0:0:0:0:
387,17,27746,1,8,0:0:0:0:
469,34,28065,1,0,0:0:0:0:
462,117,28384,2,0,P|456:186|455:256,1,140,2|8,0:1|0:0,0:0:0:0:
314,348,29661,5,4,0:3:0:0:
241,306,29980,2,0,L|238:227,1,70,0|8,0:0|0:0,0:0:0:0:
236,152,30618,1,0,0:0:0:0:
318,168,30937,2,0,P|345:170|387:170,1,70,2|0,0:1|0:0,0:0:0:0:
456,121,31576,1,8,0:0:0:0:
424,43,31895,1,0,0:0:0:0:
340,51,32214,6,0,P|266:57|191:59,1,140,2|8,0:3|0:0,0:0:0:0:
116,54,33171,1,0,0:0:0:0:
154,129,33491,2,0,B|165:163|165:163|164:275,1,140,2|8,0:1|0:0,0:0:0:0:
302,362,34767,5,4,0:3:0:0:
378,327,35086,2,0,L|385:258,1,70,0|8,0:0|0:0,0:0:0:0:
341,184,35725,1,0,0:0:0:0:
261,211,36044,2,0,P|186:229|116:234,1,140,2|8,0:1|0:0,0:0:0:0:
39,227,37001,1,0,0:0:0:0:
12,147,37320,6,0,P|16:117|33:70,1,70,2|0,0:3|0:0,0:0:0:0:
90,22,37959,1,8,0:0:0:0:
164,60,38278,1,0,0:0:0:0:
244,35,38597,2,0,P|321:34|382:81,1,140,2|8,0:1|0:0,0:0:0:0:
417,138,39554,1,0,0:0:0:0:
365,204,39874,6,0,P|353:248|349:283,1,70,6|0,0:3|0:0,0:0:0:0:
337,355,40512,1,8,0:0:0:0:
256,330,40831,2,0,P|219:322|184:322,1,70,0|2,0:0|0:1,0:0:0:0:
103,326,41469,2,0,P|101:286|94:243,1,70,0|8,0:0|0:0,0:0:0:0:
65,178,42108,1,0,0:0:0:0:
82,96,42427,6,0,P|156:96|208:154,1,140,2|8,0:3|0:0,0:0:0:0:
190,222,43384,2,0,P|187:263|188:297,1,70,0|2,0:0|0:1,0:0:0:0:
228,365,44023,1,8,0:0:0:0:
309,344,44342,1,8,0:0:0:0:
475,366,44980,6,0,P|454:313|447:231,1,140,4|8,0:0|0:0,0:0:0:0:
450,147,45937,1,0,0:0:0:0:
370,175,46257,2,0,B|325:187|325:187|216:189,1,140,2|8,0:1|0:0,0:0:0:0:
147,188,47214,1,0,0:0:0:0:
119,108,47533,5,4,0:3:0:0:
179,49,47852,2,0,P|225:37|267:32,1,70,0|8,0:0|0:0,0:0:0:0:
325,64,48491,1,4,0:3:0:0:
300,144,48810,2,0,L|313:299,1,140,4|8,0:3|0:0,0:0:0:0:
271,357,49767,1,0,0:0:0:0:
187,346,50086,6,0,P|183:306|176:270,1,70,2|0,0:3|0:0,0:0:0:0:
151,196,50725,1,8,0:0:0:0:
68,211,51044,1,0,0:0:0:0:
28,137,51363,2,0,L|183:106,1,140,2|8,0:1|0:0,0:0:0:0:
248,96,52320,1,0,0:0:0:0:
220,175,52640,6,0,P|222:259|254:302,2,140,2|8|2,0:3|0:0|0:1,0:0:0:0:
248,96,54235,1,8,0:0:0:0:
331,114,54554,1,8,0:0:0:0:
499,108,55193,6,0,P|438:149|423:238,1,140,4|8,0:0|0:0,0:0:0:0:
420,294,56150,1,0,0:0:0:0:
359,352,56469,2,0,P|284:345|216:345,1,140,2|8,0:1|0:0,0:0:0:0:
51,361,57746,6,0,P|38:307|42:215,1,140,2|8,0:3|0:0,0:0:0:0:
59,141,58703,1,0,0:0:0:0:
141,159,59023,2,0,L|223:152,1,70,2|0,0:1|0:0,0:0:0:0:
205,237,59661,2,0,P|200:273|200:307,1,70,8|0,0:0|0:0,0:0:0:0:
263,360,60299,6,0,L|401:338,1,140,2|8,0:3|0:0,0:0:0:0:
484,323,61257,1,0,0:0:0:0:
429,259,61576,2,0,B|420:217|420:217|417:96,1,140,2|8,0:1|0:0,0:0:0:0:
441,39,62533,1,0,0:0:0:0:
358,22,62852,6,0,P|322:22|286:28,1,70,4|0,0:3|0:0,0:0:0:0:
213,66,63491,2,0,P|172:70|143:69,1,70,8|0,0:0|0:0,0:0:0:0:
60,55,64129,1,4,0:3:0:0:
11,123,64448,1,8,0:3:0:0:
49,197,64767,2,0,P|64:232|71:268,1,70,8|4,0:0|0:3,0:0:0:0:
80,354,65405,6,0,P|39:360|3:361,2,77.0000023498536,4|0|8,0:0|0:0|0:0,0:0:0:0:
155,300,66363,1,0,0:0:0:0:
70,263,66682,2,0,L|80:99,1,154.000004699707,2|8,0:1|0:0,0:0:0:0:
119,25,67640,1,0,0:0:0:0:
206,53,67959,6,0,P|240:58|307:58,1,77.0000023498536,2|0,0:3|0:0,0:0:0:0:
374,51,68597,1,8,0:0:0:0:
448,109,68916,1,0,0:0:0:0:
410,193,69235,2,0,B|374:203|333:193|333:193|306:217|295:259,1,154.000004699707,2|8,0:1|0:0,0:0:0:0:
454,352,70512,5,4,0:3:0:0:
495,269,70831,2,0,P|498:231|495:191,1,77.0000023498536,0|8,0:0|0:0,0:0:0:0:
468,104,71469,1,0,0:0:0:0:
383,140,71788,2,0,P|300:144|241:106,1,154.000004699707,2|8,0:1|0:0,0:0:0:0:
77,22,73065,6,0,P|58:57|45:97,1,77.0000023498536,2|0,0:3|0:0,0:0:0:0:
37,184,73703,2,0,L|118:180,1,77.0000023498536,8|0,0:0|0:0,0:0:0:0:
193,228,74342,1,4,0:3:0:0:
273,182,74661,1,8,0:0:0:0:
359,215,74980,2,0,P|362:263|372:294,1,77.0000023498536,8|0,0:0|0:0,0:0:0:0:
425,354,75618,6,0,B|375:343|375:343|278:347,1,140,4|0,0:0|0:0,0:0:0:0:
118,364,76895,2,0,P|60:339|42:265,1,140,4|2,0:0|0:0,0:0:0:0:
77,184,77852,1,0,0:0:0:0:
167,206,78171,6,0,P|207:208|248:194,1,77.0000023498536,4|0,0:0|0:0,0:0:0:0:
328,162,78810,1,0,3:0:0:0:
281,82,79129,1,0,0:0:0:0:
195,117,79448,2,0,L|215:278,1,154.000004699707,2|8,0:1|0:0,0:0:0:0:
45,345,80725,5,4,0:3:0:0:
15,257,81044,2,0,P|15:218|22:180,1,77.0000023498536,0|8,0:0|0:0,0:0:0:0:
58,95,81682,1,0,0:0:0:0:
143,131,82001,2,0,L|297:117,1,154.000004699707,2|8,0:1|0:0,0:0:0:0:
345,38,82959,1,0,0:0:0:0:
252,37,83278,6,0,P|207:100|225:173,1,154.000004699707,2|8,0:3|0:0,0:0:0:0:
283,239,84235,1,0,0:0:0:0:
367,201,84554,2,0,L|444:201,1,77.0000023498536
435,293,85193,2,0,L|357:293,1,77.0000023498536,8|0,0:0|0:0,0:0:0:0:
283,239,85831,6,0,P|279:174|339:114,1,154.000004699707,4|0,0:0|0:0,0:0:0:0:
419,93,86809,1,0,0:0:0:0:
360,32,87150,2,0,B|317:23|317:23|218:38,1,140,4|0,0:3|0:0,0:0:0:0:
155,88,88165,2,0,P|155:122|163:162,1,70,0|4,0:0|0:0,0:0:0:0:
256,192,88665,12,0,94498,0:0:0:0:
