osu file format v14

[General]
AudioFilename: audio.mp3
AudioLeadIn: 0
PreviewTime: 60816
Countdown: 0
SampleSet: Soft
StackLeniency: 0.7
Mode: 0
LetterboxInBreaks: 0
WidescreenStoryboard: 1

[Editor]
Bookmarks: 355,9585,20662,28047,42816,87124
DistanceSpacing: 0.9
BeatDivisor: 4
GridSize: 16
TimelineZoom: 1.9

[Metadata]
Title:astral ability (Game Ver.)
TitleUnicode:astral ability (Game Ver.)
Artist:Hashimoto Miyuki, Sasaki Sayaka
ArtistUnicode:橋本みゆき、佐咲紗花
Creator:tomatas95
Version:Normal
Source:リドルジョーカー
Tags:Riddle Joker ゆずソフト yuzusoft op カー オリジナル サウンドトラック saturnalize original opening vn mordred soundtrack 中山♥マミ nakayama mami famishin 井ノ原 智 inohara satoshi newton- asai yasuo video game eroge visual novel japanese pop j-pop jpop
BeatmapID:3223088
BeatmapSetID:1519872

[Difficulty]
HPDrainRate:3
CircleSize:3
OverallDifficulty:4
ApproachRate:5
SliderMultiplier:1.1
SliderTickRate:1

[Events]
//Background and Video events
0,0,"OniichanStare.jpg",0,0
Video,0,"I Love Yuzusoft.mp4"
//Break Periods
//Storyboard Layer 0 (Background)
//Storyboard Layer 1 (Fail)
//Storyboard Layer 2 (Pass)
//Storyboard Layer 3 (Foreground)
//Storyboard Layer 4 (Overlay)
//Storyboard Sound Samples

[TimingPoints]
355,461.538461538462,4,2,53,25,1,0
355,-100,4,2,53,25,0,0
585,-100,4,2,1,35,0,0
1278,-100,4,2,53,35,0,0
1739,-100,4,2,1,35,0,0
2201,-100,4,2,52,50,0,0
2431,-100,4,2,53,50,0,0
2662,-100,4,2,52,50,0,0
2778,-100,4,2,53,50,0,0
3124,-100,4,2,52,50,0,0
4047,-100,4,2,53,50,0,0
4508,-100,4,2,52,50,0,0
4624,-100,4,2,53,50,0,0
4970,-100,4,2,52,50,0,0
5085,-100,4,2,53,50,0,0
5431,-100,4,2,52,50,0,0
5546,-100,4,2,53,50,0,0
5893,-100,4,2,52,50,0,0
6124,-100,4,2,53,50,0,0
6355,-100,4,2,52,50,0,0
6470,-100,4,2,53,50,0,0
6816,-100,4,2,52,50,0,0
6931,-100,4,2,53,50,0,0
7162,-100,4,2,52,50,0,0
7277,-100,4,2,53,50,0,0
7739,-100,4,2,53,70,0,0
7970,-100,4,2,53,65,0,0
8662,-100,4,2,53,70,0,0
8893,-100,4,2,53,65,0,0
9124,-100,4,2,53,70,0,0
9585,-100,4,2,53,65,0,0
9701,-100,4,2,53,35,0,0
10508,-100,4,2,53,55,0,0
10624,-100,4,2,53,35,0,0
11431,-100,4,2,53,55,0,0
11547,-100,4,2,53,35,0,0
12354,-100,4,2,53,55,0,0
12816,-100,4,2,53,50,0,0
13278,-100,4,2,53,65,0,0
13624,-100,4,2,53,55,0,0
14201,-100,4,2,53,65,0,0
14547,-100,4,2,53,55,0,0
15124,-100,4,2,53,65,0,0
15470,-100,4,2,53,55,0,0
17201,-100,4,2,53,75,0,0
18816,-100,4,2,53,65,0,0
19739,-100,4,2,53,75,0,0
20662,-100,4,2,53,75,0,0
27124,-100,4,2,53,60,0,0
28047,-100,4,2,53,45,0,0
28278,-100,4,2,53,55,0,0
35431,-100,4,2,53,45,0,0
35662,-100,4,2,53,55,0,0
40970,-100,4,2,53,50,0,0
42816,-100,4,2,53,55,0,0
43047,-100,4,2,53,65,0,0
50201,-100,4,2,53,55,0,0
50431,-100,4,2,53,65,0,0
57585,-100,4,2,53,70,0,0
59431,-100,4,2,53,65,0,0
59778,-100,4,2,53,70,0,0
60124,-100,4,2,53,75,0,0
60470,-100,4,2,53,80,0,0
60816,-100,4,2,53,85,0,0
61047,-100,4,2,53,50,0,0
61278,-83.3333333333333,4,2,53,85,0,1
68201,-83.3333333333333,4,2,53,85,0,0
68662,-83.3333333333333,4,2,53,85,0,1
75585,-83.3333333333333,4,2,53,85,0,0
76047,-83.3333333333333,4,2,53,85,0,1
83662,-83.3333333333333,4,2,53,80,0,1
85508,-83.3333333333333,4,2,53,85,0,1
87124,-100,4,2,53,75,0,0
91508,-100,4,2,53,55,0,0
91739,-100,4,2,53,60,0,0
91970,-100,4,2,53,65,0,0
92201,-100,4,2,53,70,0,0
92431,-100,4,2,53,75,0,0
92662,-100,4,2,53,80,0,0
93124,-100,4,2,53,70,0,0
93585,-100,4,2,53,60,0,0
93816,-100,4,2,53,55,0,0
94508,-100,4,2,53,35,0,0
94739,-100,4,2,53,50,0,0
94970,-100,4,2,53,55,0,0
96585,-100,4,2,53,70,0,0
96931,-100,4,2,53,80,0,0
97162,-100,4,2,53,5,0,0
97278,-100,4,2,53,90,0,0
97739,-100,4,2,53,5,0,0

[Colours]
Combo1 : 231,131,196
Combo2 : 255,170,181
Combo3 : 253,240,149
Combo4 : 165,228,216
Combo5 : 145,108,213

[HitObjects]
256,192,355,12,6,7739,1:2:0:0:
35,348,9585,5,6,1:1:0:0:
232,347,10508,1,2,1:2:0:0:
231,150,11431,1,2,1:2:0:0:
34,151,12355,1,2,1:2:0:0:
33,352,13278,6,0,P|80:339|157:368,1,110,2|0,1:2|0:0,0:0:0:0:
235,336,14201,2,0,P|200:301|186:220,1,110,2|0,1:2|0:0,0:0:0:0:
224,153,15124,2,0,B|264:144|264:144|317:168,2,82.5,2|2|2,1:2|3:2|3:2,0:0:0:0:
175,165,16047,2,0,L|47:154,1,110,2|10,1:2|2:1,0:0:0:0:
83,61,16970,1,2,1:2:0:0:
83,61,17201,6,0,B|54:55|54:55|28:63|28:63|-2:58,2,82.5,10|10|10,1:2|2:2|1:2,0:0:0:0:
180,42,18355,2,0,L|257:34,1,55,0|10,1:2|0:2,0:0:0:0:
282,23,18816,1,2,1:2:0:0:
309,118,19278,2,0,L|313:184,1,55,10|2,3:2|3:2,0:0:0:0:
281,211,19739,2,0,L|272:344,1,110,10|10,1:1|3:2,0:0:0:0:
274,374,20431,1,2,3:2:0:0:
274,374,20662,5,6,1:1:0:0:
370,350,21124,2,0,P|400:347|444:356,1,55,10|2,2:1|0:0,0:0:0:0:
473,359,21585,2,0,L|477:292,1,55,2|2,1:2|0:0,0:0:0:0:
495,258,22047,1,10,2:1:0:0:
487,159,22508,2,0,P|438:143|377:160,1,110,2|8,1:2|2:1,0:0:0:0:
351,193,23201,1,2,0:0:0:0:
351,193,23431,2,0,L|285:186,1,55,2|2,1:2|0:0,0:0:0:0:
246,189,23893,1,10,2:1:0:0:
147,199,24355,6,0,P|147:144|134:70,1,110,2|10,1:2|2:1,0:0:0:0:
139,44,25047,1,2,0:0:0:0:
139,44,25278,2,0,L|199:36,1,55,2|2,1:2|0:0,0:0:0:0:
235,9,25739,1,10,2:1:0:0:
321,57,26201,2,0,P|373:68|439:41,1,110,2|10,1:2|2:1,0:0:0:0:
466,21,26893,1,2,0:0:0:0:
466,21,27124,1,2,1:3:0:0:
500,215,28047,5,6,1:2:0:0:
443,296,28508,2,0,P|447:334|442:390,2,82.5,10|2|2,0:2|3:2|3:2,0:0:0:0:
400,270,29431,1,10,0:2:0:0:
335,194,29893,2,0,P|305:189|263:199,1,55,0|2,1:0|3:2,0:0:0:0:
232,201,30355,2,0,P|228:163|233:107,2,82.5,10|2|2,0:2|3:2|3:2,0:0:0:0:
237,250,31278,1,10,0:2:0:0:
242,348,31739,6,0,L|169:359,1,55,0|2,1:0|3:2,0:0:0:0:
138,350,32201,2,0,P|137:307|118:246,2,82.5,10|2|2,0:2|3:2|3:2,0:0:0:0:
89,361,33124,1,10,0:2:0:0:
17,295,33585,2,0,L|9:223,1,55,0|2,1:0|3:2,0:0:0:0:
29,194,34047,2,0,L|21:122,1,55,10|2,0:2|3:2,0:0:0:0:
14,90,34508,1,2,1:2:0:0:
87,23,34970,1,10,0:2:0:0:
171,74,35431,5,6,1:2:0:0:
196,169,35893,2,0,P|158:161|111:172,2,82.5,10|2|2,0:2|3:2|3:2,0:0:0:0:
224,209,36816,1,10,0:2:0:0:
301,271,37278,2,0,L|364:261,1,55,0|2,1:0|3:2,0:0:0:0:
398,286,37740,2,0,P|390:323|401:371,2,82.5,10|2|2,0:2|3:2|3:2,0:0:0:0:
438,257,38663,1,10,0:2:0:0:
446,158,39124,6,0,L|438:99,1,55,0|0,1:0|0:0,0:0:0:0:
423,56,39585,2,0,P|466:62|512:47,2,82.5,10|2|0,0:2|3:2|0:0,0:0:0:0:
375,40,40508,1,10,0:2:0:0:
281,63,40970,1,2,1:2:0:0:
281,63,41201,2,0,B|239:64|216:106|224:143|260:171|260:171|286:197|295:228|289:265|260:297,1,275,2|10,0:3|2:1,0:0:0:0:
333,361,42816,6,0,B|364:362|364:362|384:349|384:349|449:348,1,110,6|10,1:1|2:1,0:0:0:0:
488,353,43508,2,0,P|490:312|466:242,1,110,2|2,3:2|3:2,0:0:0:0:
442,204,44201,2,0,L|451:128,1,55,10|2,2:1|3:2,0:0:0:0:
478,109,44662,1,2,1:2:0:0:
422,26,45124,2,0,P|390:31|364:27,1,55,10|2,2:1|0:0,0:0:0:0:
320,13,45585,2,0,P|288:8|262:12,1,55,2|10,1:2|2:2,0:0:0:0:
217,21,46047,1,10,2:1:0:0:
270,104,46508,6,0,B|265:132|265:132|273:167|273:167|263:218,1,110,2|10,1:2|2:1,0:0:0:0:
282,258,47201,2,0,P|239:242|170:257,1,110,2|2,3:2|3:2,0:0:0:0:
137,276,47893,2,0,L|130:336,1,55,10|2,2:1|3:2,0:0:0:0:
109,375,48355,1,2,1:2:0:0:
22,329,48816,2,0,L|29:269,1,55,10|2,2:1|0:0,0:0:0:0:
19,225,49278,2,0,L|26:165,1,55,2|10,1:2|2:2,0:0:0:0:
20,121,49739,1,10,2:1:0:0:
36,23,50201,6,0,B|121:15|121:15|142:45,1,110,6|10,1:2|2:1,0:0:0:0:
143,84,50893,1,2,3:2:0:0:
143,84,51124,2,0,L|150:144,1,55,2|2,1:2|3:2,0:0:0:0:
157,187,51585,1,10,2:1:0:0:
130,282,52047,2,0,P|164:278|196:289,1,55,2|2,1:2|3:2,0:0:0:0:
222,313,52508,2,0,P|269:328|341:294,1,110,10|2,2:1|1:2,0:0:0:0:
360,275,53201,1,10,0:2:0:0:
360,275,53431,1,10,2:1:0:0:
296,199,53893,6,0,L|283:75,1,110,2|10,1:2|2:1,0:0:0:0:
263,44,54585,2,0,P|305:54|385:33,1,110,2|2,3:2|3:2,0:0:0:0:
414,19,55278,2,0,P|442:17|484:26,1,55,10|2,2:1|3:2,0:0:0:0:
503,55,55739,1,2,1:2:0:0:
480,154,56201,1,10,2:1:0:0:
480,154,56431,2,0,L|364:164,1,110,2|10,3:2|2:2,0:0:0:0:
334,197,57124,2,0,L|264:202,1,55,10|2,2:1|3:2,0:0:0:0:
237,227,57585,5,6,1:2:0:0:
209,322,58047,2,0,P|253:311|318:340,1,110,10|0,2:1|1:2,0:0:0:0:
349,373,58739,1,0,3:0:0:0:
349,373,58970,1,10,2:1:0:0:
444,345,59431,2,0,B|480:366|480:366|506:315|471:241,2,165,14|14|14,1:3|1:3|1:3,0:0:0:0:
330,379,61278,6,0,B|293:377|293:377|269:360|269:360|198:358,1,131.99999597168,6|10,1:1|2:1,0:0:0:0:
149,375,61970,1,2,3:2:0:0:
149,375,62201,2,0,L|78:368,1,65.9999979858399,2|2,1:2|3:2,0:0:0:0:
30,356,62662,1,10,2:1:0:0:
30,356,62893,2,0,P|31:314|14:222,1,131.99999597168,2|2,3:2|3:2,0:0:0:0:
8,166,63585,1,10,2:1:0:0:
15,47,64047,2,0,P|58:33|141:59,1,131.99999597168,2|10,1:2|2:1,0:0:0:0:
155,119,64739,1,2,3:2:0:0:
155,119,64970,6,0,L|145:214,1,65.9999979858399,2|2,1:2|3:2,0:0:0:0:
144,243,65431,1,10,2:1:0:0:
131,361,65893,2,0,P|165:357|198:363,1,65.9999979858399,2|2,1:2|3:2,0:0:0:0:
258,378,66355,1,10,2:1:0:0:
258,378,66585,2,0,L|268:243,1,131.99999597168,2|2,3:2|3:2,0:0:0:0:
262,186,67278,2,0,L|266:119,1,65.9999979858399,10|2,2:1|3:2,0:0:0:0:
260,61,67739,1,2,1:2:0:0:
371,18,68201,2,0,P|409:21|446:14,1,65.9999979858399,10|2,2:1|3:2,0:0:0:0:
494,27,68662,6,0,B|489:64|489:64|499:95|499:95|488:156,1,131.99999597168,4|10,1:1|2:1,0:0:0:0:
469,216,69355,1,2,3:2:0:0:
469,216,69585,2,0,P|442:209|393:217,1,65.9999979858399,2|2,1:2|3:2,0:0:0:0:
354,242,70047,1,10,2:1:0:0:
354,242,70278,2,0,P|308:258|229:223,1,131.99999597168,2|2,3:2|3:2,0:0:0:0:
216,171,70970,1,10,2:1:0:0:
233,53,71431,2,0,P|195:57|148:42,1,65.9999979858399,2|0,1:2|3:0,0:0:0:0:
116,21,71893,2,0,P|78:17|29:35,1,65.9999979858399,10|2,2:1|3:2,0:0:0:0:
31,79,72355,6,0,L|17:210,1,131.99999597168,2|10,1:2|2:1,0:0:0:0:
4,328,73278,2,0,P|38:322|71:330,1,65.9999979858399,2|2,1:2|3:2,0:0:0:0:
127,356,73739,1,10,2:1:0:0:
127,356,73970,2,0,P|163:371|248:340,1,131.99999597168,2|2,3:2|3:2,0:0:0:0:
234,283,74662,2,0,L|240:215,1,65.9999979858399,10|2,2:1|3:2,0:0:0:0:
235,157,75124,1,2,1:2:0:0:
212,40,75585,2,0,P|243:37|295:48,1,65.9999979858399,10|2,2:1|3:2,0:0:0:0:
323,80,76047,6,0,P|378:96|459:56,1,131.99999597168,4|10,1:1|2:1,0:0:0:0:
504,50,76739,1,2,3:2:0:0:
504,50,76970,2,0,L|514:129,1,65.9999979858399,2|2,1:2|3:2,0:0:0:0:
503,177,77431,1,10,2:1:0:0:
503,177,77662,2,0,L|482:330,1,131.99999597168,2|2,3:2|3:2,0:0:0:0:
484,367,78355,1,10,2:1:0:0:
365,372,78816,2,0,L|384:217,1,131.99999597168,2|10,1:2|2:1,0:0:0:0:
397,186,79508,1,2,3:2:0:0:
397,186,79739,6,0,P|343:199|253:152,1,131.99999597168,2|10,1:2|2:1,0:0:0:0:
249,124,80431,1,2,3:2:0:0:
249,124,80662,2,0,L|230:276,1,131.99999597168,2|10,1:2|2:1,0:0:0:0:
208,371,81585,6,0,B|150:353|150:353|69:369,1,131.99999597168,6|10,1:2|2:1,0:0:0:0:
24,373,82278,1,2,3:2:0:0:
24,373,82508,2,0,L|27:294,1,65.9999979858399,2|2,1:2|3:2,0:0:0:0:
41,249,82970,1,10,2:1:0:0:
59,135,83431,5,6,1:1:0:0:
59,135,83662,2,0,P|55:88|77:24,2,98.9999969787599,10|10|10,1:2|2:2|1:2,0:0:0:0:
175,159,84816,2,0,P|171:193|187:239,2,65.9999979858399,0|10|0,1:2|0:2|1:0,0:0:0:0:
235,144,85508,1,2,0:0:0:0:
235,144,85739,2,0,L|249:54,1,65.9999979858399,10|2,2:1|3:2,0:0:0:0:
260,21,86201,2,0,B|215:31|215:31|164:13,2,98.9999969787599,10|10|2,1:1|1:1|3:2,0:0:0:0:
308,9,87124,5,14,1:1:0:0:
403,32,87585,2,0,L|396:98,1,55,10|2,2:1|0:0,0:0:0:0:
432,121,88047,2,0,L|425:187,1,55,2|0,1:2|0:0,0:0:0:0:
449,219,88508,1,10,2:1:0:0:
472,315,88970,6,0,P|423:308|348:315,1,110,2|10,1:2|2:1,0:0:0:0:
317,319,89662,1,2,0:0:0:0:
317,319,89893,2,0,P|316:292|310:246,1,55,2|2,1:2|3:2,0:0:0:0:
302,215,90355,1,10,2:1:0:0:
223,155,90816,2,0,L|102:144,1,110,2|10,1:2|2:1,0:0:0:0:
64,151,91508,1,2,0:3:0:0:
64,151,91739,2,0,P|70:180|62:226,1,55,2|2,1:3|0:3,0:0:0:0:
57,253,92201,2,0,P|85:262|120:292,1,55,10|2,1:3|0:3,0:0:0:0:
132,318,92662,5,14,1:2:0:0:
224,352,93124,2,0,L|230:288,1,55,10|2,2:2|0:3,0:0:0:0:
236,248,93585,1,2,1:2:0:0:
212,54,94508,6,0,L|288:43,1,55,6|2,1:2|3:2,0:0:0:0:
316,43,94970,2,0,L|434:25,1,110,10|2,2:1|1:2,0:0:0:0:
474,28,95662,1,2,3:2:0:0:
474,28,95893,2,0,P|480:64|478:99,1,55,10|2,2:1|3:2,0:0:0:0:
433,170,96585,2,0,B|474:162|474:162|532:185,2,82.5,6|6|6,1:2|1:2|1:1,0:0:0:0:
