osu file format v14

[General]
AudioFilename: audio.mp3
AudioLeadIn: 0
PreviewTime: 60816
Countdown: 0
SampleSet: Soft
StackLeniency: 0.7
Mode: 0
LetterboxInBreaks: 0
WidescreenStoryboard: 0

[Editor]
DistanceSpacing: 0.3
BeatDivisor: 4
GridSize: 32
TimelineZoom: 1.9

[Metadata]
Title:astral ability (Game Ver.)
TitleUnicode:astral ability (Game Ver.)
Artist:Hashimoto Miyuki, Sasaki Sayaka
ArtistUnicode:橋本みゆき、佐咲紗花
Creator:tomatas95
Version:Mordred's Insane
Source:リドルジョーカー
Tags:Riddle Joker ゆずソフト yuzusoft op カー オリジナル サウンドトラック saturnalize original opening vn mordred soundtrack 中山♥マミ nakayama mami famishin 井ノ原 智 inohara satoshi newton- asai yasuo video game eroge visual novel japanese pop j-pop jpop
BeatmapID:3223086
BeatmapSetID:1519872

[Difficulty]
HPDrainRate:7
CircleSize:3
OverallDifficulty:8.2
ApproachRate:9.2
SliderMultiplier:3.49999990463257
SliderTickRate:1

[Events]
//Background and Video events
0,0,"bg.jpg",0,0
Video,0,"I Love Yuzusoft.mp4"
//Break Periods
//Storyboard Layer 0 (Background)
//Storyboard Layer 1 (Fail)
//Storyboard Layer 2 (Pass)
//Storyboard Layer 3 (Foreground)
//Storyboard Layer 4 (Overlay)
//Storyboard Sound Samples

[TimingPoints]
355,461.538461538462,4,2,53,25,1,0
585,-100,4,2,1,35,0,0
1278,-100,4,2,53,35,0,0
1739,-100,4,2,1,35,0,0
2201,-100,4,2,52,50,0,0
2431,-100,4,2,53,50,0,0
2662,-100,4,2,52,50,0,0
2778,-100,4,2,53,50,0,0
3124,-100,4,2,52,50,0,0
4047,-100,4,2,53,50,0,0
4508,-100,4,2,52,50,0,0
4624,-100,4,2,53,50,0,0
4970,-100,4,2,52,50,0,0
5085,-100,4,2,53,50,0,0
5431,-100,4,2,52,50,0,0
5546,-100,4,2,53,50,0,0
5893,-100,4,2,52,50,0,0
6124,-100,4,2,53,50,0,0
6355,-100,4,2,52,50,0,0
6470,-100,4,2,53,50,0,0
6816,-100,4,2,52,50,0,0
6931,-100,4,2,53,50,0,0
7162,-100,4,2,52,50,0,0
7277,-100,4,2,53,50,0,0
7739,-100,4,2,53,70,0,0
7970,-100,4,2,53,65,0,0
8662,-133.333333333333,4,2,53,70,0,0
8893,-133.333333333333,4,2,53,65,0,0
9124,-133.333333333333,4,2,53,70,0,0
9585,-200,4,2,53,65,0,0
9701,-200,4,2,53,35,0,0
10508,-200,4,2,53,55,0,0
10624,-200,4,2,53,35,0,0
11431,-200,4,2,53,55,0,0
11547,-200,4,2,53,35,0,0
12354,-200,4,2,53,55,0,0
12816,-200,4,2,53,50,0,0
13278,-200,4,2,53,65,0,0
13624,-200,4,2,53,55,0,0
14201,-200,4,2,53,65,0,0
14547,-200,4,2,53,55,0,0
15124,-200,4,2,53,65,0,0
15470,-200,4,2,53,55,0,0
17201,-133.333333333333,4,2,53,75,0,0
18816,-133.333333333333,4,2,53,65,0,0
19739,-133.333333333333,4,2,53,75,0,0
24355,-125,4,2,53,75,0,0
27124,-125,4,2,53,60,0,0
28047,-125,4,2,53,45,0,0
28278,-125,4,2,53,55,0,0
35431,-125,4,2,53,45,0,0
35662,-125,4,2,53,55,0,0
40970,-125,4,2,53,50,0,0
42816,-125,4,2,53,55,0,0
43047,-125,4,2,53,65,0,0
50201,-125,4,2,53,55,0,0
50431,-125,4,2,53,65,0,0
57585,-125,4,2,53,70,0,0
59431,-100,4,2,53,65,0,0
59778,-100,4,2,53,70,0,0
60124,-100,4,2,53,75,0,0
60470,-100,4,2,53,80,0,0
60816,-100,4,2,53,85,0,0
61047,-100,4,2,53,50,0,0
61278,-100,4,2,53,85,0,1
83662,-100,4,2,53,80,0,1
85508,-100,4,2,53,85,0,1
87008,-100,4,2,53,85,0,0
87124,-100,4,2,53,75,0,1
90816,-100,4,2,53,75,0,0
91508,-100,4,2,53,55,0,0
91739,-100,4,2,53,60,0,0
91970,-100,4,2,53,65,0,0
92201,-100,4,2,53,70,0,0
92431,-100,4,2,53,75,0,0
92662,-100,4,2,53,80,0,0
93124,-100,4,2,53,70,0,0
93585,-100,4,2,53,60,0,0
93816,-100,4,2,53,55,0,0
94508,-100,4,2,53,35,0,0
94739,-100,4,2,53,50,0,0
94970,-100,4,2,53,55,0,0
96585,-100,4,2,53,70,0,0
96931,-100,4,2,53,80,0,0
97162,-100,4,2,53,5,0,0
97278,-100,4,2,53,90,0,0
97739,-100,4,2,53,5,0,0

[Colours]
Combo1 : 231,131,196
Combo2 : 255,170,181
Combo3 : 253,240,149
Combo4 : 165,228,216
Combo5 : 145,108,213

[HitObjects]
50,104,7739,5,6,1:2:0:0:
320,192,7970,1,2,3:2:0:0:
325,208,8085,1,2,3:2:0:0:
216,278,8316,1,2,3:2:0:0:
211,294,8431,1,2,3:2:0:0:
248,369,8547,1,0,1:0:0:0:
121,278,8662,6,0,P|106:215|104:149,1,131.250001430512,6|2,3:2|3:2,0:0:0:0:
416,85,9124,2,0,P|413:183|390:278,1,196.875002145767,4|0,1:2|0:0,0:0:0:0:
422,362,9585,6,0,P|406:284|334:14,1,349.999990463257,6|2,1:1|1:2,0:0:0:0:
90,362,11431,2,0,P|106:284|178:14,1,349.999990463257,2|2,1:2|1:2,0:0:0:0:
175,22,13047,1,2,1:2:0:0:
512,160,13278,2,0,B|383:100|383:100|339:303,1,349.999990463257,2|2,1:2|1:2,0:0:0:0:
339,303,14893,1,2,1:1:0:0:
0,160,15124,2,0,B|129:100|129:100|172:303,1,349.999990463257,2|2,1:2|1:2,0:0:0:0:
128,384,16278,1,2,1:2:0:0:
192,192,16508,1,10,2:1:0:0:
32,32,16739,1,2,0:0:0:0:
32,32,16855,1,0,0:0:0:0:
32,32,16970,1,2,1:2:0:0:
243,62,17201,6,0,B|185:88|185:88|112:49,1,131.250001430512,10|0,1:2|1:0,0:0:0:0:
432,27,17547,2,0,B|372:-4|372:-4|314:21,1,131.250001430512,10|0,2:2|0:0,0:0:0:0:
484,207,17893,2,0,B|515:147|515:147|489:89,1,131.250001430512,10|0,1:2|0:0,0:0:0:0:
243,62,18239,2,0,B|211:121|211:121|237:179,1,131.250001430512,10|0,2:2|0:0,0:0:0:0:
411,246,18585,2,0,B|353:272|353:272|293:240,2,131.250001430512,10|2|2,0:2|1:2|3:2,0:0:0:0:
484,207,19278,1,10,3:2:0:0:
237,179,19508,1,2,3:2:0:0:
376,70,19739,1,10,1:1:0:0:
347,314,19970,1,8,0:0:0:0:
379,46,20201,1,10,3:2:0:0:
344,338,20431,1,2,3:2:0:0:
0,160,20662,5,6,1:1:0:0:
83,75,20893,1,2,0:2:0:0:
83,74,21008,2,0,P|100:138|113:202,1,131.250001430512,2|0,0:2|0:0,0:0:0:0:
99,283,21355,1,2,0:0:0:0:
193,129,21585,6,0,P|225:135|256:144,1,65.6250007152558,2|0,1:2|0:0,0:0:0:0:
321,225,21816,1,2,0:0:0:0:
448,321,22047,2,0,P|415:315|384:306,1,65.6250007152558,10|0,2:1|0:0,0:0:0:0:
321,225,22278,1,2,0:0:0:0:
340,66,22508,2,0,P|351:98|359:129,1,65.6250007152558,2|0,1:2|0:0,0:0:0:0:
321,225,22739,1,2,0:0:0:0:
300,383,22970,2,0,P|289:353|281:321,1,65.6250007152558,8|0,2:1|0:0,0:0:0:0:
321,225,23201,1,2,0:0:0:0:
468,164,23431,2,0,P|445:188|422:211,1,65.6250007152558,2|0,1:2|0:0,0:0:0:0:
321,225,23662,1,2,0:0:0:0:
174,288,23893,2,0,P|195:263|218:240,1,65.6250007152558,10|0,2:1|0:0,0:0:0:0:
321,225,24124,1,2,0:0:0:0:
64,32,24355,6,0,B|32:75|32:75|53:158,2,139.999996185303,2|2|10,1:2|0:0|2:1,0:0:0:0:
192,0,25047,1,2,0:0:0:0:
369,260,25278,2,0,P|261:225|294:85,1,279.999992370606,2|10,1:2|2:1,0:0:0:0:
416,64,25970,1,2,0:0:0:0:
349,360,26201,2,0,P|325:222|290:86,2,279.999992370606,2|10|2,1:2|2:1|1:3,0:0:0:0:
445,384,28047,5,6,1:2:0:0:
496,312,28278,1,2,3:2:0:0:
453,232,28508,1,10,0:2:0:0:
501,154,28739,1,2,3:2:0:0:
497,134,28855,1,2,3:2:0:0:
295,114,29085,1,2,3:2:0:0:
291,94,29201,1,2,3:2:0:0:
418,308,29431,6,0,L|383:30,1,279.999992370606,10|0,0:2|1:0,0:0:0:0:
16,72,30125,5,2,3:2:0:0:
59,152,30355,1,10,0:2:0:0:
11,230,30586,1,2,3:2:0:0:
15,250,30702,1,2,3:2:0:0:
217,270,30932,1,2,3:2:0:0:
221,290,31048,1,2,3:2:0:0:
94,76,31278,6,0,L|129:354,1,279.999992370606,10|0,0:2|1:0,0:0:0:0:
256,0,31970,5,2,3:2:0:0:
304,77,32201,1,10,0:2:0:0:
392,97,32431,1,2,3:2:0:0:
412,91,32547,1,2,3:2:0:0:
512,138,32778,1,2,3:2:0:0:
492,144,32894,1,2,3:2:0:0:
406,343,33124,1,10,0:2:0:0:
497,34,33355,1,2,3:2:0:0:
512,320,33585,5,0,1:0:0:0:
383,237,33816,1,2,3:2:0:0:
186,384,34047,1,10,0:2:0:0:
322,313,34278,1,2,3:2:0:0:
293,69,34508,1,2,1:2:0:0:
287,222,34739,1,2,3:2:0:0:
512,320,34970,1,10,0:2:0:0:
186,384,35201,1,0,3:0:0:0:
293,69,35431,1,6,1:2:0:0:
331,258,35662,5,2,3:2:0:0:
223,295,35893,1,10,0:2:0:0:
115,258,36124,1,2,3:2:0:0:
94,262,36239,1,2,3:2:0:0:
144,58,36470,1,2,3:2:0:0:
123,62,36585,1,2,3:2:0:0:
255,176,36816,6,0,L|-30:143,1,279.999992370606,10|0,0:2|1:0,0:0:0:0:
181,258,37508,5,2,3:2:0:0:
289,295,37739,1,10,0:2:0:0:
397,258,37970,1,2,3:2:0:0:
418,262,38085,1,2,3:2:0:0:
368,58,38316,1,2,3:2:0:0:
389,62,38431,1,2,3:2:0:0:
256,176,38662,6,0,L|542:143,1,279.999992370606,10|2,0:2|1:2,0:0:0:0:
160,128,39355,5,2,3:2:0:0:
256,288,39585,1,10,0:2:0:0:
91,384,39816,1,2,3:2:0:0:
91,384,39931,2,0,P|112:317|142:254,1,139.999996185303,0|0,3:0|0:0,0:0:0:0:
160,242,40278,1,2,3:2:0:0:
0,288,40508,1,10,0:2:0:0:
224,352,40739,1,2,3:2:0:0:
160,32,40970,5,2,1:2:0:0:
173,34,41201,1,2,0:3:0:0:
235,86,41431,5,0,0:0:0:0:
248,88,41547,1,2,0:3:0:0:
312,39,41778,5,2,0:3:0:0:
325,41,41894,1,2,0:3:0:0:
385,95,42124,5,2,0:3:0:0:
464,78,42355,5,10,2:1:0:0:
160,32,42585,1,2,0:2:0:0:
279,316,42816,6,0,P|396:255|383:124,1,279.999992370606,6|10,1:1|2:1,0:0:0:0:
288,64,43508,1,2,3:2:0:0:
284,177,43739,1,2,1:2:0:0:
483,71,43970,1,2,3:2:0:0:
189,118,44201,1,10,2:1:0:0:
377,350,44431,1,2,3:2:0:0:
350,180,44662,5,2,1:2:0:0:
217,289,44893,1,2,3:2:0:0:
217,289,45008,1,0,3:0:0:0:
137,231,45124,2,0,L|0:256,1,139.999996185303,10|2,2:1|0:0,0:0:0:0:
296,346,45585,2,0,L|433:321,1,139.999996185303,2|10,1:2|2:2,0:0:0:0:
217,289,46047,1,10,2:1:0:0:
512,380,46278,1,2,3:2:0:0:
370,77,46508,6,0,B|326:143|326:143|371:338,1,279.999992370606,2|10,1:2|2:1,0:0:0:0:
288,32,47201,1,2,3:2:0:0:
419,163,47431,1,2,1:2:0:0:
160,224,47662,1,2,3:2:0:0:
160,224,47778,1,0,3:0:0:0:
160,224,47893,1,10,2:1:0:0:
384,64,48124,1,2,3:2:0:0:
384,320,48355,5,2,1:2:0:0:
250,381,48585,1,2,3:2:0:0:
250,381,48701,1,0,3:0:0:0:
250,381,48816,2,0,P|275:315|292:247,1,139.999996185303,10|2,2:1|0:0,0:0:0:0:
261,3,49278,1,2,1:2:0:0:
261,3,49393,2,0,P|236:68|219:136,1,139.999996185303,10|2,2:2|3:2,0:0:0:0:
225,156,49739,1,10,2:1:0:0:
384,320,49970,1,2,3:2:0:0:
18,303,50201,6,0,P|152:264|291:247,1,279.999992370606,6|10,1:2|2:1,0:0:0:0:
384,320,50893,1,2,3:2:0:0:
480,128,51124,1,2,1:2:0:0:
447,18,51355,1,2,3:2:0:0:
225,156,51585,1,10,2:1:0:0:
258,266,51816,1,2,3:2:0:0:
0,64,52047,5,2,1:2:0:0:
96,0,52278,1,2,3:2:0:0:
96,0,52393,1,2,3:2:0:0:
96,0,52508,2,0,P|106:69|115:138,1,139.999996185303,10|2,2:1|3:2,0:0:0:0:
64,384,52970,1,2,1:2:0:0:
64,384,53085,2,0,P|53:314|44:245,1,139.999996185303,10|2,2:2|3:2,0:0:0:0:
54,226,53431,1,10,2:1:0:0:
192,64,53662,1,2,3:2:0:0:
410,210,53893,6,0,B|316:265|316:265|166:181,1,279.999992370606,2|10,1:2|2:1,0:0:0:0:
416,352,54585,2,0,P|453:217|504:86,1,279.999992370606,2|2,3:2|3:2,0:0:0:0:
320,384,55278,1,10,2:1:0:0:
288,96,55508,1,2,3:2:0:0:
512,320,55739,6,0,P|381:269|246:231,1,279.999992370606,2|10,1:2|2:1,0:0:0:0:
0,224,56431,2,0,P|129:236|172:113,1,279.999992370606,2|10,3:2|2:2,0:0:0:0:
112,32,57124,1,10,2:1:0:0:
192,320,57355,1,2,3:2:0:0:
384,0,57585,5,6,1:2:0:0:
448,128,57816,1,2,3:2:0:0:
448,128,57931,1,0,0:0:0:0:
448,128,58047,2,0,L|257:95,1,139.999996185303,10|0,2:1|3:0,0:0:0:0:
192,320,58508,2,0,L|329:343,1,139.999996185303,0|0,1:2|3:0,0:0:0:0:
401,299,58855,1,0,3:1:0:0:
406,381,58970,1,10,2:1:0:0:
256,160,59201,1,0,3:0:0:0:
256,160,59316,1,0,3:0:0:0:
176,192,59431,6,0,B|62:156|62:156|114:139,1,174.999995231629,14|0,1:3|0:0,0:0:0:0:
320,239,59778,6,0,B|391:335|391:335|339:317,1,174.999995231629,14|0,1:3|0:0,0:0:0:0:
231,115,60124,6,0,B|230:-3|230:-3|262:41,1,174.999995231629,14|0,1:3|0:0,0:0:0:0:
231,268,60470,6,0,B|161:365|161:365|162:309,1,174.999995231629,14|0,1:3|1:0,0:0:0:0:
320,144,60816,6,0,B|434:107|434:107|401:151,1,174.999995231629,14|2,1:3|0:0,0:0:0:0:
0,239,61278,6,0,P|130:224|261:220,1,262.499992847443,6|0,1:1|3:0,0:0:0:0:
330,176,61739,2,0,P|339:133|347:90,1,87.4999976158143,10|0,2:1|0:0,0:0:0:0:
337,263,61970,2,0,P|327:305|319:348,1,87.4999976158143,2|0,3:2|3:0,0:0:0:0:
496,227,62201,2,0,P|453:217|410:209,1,87.4999976158143,2|0,1:2|0:0,0:0:0:0:
156,265,62431,2,0,P|198:275|242:283,1,87.4999976158143,2|0,3:2|0:0,0:0:0:0:
347,90,62662,2,0,P|304:80|261:72,1,87.4999976158143,10|0,2:1|0:0,0:0:0:0:
0,28,62893,6,0,P|78:-2|147:46,1,174.999995231629,2|2,3:2|1:2,0:0:0:0:
162,156,63239,1,0,0:0:0:0:
106,241,63355,2,0,L|14:254,1,87.4999976158143,2|0,3:2|0:0,0:0:0:0:
191,298,63585,2,0,L|204:390,1,87.4999976158143,10|0,2:1|0:0,0:0:0:0:
248,213,63816,2,0,L|340:200,1,87.4999976158143,2|2,3:2|3:2,0:0:0:0:
512,352,64047,6,0,P|437:313|424:230,1,174.999995231629,2|0,1:2|3:0,0:0:0:0:
512,128,64508,1,10,2:1:0:0:
352,384,64739,1,2,3:2:0:0:
512,128,64970,2,0,L|425:115,1,87.4999976158143,2|0,1:2|0:0,0:0:0:0:
233,44,65201,1,2,3:2:0:0:
326,121,65316,2,0,L|338:34,2,87.4999976158143,2|10|0,3:2|2:1|0:0,0:0:0:0:
160,147,65662,6,0,L|73:134,1,87.4999976158143,2|2,3:2|3:2,0:0:0:0:
303,228,65893,2,0,L|315:141,1,87.4999976158143,2|0,1:2|0:0,0:0:0:0:
49,127,66124,2,0,L|61:213,1,87.4999976158143,2|0,3:2|0:0,0:0:0:0:
142,375,66355,2,0,L|155:289,1,87.4999976158143,10|0,2:1|0:0,0:0:0:0:
466,342,66585,6,0,P|388:372|319:324,1,174.999995231629,2|2,3:2|1:2,0:0:0:0:
303,228,66931,1,0,0:0:0:0:
360,143,67047,2,0,L|452:130,1,87.4999976158143,2|0,3:2|0:0,0:0:0:0:
318,323,67278,2,0,L|231:335,1,87.4999976158143,10|0,2:1|0:0,0:0:0:0:
512,370,67508,2,0,L|500:283,1,87.4999976158143,2|2,3:2|3:2,0:0:0:0:
169,26,67739,2,0,L|193:200,1,174.999995231629,2|0,1:2|3:0,0:0:0:0:
318,323,68201,1,10,2:1:0:0:
500,283,68431,1,2,3:2:0:0:
136,377,68662,6,0,B|51:339|51:339|93:175,1,262.499992847443,4|0,1:1|3:0,0:0:0:0:
16,16,69124,2,0,L|28:102,1,87.4999976158143,10|0,2:1|0:0,0:0:0:0:
93,175,69355,2,0,L|179:162,1,87.4999976158143,2|0,3:2|3:0,0:0:0:0:
448,32,69585,2,0,L|361:44,1,87.4999976158143,2|0,1:2|0:0,0:0:0:0:
253,277,69816,2,0,L|340:265,1,87.4999976158143,2|0,3:2|0:0,0:0:0:0:
487,352,70047,2,0,L|475:265,1,87.4999976158143,10|0,2:1|0:0,0:0:0:0:
196,87,70278,6,0,L|220:261,1,174.999995231629,2|2,3:2|1:2,0:0:0:0:
160,320,70624,1,0,0:0:0:0:
160,319,70739,2,0,P|117:330|74:334,1,87.4999976158143,2|0,3:2|0:0,0:0:0:0:
224,160,70970,2,0,P|266:148|309:144,1,87.4999976158143,10|0,2:1|0:0,0:0:0:0:
425,313,71201,2,0,P|381:309|339:297,1,87.4999976158143,2|2,3:2|3:2,0:0:0:0:
140,103,71431,2,0,P|128:145|124:188,1,87.4999976158143,2|0,1:2|0:0,0:0:0:0:
393,207,71662,2,0,P|404:164|408:121,1,87.4999976158143,0|0,3:0|0:0,0:0:0:0:
246,250,71893,2,0,P|241:293|231:335,1,87.4999976158143,10|0,2:1|0:0,0:0:0:0:
266,134,72124,2,0,P|270:90|280:48,1,87.4999976158143,2|2,3:2|3:2,0:0:0:0:
480,0,72355,5,2,1:2:0:0:
512,352,72585,1,2,3:2:0:0:
461,278,72701,2,0,L|288:250,1,174.999995231629,2|0,3:2|0:0,0:0:0:0:
240,176,73047,1,2,3:2:0:0:
175,326,73278,1,2,1:2:0:0:
346,147,73508,1,2,3:2:0:0:
416,384,73739,1,10,2:1:0:0:
240,176,73970,6,0,P|153:163|66:156,1,174.999995231629,2|2,3:2|1:2,0:0:0:0:
0,224,74431,1,2,3:2:0:0:
184,84,74662,1,10,2:1:0:0:
328,300,74893,1,2,3:2:0:0:
512,160,75124,1,2,1:2:0:0:
418,229,75355,1,0,3:0:0:0:
418,229,75470,1,0,0:0:0:0:
418,229,75585,2,0,L|398:143,1,87.4999976158143,10|0,2:1|0:0,0:0:0:0:
512,377,75816,2,0,L|492:291,1,87.4999976158143,2|0,3:2|0:0,0:0:0:0:
256,0,76047,6,0,L|315:255,1,262.499992847443,4|0,1:1|3:0,0:0:0:0:
377,309,76508,2,0,L|504:338,1,87.4999976158143,10|0,2:1|0:0,0:0:0:0:
256,128,76739,2,0,L|170:108,1,87.4999976158143,2|0,3:2|3:0,0:0:0:0:
206,364,76970,2,0,L|226:279,1,87.4999976158143,2|0,1:2|0:0,0:0:0:0:
426,72,77201,2,0,L|407:157,1,87.4999976158143,2|0,3:2|0:0,0:0:0:0:
335,231,77431,2,0,L|316:316,1,87.4999976158143,10|0,2:1|0:0,0:0:0:0:
0,288,77662,6,0,P|42:214|126:197,1,174.999995231629,2|2,3:2|1:2,0:0:0:0:
211,233,78008,1,0,0:0:0:0:
292,193,78124,2,0,P|313:154|326:112,1,87.4999976158143,2|0,3:2|0:0,0:0:0:0:
359,10,78355,2,0,P|315:11|272:20,1,87.4999976158143,10|0,2:1|0:0,0:0:0:0:
167,45,78585,2,0,P|189:82|219:114,1,87.4999976158143,2|2,3:2|3:2,0:0:0:0:
512,192,78816,6,0,P|382:209|254:241,1,262.499992847443,2|0,1:2|0:0,0:0:0:0:
192,320,79278,1,10,2:1:0:0:
368,176,79508,1,2,3:2:0:0:
176,341,79739,1,2,1:2:0:0:
2,108,79970,1,2,3:2:0:0:
59,39,80085,2,0,L|35:223,1,174.999995231629,2|0,3:2|0:0,0:0:0:0:
73,286,80431,2,0,L|159:297,1,87.4999976158143,2|0,3:2|3:0,0:0:0:0:
512,256,80662,5,2,1:2:0:0:
320,160,80893,1,2,3:2:0:0:
302,206,81008,1,2,3:2:0:0:
508,67,81239,1,2,3:2:0:0:
490,113,81354,1,2,3:2:0:0:
211,94,81585,6,0,P|295:73|382:63,1,174.999995231629,6|0,1:2|0:0,0:0:0:0:
512,224,81931,2,0,P|427:203|340:193,1,174.999995231629,2|0,3:2|0:0,0:0:0:0:
256,288,82278,1,2,3:2:0:0:
64,128,82508,2,0,P|53:85|48:42,1,87.4999976158143,2|0,1:2|0:0,0:0:0:0:
340,193,82739,2,0,P|329:150|324:107,1,87.4999976158143,2|0,3:2|0:0,0:0:0:0:
163,380,82970,2,0,P|152:337|147:294,1,87.4999976158143,10|0,2:1|0:0,0:0:0:0:
224,32,83201,1,2,3:2:0:0:
173,107,83316,1,2,3:2:0:0:
208,7,83431,1,6,1:1:0:0:
512,96,83662,6,0,P|427:104|382:176,1,174.999995231629,10|0,1:2|1:0,0:0:0:0:
485,347,84008,2,0,P|519:269|480:194,1,174.999995231629,10|0,2:2|0:0,0:0:0:0:
281,198,84355,2,0,P|330:266|415:270,1,174.999995231629,10|0,1:2|0:0,0:0:0:0:
313,99,84701,2,0,P|228:107|183:179,1,174.999995231629,10|0,1:2|0:0,0:0:0:0:
382,176,85047,2,0,P|416:98|377:23,1,174.999995231629,10|2,0:2|1:2,0:0:0:0:
192,0,85508,6,0,L|105:14,1,87.4999976158143,2|2,3:2|3:2,0:0:0:0:
224,192,85739,2,0,L|238:278,1,87.4999976158143,10|0,2:1|0:0,0:0:0:0:
416,159,85970,2,0,L|502:144,1,87.4999976158143,2|0,3:2|0:0,0:0:0:0:
0,128,86201,5,10,1:1:0:0:
512,256,86547,1,10,1:1:0:0:
288,0,86893,1,2,3:2:0:0:
224,384,87124,1,14,1:1:0:0:
256,192,87355,5,2,0:2:0:0:
256,192,87470,1,2,0:2:0:0:
256,192,87585,1,10,2:1:0:0:
256,192,87701,12,2,90816,1:2:0:0:
