osu file format v14

[General]
AudioFilename: audio.mp3
AudioLeadIn: 0
PreviewTime: 60816
Countdown: 0
SampleSet: Soft
StackLeniency: 0.7
Mode: 0
LetterboxInBreaks: 0
WidescreenStoryboard: 1

[Editor]
Bookmarks: 355,9585,20662,28047,42816,87124
DistanceSpacing: 0.5
BeatDivisor: 4
GridSize: 16
TimelineZoom: 1.9

[Metadata]
Title:astral ability (Game Ver.)
TitleUnicode:astral ability (Game Ver.)
Artist:Hashimoto Miyuki, Sasaki Sayaka
ArtistUnicode:橋本みゆき、佐咲紗花
Creator:tomatas95
Version:Light Insane
Source:リドルジョーカー
Tags:Riddle Joker ゆずソフト yuzusoft op カー オリジナル サウンドトラック saturnalize original opening vn mordred soundtrack 中山♥マミ nakayama mami famishin 井ノ原 智 inohara satoshi newton- asai yasuo video game eroge visual novel japanese pop j-pop jpop
BeatmapID:3223085
BeatmapSetID:1519872

[Difficulty]
HPDrainRate:5
CircleSize:3.8
OverallDifficulty:7
ApproachRate:8.5
SliderMultiplier:2.05
SliderTickRate:1

[Events]
//Background and Video events
0,0,"Waifuuuuu.jpg",0,0
Video,0,"I Love Yuzusoft.mp4"
//Break Periods
//Storyboard Layer 0 (Background)
//Storyboard Layer 1 (Fail)
//Storyboard Layer 2 (Pass)
//Storyboard Layer 3 (Foreground)
//Storyboard Layer 4 (Overlay)
//Storyboard Sound Samples

[TimingPoints]
355,461.538461538462,4,2,53,25,1,0
355,-142.857142857143,4,2,53,25,0,0
585,-142.857142857143,4,2,1,35,0,0
1278,-142.857142857143,4,2,53,35,0,0
1739,-142.857142857143,4,2,1,35,0,0
2201,-142.857142857143,4,2,52,50,0,0
2431,-142.857142857143,4,2,53,50,0,0
2662,-142.857142857143,4,2,52,50,0,0
2778,-142.857142857143,4,2,53,50,0,0
3124,-142.857142857143,4,2,52,50,0,0
4047,-142.857142857143,4,2,53,50,0,0
4508,-142.857142857143,4,2,52,50,0,0
4624,-142.857142857143,4,2,53,50,0,0
4970,-142.857142857143,4,2,52,50,0,0
5085,-142.857142857143,4,2,53,50,0,0
5431,-142.857142857143,4,2,52,50,0,0
5546,-142.857142857143,4,2,53,50,0,0
5893,-142.857142857143,4,2,52,50,0,0
6124,-142.857142857143,4,2,53,50,0,0
6355,-142.857142857143,4,2,52,50,0,0
6470,-142.857142857143,4,2,53,50,0,0
6816,-142.857142857143,4,2,52,50,0,0
6931,-142.857142857143,4,2,53,50,0,0
7162,-142.857142857143,4,2,52,50,0,0
7277,-142.857142857143,4,2,53,50,0,0
7739,-111.111111111111,4,2,53,70,0,0
7970,-111.111111111111,4,2,53,65,0,0
8662,-80,4,2,53,70,0,0
8893,-80,4,2,53,65,0,0
9124,-80,4,2,53,70,0,0
9585,-100,4,2,53,65,0,0
9701,-100,4,2,53,35,0,0
10508,-100,4,2,53,55,0,0
10624,-100,4,2,53,35,0,0
11431,-100,4,2,53,55,0,0
11547,-100,4,2,53,35,0,0
12354,-100,4,2,53,55,0,0
12816,-100,4,2,53,50,0,0
13278,-100,4,2,53,65,0,0
13624,-100,4,2,53,55,0,0
14201,-100,4,2,53,65,0,0
14547,-100,4,2,53,55,0,0
15124,-125,4,2,53,65,0,0
15470,-125,4,2,53,55,0,0
16970,-111.111111111111,4,2,53,55,0,0
17201,-80,4,2,53,75,0,0
18816,-80,4,2,53,65,0,0
19278,-86.9565217391304,4,2,53,65,0,0
19739,-86.9565217391304,4,2,53,75,0,0
20662,-90.9090909090909,4,2,53,75,0,0
27124,-100,4,2,53,60,0,0
28047,-125,4,2,53,45,0,0
28278,-125,4,2,53,55,0,0
35431,-125,4,2,53,45,0,0
35662,-125,4,2,53,55,0,0
40970,-142.857142857143,4,2,53,50,0,0
42816,-111.111111111111,4,2,53,55,0,0
43047,-111.111111111111,4,2,53,65,0,0
50201,-111.111111111111,4,2,53,55,0,0
50431,-111.111111111111,4,2,53,65,0,0
57585,-111.111111111111,4,2,53,70,0,0
59431,-80,4,2,53,65,0,0
59778,-80,4,2,53,70,0,0
60124,-80,4,2,53,75,0,0
60470,-80,4,2,53,80,0,0
60816,-80,4,2,53,85,0,0
61047,-80,4,2,53,50,0,0
61278,-80,4,2,53,85,0,1
68201,-80,4,2,53,85,0,0
68662,-80,4,2,53,85,0,1
75585,-80,4,2,53,85,0,0
76047,-80,4,2,53,85,0,1
83662,-80,4,2,53,80,0,1
85508,-80,4,2,53,85,0,1
87124,-100,4,2,53,75,0,0
91508,-100,4,2,53,55,0,0
91739,-100,4,2,53,60,0,0
91970,-100,4,2,53,65,0,0
92201,-100,4,2,53,70,0,0
92431,-100,4,2,53,75,0,0
92662,-100,4,2,53,80,0,0
93124,-100,4,2,53,70,0,0
93585,-100,4,2,53,60,0,0
93816,-100,4,2,53,55,0,0
94162,-142.857142857143,4,2,53,55,0,0
94508,-125,4,2,53,35,0,0
94739,-125,4,2,53,50,0,0
94970,-125,4,2,53,55,0,0
96585,-100,4,2,53,70,0,0
96931,-80,4,2,53,80,0,0
97162,-80,4,2,53,5,0,0
97278,-66.6666666666667,4,2,53,90,0,0
97739,-66.6666666666667,4,2,53,5,0,0

[Colours]
Combo1 : 231,131,196
Combo2 : 255,170,181
Combo3 : 253,240,149
Combo4 : 165,228,216
Combo5 : 145,108,213

[HitObjects]
18,261,355,6,0,B|41:229|124:222|154:289|154:289|190:371|96:442|-3:337|85:264|110:232|172:257|207:299|230:319|302:278,1,573.999982482911,4|0,0:0|3:0,0:0:0:0:
298,280,2431,6,0,L|284:207,1,71.7499978103638,2|0,0:0|3:0,0:0:0:0:
278,171,2778,1,2,0:0:0:0:
278,171,2893,1,2,0:0:0:0:
331,94,3124,1,2,3:2:0:0:
401,149,3355,2,0,L|414:219,1,71.7499978103638,2|0,0:0|3:0,0:0:0:0:
393,292,3701,2,0,P|436:294|493:232,1,107.624996715546,2|0,0:0|0:0,0:0:0:0:
485,255,4278,6,0,L|499:328,1,71.7499978103638,2|0,0:0|3:0,0:0:0:0:
510,373,4624,1,2,0:0:0:0:
510,373,4739,1,2,0:0:0:0:
406,362,4970,2,0,L|392:289,1,71.7499978103638,2|2,3:2|0:0,0:0:0:0:
301,331,5431,2,0,L|308:370,2,35.8749989051819,2|2|2,3:2|0:0|0:0,0:0:0:0:
301,331,6124,6,0,P|263:340|224:329,1,71.7499978103638,2|0,0:0|3:0,0:0:0:0:
199,309,6470,1,2,0:0:0:0:
199,309,6585,1,2,0:0:0:0:
151,231,6816,1,2,3:2:0:0:
151,231,6931,2,0,L|156:157,1,71.7499978103638,2|2,0:0|3:2,0:0:0:0:
161,117,7278,1,2,0:0:0:0:
81,79,7508,1,2,0:0:0:0:
20,227,7739,5,6,1:2:0:0:
64,309,7970,1,2,3:2:0:0:
64,309,8085,2,0,L|58:359,1,46.1249985923767,2|0,3:2|0:0,0:0:0:0:
157,361,8316,1,2,3:2:0:0:
157,361,8431,2,0,L|163:311,1,46.1249985923767,2|0,3:2|1:0,0:0:0:0:
159,208,8662,6,0,B|216:187|216:187|294:221,1,128.125,6|2,3:2|3:2,0:0:0:0:
389,344,9124,2,0,B|333:369|333:369|254:331,1,128.125,4|2,1:2|3:2,0:0:0:0:
159,208,9585,5,6,1:1:0:0:
155,187,10508,1,2,1:2:0:0:
151,166,11431,1,2,1:2:0:0:
147,145,12355,1,2,1:2:0:0:
386,17,13047,1,2,1:2:0:0:
386,17,13278,5,2,1:2:0:0:
390,38,14201,1,2,1:2:0:0:
437,353,14893,1,2,1:1:0:0:
437,353,15124,6,0,B|514:289|506:184|397:104|320:213|381:261,1,328,2|2,1:2|1:2,0:0:0:0:
325,365,16278,1,2,1:2:0:0:
186,324,16508,1,10,2:1:0:0:
47,283,16739,1,2,0:0:0:0:
47,283,16855,1,0,0:0:0:0:
47,283,16969,5,2,1:2:0:0:
186,324,17201,2,0,P|175:262|199:203,1,128.125,10|0,1:2|1:0,0:0:0:0:
297,273,17547,2,0,P|237:252|198:203,1,128.125,10|0,2:2|0:0,0:0:0:0:
308,151,17893,2,0,P|260:192|198:203,1,128.125,10|0,1:2|0:0,0:0:0:0:
209,81,18239,2,0,P|220:143|198:203,1,128.125,10|0,2:2|0:0,0:0:0:0:
98,133,18585,2,0,P|157:153|197:202,1,128.125,10|2,0:2|1:2,0:0:0:0:
182,345,19047,5,2,3:2:0:0:
182,345,19162,1,2,3:2:0:0:
182,345,19278,1,10,3:2:0:0:
197,202,19508,1,2,3:2:0:0:
322,354,19739,2,0,L|449:335,1,117.875002248287,10|0,1:1|0:0,0:0:0:0:
498,265,20085,2,0,L|371:246,1,117.875002248287,10|0,1:1|0:0,0:0:0:0:
355,165,20431,2,0,L|435:152,1,58.9375011241436,2|0,3:2|0:0,0:0:0:0:
477,40,20662,6,0,B|438:43|438:43|409:26|409:26|350:29,1,112.750003440857,6|2,1:1|0:2,0:0:0:0:
275,5,21008,1,0,0:2:0:0:
275,5,21124,2,0,P|292:52|261:126,1,112.750003440857,10|2,2:1|0:0,0:0:0:0:
156,113,21470,1,0,0:0:0:0:
156,113,21586,2,0,P|139:66|170:-8,1,112.750003440857,2|2,1:2|0:0,0:0:0:0:
219,63,21931,1,0,0:0:0:0:
219,63,22047,1,10,2:1:0:0:
244,227,22278,1,2,0:0:0:0:
244,227,22393,1,0,0:0:0:0:
244,227,22508,6,0,P|201:216|111:230,1,112.750003440857,2|2,1:2|0:0,0:0:0:0:
184,320,22855,1,0,0:0:0:0:
184,320,22970,2,0,P|172:277|114:206,1,112.750003440857,8|2,2:1|0:0,0:0:0:0:
97,206,23316,1,0,0:0:0:0:
97,206,23431,1,2,1:2:0:0:
34,356,23662,1,2,0:0:0:0:
34,356,23778,1,0,0:0:0:0:
34,356,23893,2,0,L|18:234,1,112.750003440857,10|2,2:1|0:0,0:0:0:0:
4,132,24239,1,0,0:0:0:0:
4,132,24354,6,0,L|20:254,1,112.750003440857,2|2,1:2|0:0,0:0:0:0:
18,243,24701,1,0,0:0:0:0:
18,243,24816,1,10,2:1:0:0:
184,320,25047,1,2,0:0:0:0:
184,320,25162,1,0,0:0:0:0:
184,320,25278,2,0,P|185:258|171:196,1,112.750003440857,2|2,1:2|0:0,0:0:0:0:
286,202,25624,1,0,0:0:0:0:
286,202,25740,2,0,P|285:264|299:326,1,112.750003440857,10|2,2:1|0:0,0:0:0:0:
245,383,26085,1,0,0:0:0:0:
245,383,26201,5,2,1:2:0:0:
429,384,26431,1,2,0:0:0:0:
429,384,26547,1,0,0:0:0:0:
429,384,26662,2,0,L|439:259,1,112.750003440857,10|2,2:1|0:0,0:0:0:0:
450,192,27008,1,0,0:0:0:0:
450,192,27124,1,2,1:3:0:0:
16,20,28047,5,6,1:2:0:0:
93,92,28278,1,2,3:2:0:0:
93,92,28508,2,0,P|139:101|180:87,1,82,10|2,0:2|3:2,0:0:0:0:
229,38,28855,2,0,L|292:43,1,41,2|2,3:2|1:2,0:0:0:0:
326,97,29085,2,0,L|418:86,1,82,2|0,3:2|0:0,0:0:0:0:
487,114,29431,2,0,P|491:71|463:29,1,82,10|0,0:2|3:0,0:0:0:0:
407,87,29893,5,0,1:0:0:0:
433,227,30124,1,2,3:2:0:0:
433,227,30354,2,0,P|477:220|530:238,1,82,10|2,0:2|3:2,0:0:0:0:
488,301,30701,2,0,P|467:297|448:302,1,41,2|2,3:2|1:2,0:0:0:0:
397,361,30931,2,0,P|353:371|304:345,1,82,2|0,3:2|0:0,0:0:0:0:
347,213,31278,2,0,L|358:309,1,82,10|0,0:2|3:0,0:0:0:0:
272,271,31739,5,0,1:0:0:0:
177,363,31970,1,2,3:2:0:0:
177,363,32201,2,0,L|186:271,1,82,10|2,0:2|3:2,0:0:0:0:
98,301,32547,2,0,L|93:349,1,41,2|2,3:2|1:2,0:0:0:0:
6,361,32778,2,0,L|15:269,1,82,2|0,3:2|0:0,0:0:0:0:
30,194,33124,1,10,0:2:0:0:
98,301,33355,1,2,3:2:0:0:
174,194,33585,5,0,1:0:0:0:
174,50,33816,1,2,3:2:0:0:
30,50,34047,1,10,0:2:0:0:
30,194,34278,1,2,3:2:0:0:
30,194,34393,1,2,3:2:0:0:
30,194,34508,1,2,1:2:0:0:
102,222,34739,1,2,3:2:0:0:
0,122,34970,1,10,0:2:0:0:
102,20,35201,1,0,3:0:0:0:
203,122,35431,5,6,1:2:0:0:
288,89,35662,1,2,3:2:0:0:
288,89,35893,2,0,L|280:-7,1,82,10|2,0:2|3:2,0:0:0:0:
363,0,36239,2,0,L|406:20,1,41,2|2,3:2|1:2,0:0:0:0:
429,95,36470,2,0,L|349:149,1,82,2|0,3:2|0:0,0:0:0:0:
295,246,36816,2,0,P|301:204|279:154,1,82,10|0,0:2|3:0,0:0:0:0:
216,215,37278,5,0,1:0:0:0:
254,343,37508,1,2,3:2:0:0:
254,343,37739,2,0,P|301:335|341:350,1,82,10|2,0:2|3:2,0:0:0:0:
413,384,38085,2,0,P|412:364|420:336,1,41,2|2,3:2|1:2,0:0:0:0:
491,283,38316,2,0,L|506:390,1,82,2|0,3:2|0:0,0:0:0:0:
416,343,38662,2,0,L|401:236,1,82,10|0,0:2|3:0,0:0:0:0:
383,110,39124,5,2,1:2:0:0:
394,186,39355,1,2,3:2:0:0:
372,34,39585,2,0,L|461:25,1,82,10|2,0:2|3:2,0:0:0:0:
500,27,39931,1,0,3:0:0:0:
500,27,40047,1,2,1:2:0:0:
512,104,40278,1,2,3:2:0:0:
383,110,40508,1,10,0:2:0:0:
372,34,40739,1,2,3:2:0:0:
450,162,40970,5,2,1:2:0:0:
450,162,41201,2,0,L|459:244,1,71.7499978103638,2|0,0:3|0:0,0:0:0:0:
457,233,41547,1,2,0:3:0:0:
349,247,41778,1,2,0:3:0:0:
349,247,41893,2,0,L|340:165,1,71.7499978103638,2|2,0:3|0:3,0:0:0:0:
372,34,42355,1,10,2:1:0:0:
25,33,42816,6,0,B|20:64|20:64|24:84|24:84|14:135,1,92.2499971847535,6|2,1:1|0:0,0:0:0:0:
13,175,43162,1,0,3:0:0:0:
13,175,43278,1,10,2:1:0:0:
119,238,43508,1,2,3:2:0:0:
119,238,43624,1,0,3:0:0:0:
119,238,43739,2,0,P|123:184|110:128,1,92.2499971847535,2|2,1:2|3:2,0:0:0:0:
238,190,44201,2,0,P|234:244|247:300,1,92.2499971847535,10|2,2:1|3:2,0:0:0:0:
258,368,44547,1,0,3:0:0:0:
258,368,44662,6,0,B|215:353|215:353|140:375,1,92.2499971847535,2|2,1:2|3:2,0:0:0:0:
130,384,45008,1,0,3:0:0:0:
130,384,45124,2,0,L|18:368,1,92.2499971847535,10|2,2:1|0:0,0:0:0:0:
0,254,45585,2,0,L|112:238,1,92.2499971847535,2|10,1:2|2:2,0:0:0:0:
141,238,45931,1,2,3:2:0:0:
141,238,46047,1,10,2:1:0:0:
101,129,46278,1,2,3:2:0:0:
61,20,46508,6,0,B|104:6|104:6|159:25,1,92.2499971847535,2|2,1:2|0:0,0:0:0:0:
207,123,46970,1,10,2:1:0:0:
330,94,47201,1,2,3:2:0:0:
330,94,47316,1,0,3:0:0:0:
330,94,47431,2,0,L|312:-19,1,92.2499971847535,2|2,1:2|3:2,0:0:0:0:
440,0,47893,2,0,L|458:113,1,92.2499971847535,10|2,2:1|3:2,0:0:0:0:
477,177,48239,1,0,3:0:0:0:
477,177,48355,6,0,P|432:162|374:179,1,92.2499971847535,2|2,1:2|3:2,0:0:0:0:
336,233,48701,1,0,3:0:0:0:
336,233,48816,2,0,P|381:248|439:231,1,92.2499971847535,10|2,2:1|0:0,0:0:0:0:
454,91,49278,1,2,1:2:0:0:
454,91,49393,1,10,2:2:0:0:
454,91,49508,1,10,2:2:0:0:
424,239,49739,1,10,2:1:0:0:
491,384,49970,1,2,3:2:0:0:
512,307,50201,6,0,B|414:289|448:376|342:352,1,184.499994369507,6|10,1:2|2:1,0:0:0:0:
179,265,50893,1,2,3:2:0:0:
179,265,51008,1,0,3:0:0:0:
179,265,51124,2,0,P|185:315|173:390,1,92.2499971847535,2|2,1:2|3:2,0:0:0:0:
343,352,51585,2,0,P|339:306|345:260,1,92.2499971847535,10|2,2:1|3:2,0:0:0:0:
264,365,52047,6,0,L|260:242,1,92.2499971847535,2|2,1:2|3:2,0:0:0:0:
262,233,52393,1,2,3:2:0:0:
262,233,52508,2,0,L|258:110,1,92.2499971847535,10|2,2:1|3:2,0:0:0:0:
257,25,52970,1,2,1:2:0:0:
257,25,53085,2,0,P|212:35|165:24,1,92.2499971847535,10|2,2:2|3:2,0:0:0:0:
115,1,53431,1,10,2:1:0:0:
23,27,53662,1,2,3:2:0:0:
83,185,53893,6,0,L|92:93,1,92.2499971847535,2|2,1:2|0:0,0:0:0:0:
0,174,54355,1,10,2:1:0:0:
175,201,54585,1,2,3:2:0:0:
175,201,54701,1,0,3:0:0:0:
175,201,54816,2,0,P|171:251|175:307,1,92.2499971847535,2|2,1:2|3:2,0:0:0:0:
63,355,55278,2,0,P|67:305|63:249,1,92.2499971847535,10|2,2:1|3:2,0:0:0:0:
160,365,55739,6,0,B|211:376|238:326|238:326|263:301|330:323,1,184.499994369507,2|10,1:2|2:1,0:0:0:0:
457,384,56431,1,2,3:2:0:0:
457,384,56547,1,2,3:2:0:0:
457,384,56662,1,2,1:2:0:0:
323,321,56893,1,10,2:2:0:0:
378,185,57124,1,10,2:1:0:0:
512,248,57355,1,2,3:2:0:0:
418,285,57585,5,6,1:2:0:0:
473,148,57816,1,2,3:2:0:0:
473,148,57931,1,0,0:0:0:0:
473,148,58047,2,0,P|470:100|475:48,1,92.2499971847535,10|0,2:1|3:0,0:0:0:0:
378,185,58508,2,0,P|374:139|377:93,1,92.2499971847535,0|0,1:2|3:0,0:0:0:0:
386,49,58855,1,0,3:0:0:0:
386,49,58970,1,10,2:1:0:0:
294,236,59201,1,0,3:0:0:0:
294,236,59316,1,0,3:0:0:0:
294,236,59431,6,0,B|234:207|234:207|166:234,1,128.125,14|0,1:3|0:0,0:0:0:0:
287,353,59778,2,0,B|316:293|316:293|289:225,1,128.125,14|0,1:3|0:0,0:0:0:0:
170,346,60124,2,0,B|230:375|230:375|298:348,1,128.125,14|0,1:3|0:0,0:0:0:0:
176,229,60470,2,0,B|147:289|147:289|174:357,1,128.125,14|0,1:3|1:0,0:0:0:0:
231,289,60816,1,14,1:3:0:0:
12,110,61278,6,0,L|143:101,1,128.125,6|0,1:1|0:0,0:0:0:0:
82,19,61624,1,0,3:0:0:0:
82,19,61739,2,0,L|16:23,1,64.0625,10|0,2:1|0:0,0:0:0:0:
139,101,61970,2,0,L|204:105,1,64.0625,2|0,3:2|3:0,0:0:0:0:
283,155,62201,2,0,P|294:87|254:22,1,128.125,2|2,1:2|3:2,0:0:0:0:
365,5,62547,1,0,0:0:0:0:
365,5,62662,2,0,P|391:26|429:25,1,64.0625,10|0,2:1|0:0,0:0:0:0:
468,123,62893,6,0,P|403:147|367:214,1,128.125,2|2,3:2|1:2,0:0:0:0:
367,345,63355,1,2,3:2:0:0:
367,345,63470,1,0,0:0:0:0:
367,345,63585,2,0,P|361:306|372:269,1,64.0625,10|0,2:1|0:0,0:0:0:0:
480,197,63816,2,0,P|452:216|436:248,1,64.0625,2|2,3:2|3:2,0:0:0:0:
492,356,64047,6,0,P|442:341|327:357,1,128.125,2|0,1:2|3:0,0:0:0:0:
276,372,64393,1,0,0:0:0:0:
276,372,64508,2,0,P|271:335|277:299,1,64.0625,10|0,2:1|0:0,0:0:0:0:
180,378,64739,1,2,3:2:0:0:
180,378,64855,1,2,3:2:0:0:
180,378,64970,6,0,P|182:335|148:257,1,128.125,2|2,1:2|3:2,0:0:0:0:
180,138,65316,2,0,P|182:181|148:259,1,128.125,2|0,3:2|0:0,0:0:0:0:
101,372,65662,1,2,3:2:0:0:
101,372,65778,1,2,3:2:0:0:
101,372,65893,2,0,P|103:343|86:298,1,64.0625,2|0,1:2|0:0,0:0:0:0:
107,151,66124,2,0,P|104:179|80:221,1,64.0625,2|0,3:2|0:0,0:0:0:0:
8,370,66355,2,0,P|5:341|23:296,1,64.0625,10|0,2:1|0:0,0:0:0:0:
148,257,66585,6,0,L|302:268,1,128.125,2|2,3:2|1:2,0:0:0:0:
269,173,66931,1,0,0:0:0:0:
269,173,67047,2,0,L|179:166,1,64.0625,2|0,3:2|0:0,0:0:0:0:
166,86,67278,2,0,L|207:24,1,64.0625,10|0,2:1|0:0,0:0:0:0:
291,39,67508,2,0,L|323:106,1,64.0625,2|2,3:2|3:2,0:0:0:0:
201,32,67739,6,0,L|57:18,1,128.125,2|0,1:2|3:0,0:0:0:0:
30,16,68085,1,2,0:0:0:0:
30,16,68201,1,10,2:1:0:0:
93,130,68431,1,2,3:2:0:0:
9,302,68662,6,0,B|53:303|53:303|76:286|76:286|136:286,1,128.125,4|0,1:1|0:0,0:0:0:0:
195,231,69008,1,0,3:0:0:0:
195,231,69124,2,0,P|166:210|120:210,1,64.0625,10|0,2:1|0:0,0:0:0:0:
193,341,69355,2,0,P|164:361|118:362,1,64.0625,2|0,3:2|3:0,0:0:0:0:
263,287,69585,2,0,L|284:134,1,128.125,2|0,1:2|0:0,0:0:0:0:
328,85,69931,1,0,3:0:0:0:
328,85,70047,2,0,P|358:94|404:81,1,64.0625,10|0,2:1|0:0,0:0:0:0:
506,20,70278,6,0,L|491:181,1,128.125,2|2,3:2|1:2,0:0:0:0:
492,324,70739,1,2,3:2:0:0:
492,324,70855,1,0,0:0:0:0:
492,324,70970,2,0,P|458:330|429:321,1,64.0625,10|0,2:1|0:0,0:0:0:0:
428,193,71201,2,0,P|416:225|393:246,1,64.0625,2|2,3:2|3:2,0:0:0:0:
282,182,71431,2,0,P|304:208|310:238,1,64.0625,2|0,1:2|0:0,0:0:0:0:
199,302,71662,2,0,P|232:295|262:305,1,64.0625,0|0,3:0|0:0,0:0:0:0:
348,317,71893,1,10,2:1:0:0:
366,133,72124,1,2,3:2:0:0:
366,133,72239,1,2,3:2:0:0:
366,133,72355,6,0,P|381:70|333:8,1,128.125,2|2,1:2|3:2,0:0:0:0:
304,82,72701,2,0,L|145:65,1,128.125,2|0,3:2|0:0,0:0:0:0:
107,36,73047,2,0,P|99:67|105:98,1,64.0625,2|2,3:2|3:2,0:0:0:0:
8,21,73278,2,0,P|22:82|-3:164,1,128.125,2|2,1:2|3:2,0:0:0:0:
14,189,73623,1,0,0:0:0:0:
14,189,73739,1,10,2:1:0:0:
19,348,73970,1,2,3:2:0:0:
19,348,74085,1,0,3:0:0:0:
19,348,74201,6,0,L|26:255,1,64.0625,2|0,1:2|0:0,0:0:0:0:
14,189,74431,2,0,L|77:193,1,64.0625,2|0,3:2|0:0,0:0:0:0:
172,183,74662,2,0,L|167:246,1,64.0625,10|0,2:1|0:0,0:0:0:0:
177,342,74893,2,0,L|113:337,1,64.0625,2|0,3:2|3:0,0:0:0:0:
263,384,75124,6,0,P|266:333|252:235,1,128.125,2|0,1:2|3:0,0:0:0:0:
260,210,75470,1,0,0:0:0:0:
260,210,75585,1,10,2:1:0:0:
352,351,75816,1,2,3:2:0:0:
507,219,76047,6,0,B|450:187|450:187|381:212,1,128.125,4|0,1:1|0:0,0:0:0:0:
356,287,76393,1,0,3:0:0:0:
356,287,76508,2,0,L|350:366,1,64.0625,10|0,2:1|0:0,0:0:0:0:
264,273,76739,2,0,L|258:194,1,64.0625,2|0,3:2|3:0,0:0:0:0:
260,78,76970,2,0,P|320:101|392:67,1,128.125,2|2,1:2|3:2,0:0:0:0:
458,30,77316,1,0,0:0:0:0:
458,30,77431,2,0,L|464:95,1,64.0625,10|0,2:1|0:0,0:0:0:0:
390,208,77662,6,0,L|376:65,1,128.125,2|2,3:2|1:2,0:0:0:0:
158,7,78124,1,2,3:2:0:0:
158,7,78239,1,0,0:0:0:0:
158,7,78355,2,0,P|162:43|151:82,1,64.0625,10|0,2:1|0:0,0:0:0:0:
32,77,78585,2,0,P|65:91|93:120,1,64.0625,2|2,3:2|3:2,0:0:0:0:
16,237,78816,2,0,P|57:197|156:191,1,128.125,2|0,1:2|3:0,0:0:0:0:
130,268,79162,1,0,0:0:0:0:
130,268,79278,2,0,P|99:280|77:307,1,64.0625,10|0,2:1|0:0,0:0:0:0:
36,347,79508,2,0,P|53:318|83:301,1,64.0625,2|2,3:2|3:2,0:0:0:0:
221,375,79739,6,0,P|228:324|198:222,1,128.125,2|2,1:2|3:2,0:0:0:0:
370,251,80085,2,0,P|363:302|393:404,1,128.125,2|0,3:2|0:0,0:0:0:0:
300,377,80431,1,2,3:2:0:0:
294,176,80662,2,0,P|294:115|256:38,1,128.125,2|2,1:2|3:2,0:0:0:0:
369,4,81008,2,0,P|421:34|507:40,1,128.125,2|2,3:2|3:2,0:0:0:0:
448,143,81355,2,0,P|415:162|385:206,1,64.0625,2|0,3:2|0:0,0:0:0:0:
378,376,81585,6,0,L|543:358,1,128.125,6|0,1:2|0:0,0:0:0:0:
502,267,81931,2,0,L|359:282,1,128.125,2|0,3:2|0:0,0:0:0:0:
397,181,82278,2,0,L|475:172,1,64.0625,2|2,3:2|3:2,0:0:0:0:
487,42,82508,2,0,P|459:48|414:40,1,64.0625,2|0,1:2|0:0,0:0:0:0:
321,33,82739,2,0,P|341:57|353:86,1,64.0625,2|0,3:2|0:0,0:0:0:0:
397,180,82970,2,0,P|407:150|426:125,1,64.0625,10|0,2:1|0:0,0:0:0:0:
489,43,83201,1,2,3:2:0:0:
489,43,83316,1,2,3:2:0:0:
489,43,83431,5,6,1:1:0:0:
262,117,83662,2,0,B|206:141|206:141|144:114,1,128.125,10|0,1:2|1:0,0:0:0:0:
206,13,84008,2,0,B|198:73|198:73|144:114,1,128.125,10|0,2:2|0:0,0:0:0:0:
88,10,84355,2,0,B|136:46|136:46|144:114,1,128.125,10|0,1:2|0:0,0:0:0:0:
26,111,84701,2,0,B|81:87|81:87|144:114,1,128.125,10|0,1:2|0:0,0:0:0:0:
83,214,85047,2,0,B|90:153|90:153|144:114,1,128.125,10|2,0:2|1:2,0:0:0:0:
202,370,85508,6,0,L|216:287,1,64.0625,2|2,3:2|3:2,0:0:0:0:
168,187,85739,2,0,L|217:227,1,64.0625,10|0,2:1|0:0,0:0:0:0:
343,249,85970,2,0,L|282:270,1,64.0625,2|0,3:2|0:0,0:0:0:0:
453,370,86201,2,0,B|446:283|446:283|466:231,1,128.125,10|0,1:1|0:0,0:0:0:0:
468,119,86547,2,0,B|475:206|475:206|455:258,1,128.125,10|0,1:1|0:0,0:0:0:0:
343,249,86893,2,0,L|350:162,1,64.0625,2|2,3:2|3:2,0:0:0:0:
413,43,87124,6,0,B|367:27|367:27|297:46,1,102.5,14|2,1:1|0:2,0:0:0:0:
233,113,87470,1,2,0:2:0:0:
233,113,87585,2,0,P|236:64|221:-2,1,102.5,10|2,2:1|0:0,0:0:0:0:
139,15,87931,1,0,0:0:0:0:
138,14,88047,2,0,P|147:65|143:116,1,102.5,2|0,1:2|0:0,0:0:0:0:
58,123,88393,1,0,0:0:0:0:
58,123,88508,1,10,2:1:0:0:
11,271,88739,1,2,0:0:0:0:
11,271,88855,1,0,0:0:0:0:
11,271,88970,6,0,P|64:260|114:279,1,102.5,2|2,1:2|0:0,0:0:0:0:
57,358,89316,1,0,0:0:0:0:
57,358,89431,2,0,P|73:306|115:272,1,102.5,10|2,2:1|0:0,0:0:0:0:
157,283,89778,1,0,0:0:0:0:
157,283,89893,1,2,1:2:0:0:
271,371,90124,1,2,3:2:0:0:
271,371,90239,1,0,0:0:0:0:
271,371,90355,2,0,L|255:258,1,102.5,10|2,2:1|0:0,0:0:0:0:
157,283,90701,1,0,0:0:0:0:
157,283,90817,6,0,L|173:396,1,102.5,2|2,1:2|0:0,0:0:0:0:
271,371,91162,1,0,0:0:0:0:
271,371,91278,1,10,2:1:0:0:
192,199,91508,1,2,0:3:0:0:
192,199,91624,1,2,0:3:0:0:
192,199,91739,6,0,L|256:185,1,51.25,2|2,1:3|0:3,0:0:0:0:
294,78,91970,2,0,L|308:141,1,51.25,2|2,0:3|0:3,0:0:0:0:
415,180,92201,2,0,L|351:194,1,51.25,10|2,1:3|0:3,0:0:0:0:
313,301,92431,2,0,L|299:237,1,51.25,2|2,0:3|0:3,0:0:0:0:
294,78,92662,6,0,B|345:88|345:88|411:58,1,102.5,14|0,1:2|0:0,0:0:0:0:
486,73,93008,1,0,0:0:0:0:
486,73,93124,2,0,P|483:51|466:11,1,51.25,10|0,2:2|0:0,0:0:0:0:
390,67,93355,1,2,0:3:0:0:
390,67,93470,1,2,0:3:0:0:
390,67,93585,5,2,1:2:0:0:
472,170,93816,1,2,0:3:0:0:
474,186,93931,1,2,0:3:0:0:
476,202,94047,1,2,0:3:0:0:
478,222,94162,2,0,L|472:318,1,71.7499978103638,2|0,1:3|0:0,0:0:0:0:
473,293,94508,5,6,1:2:0:0:
391,363,94739,1,2,3:2:0:0:
292,310,94970,2,0,L|300:210,1,82,10|0,2:1|3:0,0:0:0:0:
214,225,95316,1,2,2:2:0:0:
214,225,95431,6,0,L|210:275,1,41,2|2,1:2|2:2,0:0:0:0:
202,358,95662,1,2,3:2:0:0:
178,342,95777,1,2,2:2:0:0:
150,334,95892,1,10,2:1:0:0:
122,337,96008,1,2,2:2:0:0:
96,348,96124,2,0,P|56:358|3:342,1,82,2|8,3:2|0:2,0:0:0:0:
11,203,96585,6,0,P|57:212|111:191,1,102.5,6|8,1:2|0:2,0:0:0:0:
108,193,96931,6,0,P|94:122|143:27,1,128.125,6|0,1:2|0:0,0:0:0:0:
108,70,97278,6,0,P|171:126|119:35,1,307.500011730195,6|0,1:1|0:0,0:0:0:0:
